Zubin Mehta - Zubin Mehta conducts Richard Strauss (2016) (8CD Box Set)

Posted By: murena
Zubin Mehta - Zubin Mehta conducts Richard Strauss (2016) (8CD Box Set)

Zubin Mehta - Zubin Mehta conducts Richard Strauss (2016) (8CD Box Set)
EAC Rip | FLAC (Image+.cue, log) | 1,82 Gb | Scans (300 dpi, JPG) > 14mb
Genre: Classical / Label: Sony

The other major orchestral release here features the Richard Strauss recordings conducted for Sony Classical by Zubin Mehta. ClassicsTodays reviewer observed that Mehta always has been an excellent Straussian. The new 8-CD box includes major tone poems, the horn concertos, opera excerpts both orchestral and vocal with soprano Jane Eaglen and a complete recording of Salome, with Eva Marton in the title role and Mehta conducting the Berlin Philharmonic.

TRACKLIST:
CD1:
Richard Strauss: Also sprach Zarathustra, Op. 30, TrV 176

Einleitung
Von den Hintersweltern
Von der grossen Sehnsucht
Von den Freuden und Leidenschaften
Das Grablied
Von der Wissenschaft
Der Genesende
Ziemlich langsam in Viertein
Das Tanzlied
Das Nachtwanderlied
Langsam

Richard Strauss: Don Juan, Op. 20, TrV 156
Don Juan, Op. 20, TrV 156

Total Time: 48:43

CD2:
Richard Strauss: Eine Alpensinfonie, Op. 64, TrV 233

Nacht
Sonnenaufgang
Der Anstieg
Eintritt in den Wald
Wanderung neben dem Bache
Am Wasserfall
Erscheinung
Auf blumige Wiesen
Auf der Alm
Durch Dickicht und Gestrüpp auf Irrwegen
Auf dem Gletscher
Gefahrvolle Augenblicke
Auf dem Gipfel
Vision
Nebel steigen auf
Die Sonne verdüstert sich allmählich
Elegie
Stille vor dem Sturm
Gewitter und Sturm
Sonnenuntergang
Ausklang
Nacht

Richard Strauss: Concerto No. 1 for Horn and Orchestra in E-Flat Major, Op. 11
I. Allegro
II. Andante
III. Allegro

Total Time: 67:57

CD3:
Richard Strauss: Ein Heldenleben, Op. 40, TrV 190

Der Held
Des Helden Widersacher
Des Helden Gefährtin
Des Helden Walstatt
Des Helden Friedenswerke
Des Helden Weltflucht und Vollendung

Richard Strauss: Horn Concerto No. 2 in E-Flat Major, TrV 283
I. Allegro
II. Andante con moto
III. Rondo. Allegro molto

Total Time: 61:10

CD4:
Richard Strauss: Sinfonia Domestica, Op. 53, TrV 209

Thema I - Bewegt
Thema II - Sehr lebhaft
Thema III - Ruhig
Scherzo
Etwas ruhiger
Wiegenlied - Mässig langsam
Mässig langsam und sehr ruhig
Adagio - Langsam
Mässig langsam
Finale - Sehr lebhaft
A tempo, ruhig und einfach
Sehr lebhaft und lustig

Richard Strauss: Burleske in D Minor for Piano and Orchestra, TrV 145
Allegro vivace
Tranquillo
(Cadenza)
Solo
Solo
Poco più tranquillo
Sempre quasi Cadenza

Total Time: 65:26

CD5:
Richard Strauss: Der Rosenkavalier, Op. 59, TrV 227: Waltz Sequence No. 1

Der Rosenkavalier, Op. 59, TrV 227: Waltz Sequence No. 1

Richard Strauss: Die Liebe der Danae, Op. 83, TrV 278 - Symphonic Fragment
I. Molto vivace
II. Più tranquillo

Richard Strauss: Intermezzo, Op. 72, TrV 246a - Symphonic Interludes
I. Reisefieber und Walzerszene
II. Träumerei am Kamin
III. Am Spieltisch
IV. Fröhlicher Beschluss

Richard Strauss: Die Frau ohne Schatten, Op. 65, TrV 234a - Symphonic Fantasia
Die Frau ohne Schatten, Op. 65, TrV 234a - Symphonic Fantasia

Total Time: 61:43

CD6:
Richard Strauss: Salome, Op. 54, TrV 215 - Scene I

"Wie schön ist die Prinzessin Salome heute nacht!"
"Nach mir wird Einer kommen"

Richard Strauss: Salome, Op. 54, TrV 215 - Scene II
"Ich will nicht bleiben"
"Siehe, der Herr ist gekommen,…"
"Du wirst das für mich tun, Narraboth, nicht wahr?"
"Ah!" - Orchestral Interlude

Richard Strauss: Salome, Op. 54, TrV 215 - Scene III
"Wo ist er, dessen Sündenbecher jetzt voll ist?"
"Er ist schrecklich"
"Jochanaan!"
"Niemals, Tochter Babylons,…."

Richard Strauss: Salome, Op. 54, TrV 215 - Orchestral Interlude
Salome, Op. 54, TrV 215 - Orchestral Interlude

Richard Strauss: Salome, Op. 54, TrV 215 - Scene IV (beg.)
"Wo ist Salome? Wo ist die Prinzessin?"
"Salome, komm, trink Wein mit mir,…"
"Wahrhaftig, Herr, es wäre besser,…"
"Siehe, der Tag ist nahe,…"

Total Time: 53:12

CD7:
Richard Strauss: Salome, Op. 54, TrV 215 - Scene IV (conc)

"Tanz für mich, Salome."
Salomes Tanz
"Ah! Herrlich!"
"Still, sprich nicht zu mir!"
"Wer hat meinen Ring genommen?"
"Es ist kein Laut zu vernehmen"
"Ah! du wolltest mich nicht deinen Mund küssen lassen"
"Sie ist ein Ungeheuer, deine Tochter."
"Ah! Ich habe deinen Mund geküsst, Jochanaan."

Total Time: 43:43

CD8:
Richard Strauss: Salome, Op. 54, TrV 215: "Ah! Du wolltest mich nicht deinen Mund küssen lassen"

Salome, Op. 54, TrV 215: "Ah! Du wolltest mich nicht deinen Mund küssen lassen"

Richard Strauss: Guntram, Op. 25, TrV 168, Act II: "Fass' ich sie bang"
Guntram, Op. 25, TrV 168, Act II: "Fass' ich sie bang"

Richard Strauss: Ariadne auf Naxos, Op. 60, TrV 228a: "Es gibt ein Reich, wo alles rein ist"
Ariadne auf Naxos, Op. 60, TrV 228a: "Es gibt ein Reich, wo alles rein ist"

Richard Strauss: Arabella, Op. 79, TrV 263, Act I: "Mein Elemer!"
Arabella, Op. 79, TrV 263, Act I: "Mein Elemer!"

Richard Strauss: Die ägyptische Helena, Op. 75, TrV 255, Act II: Zweite Brautnacht!
Die ägyptische Helena, Op. 75, TrV 255, Act II: Zweite Brautnacht!

Total Time: 38:11

Zubin Mehta - Zubin Mehta conducts Richard Strauss (2016) (8CD Box Set)



Exact Audio Copy V1.0 beta 3 from 29. August 2011

EAC extraction logfile from 19. November 2016, 19:50

Unknown Artist / Unknown Title

Used drive : HL-DT-STDVDRAM GH24NSB0 Adapter: 0 ID: 0

Read mode : Secure
Utilize accurate stream : Yes
Defeat audio cache : No
Make use of C2 pointers : Yes

Read offset correction : 6
Overread into Lead-In and Lead-Out : No
Fill up missing offset samples with silence : Yes
Delete leading and trailing silent blocks : No
Null samples used in CRC calculations : Yes
Used interface : Native Win32 interface for Win NT & 2000

Used output format : User Defined Encoder
Selected bitrate : 768 kBit/s
Quality : High
Add ID3 tag : No
Command line compressor : C:\Program Files (x86)\Exact Audio Copy\FLAC\FLAC.EXE
Additional command line options : -6 -V -T "ARTIST=%artist%" -T "TITLE=%title%" -T "ALBUM=%albumtitle%" -T "DATE=%year%" -T "TRACKNUMBER=%tracknr%" -T "GENRE=%genre%" -T "COMMENT=%comment%" -T "BAND=%albuminterpret%" -T "ALBUMARTIST=%albuminterpret%" -T "COMPOSER=%composer%" %haslyrics%–tag-from-file=LYRICS="%lyricsfile%"%haslyrics% -T "DISCNUMBER=%cdnumber%" -T "TOTALDISCS=%totalcds%" -T "TOTALTRACKS=%numtracks%" %hascover%–picture="%coverfile%"%hascover% %source% -o %dest%


TOC of the extracted CD

Track | Start | Length | Start sector | End sector
––––––––––––––––––––––––––––-
1 | 0:00.00 | 1:35.09 | 0 | 7133
2 | 1:35.09 | 3:17.15 | 7134 | 21923
3 | 4:52.24 | 1:42.51 | 21924 | 29624
4 | 6:35.00 | 2:01.18 | 29625 | 38717
5 | 8:36.18 | 2:19.48 | 38718 | 49190
6 | 10:55.66 | 3:41.05 | 49191 | 65770
7 | 14:36.71 | 1:44.67 | 65771 | 73637
8 | 16:21.63 | 3:23.29 | 73638 | 88891
9 | 19:45.17 | 7:44.19 | 88892 | 123710
10 | 27:29.36 | 1:02.29 | 123711 | 128389
11 | 28:31.65 | 2:58.60 | 128390 | 141799
12 | 31:30.50 | 17:27.28 | 141800 | 220352


Range status and errors

Selected range

Filename D:\Zubin Mehta conducts Richard Strauss\CD1.wav

Peak level 100.0 %
Extraction speed 20.9 X
Range quality 100.0 %
Copy CRC 25C1E00A
Copy OK

No errors occurred


AccurateRip summary

Track 1 not present in database
Track 2 not present in database
Track 3 not present in database
Track 4 not present in database
Track 5 not present in database
Track 6 not present in database
Track 7 not present in database
Track 8 not present in database
Track 9 not present in database
Track 10 not present in database
Track 11 not present in database
Track 12 not present in database

None of the tracks are present in the AccurateRip database

End of status report

–– CUETools DB Plugin V2.1.3

[CTDB TOCID: Fsjkw1mpOfnFXIvp7_ub2N9xStc-] found, Submit result: Fsjkw1mpOfnFXIvp7_ub2N9xStc- has been confirmed
[c589a86c] (1/1) Accurately ripped


==== Log checksum FB3396BAFCA1DBAF0A8A7B8F10B7C5E9DB8EA61E93B0611653069885FC5FF804 ====

Exact Audio Copy V1.0 beta 3 from 29. August 2011

EAC extraction logfile from 19. November 2016, 19:59

BPO - Zubin Mehta - Gerd Seifert (horn) / Richard Strauss - Alpine Symphony & Horn Concerto No 1

Used drive : HL-DT-STDVDRAM GH24NSB0 Adapter: 0 ID: 0

Read mode : Secure
Utilize accurate stream : Yes
Defeat audio cache : No
Make use of C2 pointers : Yes

Read offset correction : 6
Overread into Lead-In and Lead-Out : No
Fill up missing offset samples with silence : Yes
Delete leading and trailing silent blocks : No
Null samples used in CRC calculations : Yes
Used interface : Native Win32 interface for Win NT & 2000

Used output format : User Defined Encoder
Selected bitrate : 768 kBit/s
Quality : High
Add ID3 tag : No
Command line compressor : C:\Program Files (x86)\Exact Audio Copy\FLAC\FLAC.EXE
Additional command line options : -6 -V -T "ARTIST=%artist%" -T "TITLE=%title%" -T "ALBUM=%albumtitle%" -T "DATE=%year%" -T "TRACKNUMBER=%tracknr%" -T "GENRE=%genre%" -T "COMMENT=%comment%" -T "BAND=%albuminterpret%" -T "ALBUMARTIST=%albuminterpret%" -T "COMPOSER=%composer%" %haslyrics%–tag-from-file=LYRICS="%lyricsfile%"%haslyrics% -T "DISCNUMBER=%cdnumber%" -T "TOTALDISCS=%totalcds%" -T "TOTALTRACKS=%numtracks%" %hascover%–picture="%coverfile%"%hascover% %source% -o %dest%


TOC of the extracted CD

Track | Start | Length | Start sector | End sector
––––––––––––––––––––––––––––-
1 | 0:00.00 | 3:27.15 | 0 | 15539
2 | 3:27.15 | 1:38.02 | 15540 | 22891
3 | 5:05.17 | 2:16.00 | 22892 | 33091
4 | 7:21.17 | 5:08.00 | 33092 | 56191
5 | 12:29.17 | 0:51.48 | 56192 | 60064
6 | 13:20.65 | 0:15.22 | 60065 | 61211
7 | 13:36.12 | 0:47.60 | 61212 | 64796
8 | 14:23.72 | 0:53.60 | 64797 | 68831
9 | 15:17.57 | 2:15.70 | 68832 | 79026
10 | 17:33.52 | 1:27.25 | 79027 | 85576
11 | 19:01.02 | 0:54.23 | 85577 | 89649
12 | 19:55.25 | 1:24.55 | 89650 | 96004
13 | 21:20.05 | 5:24.55 | 96005 | 120359
14 | 26:44.60 | 3:47.02 | 120360 | 137386
15 | 30:31.62 | 0:17.55 | 137387 | 138716
16 | 30:49.42 | 0:46.50 | 138717 | 142216
17 | 31:36.17 | 2:08.33 | 142217 | 151849
18 | 33:44.50 | 3:13.47 | 151850 | 166371
19 | 36:58.22 | 3:37.28 | 166372 | 182674
20 | 40:35.50 | 2:41.35 | 182675 | 194784
21 | 43:17.10 | 6:38.05 | 194785 | 224639
22 | 49:55.15 | 2:30.02 | 224640 | 235891
23 | 52:25.17 | 5:03.58 | 235892 | 258674
24 | 57:29.00 | 5:50.52 | 258675 | 284976
25 | 63:19.52 | 4:51.48 | 284977 | 306849


Range status and errors

Selected range

Filename D:\Zubin Mehta conducts Richard Strauss\CD2 Richard Strauss - Alpine Symphony & Horn Concerto No 1.wav

Peak level 98.8 %
Extraction speed 9.8 X
Range quality 100.0 %
Copy CRC 1A17ED1A
Copy OK

No errors occurred


AccurateRip summary

Track 1 cannot be verified as accurate (confidence 6) [8B5C9217], AccurateRip returned [4D8D24FD] (AR v2)
Track 2 cannot be verified as accurate (confidence 6) [66BD01F4], AccurateRip returned [91D189FC] (AR v2)
Track 3 cannot be verified as accurate (confidence 6) [98A9A050], AccurateRip returned [0AC2F26E] (AR v2)
Track 4 cannot be verified as accurate (confidence 6) [02CE7BE4], AccurateRip returned [58DCD500] (AR v2)
Track 5 cannot be verified as accurate (confidence 6) [5160237A], AccurateRip returned [B11FDA8C] (AR v2)
Track 6 cannot be verified as accurate (confidence 6) [7C202A11], AccurateRip returned [E72F209F] (AR v2)
Track 7 cannot be verified as accurate (confidence 6) [2C158E17], AccurateRip returned [CF8905E1] (AR v2)
Track 8 cannot be verified as accurate (confidence 6) [BE3BF4C1], AccurateRip returned [697CF77F] (AR v2)
Track 9 cannot be verified as accurate (confidence 6) [D8C33316], AccurateRip returned [97B16719] (AR v2)
Track 10 cannot be verified as accurate (confidence 6) [C6C5BCA6], AccurateRip returned [10CDBE77] (AR v2)
Track 11 cannot be verified as accurate (confidence 6) [D94B7096], AccurateRip returned [205BB840] (AR v2)
Track 12 cannot be verified as accurate (confidence 6) [AD2F3191], AccurateRip returned [D3A31B5D] (AR v2)
Track 13 cannot be verified as accurate (confidence 5) [78075C2B], AccurateRip returned [0612757C] (AR v2)
Track 14 cannot be verified as accurate (confidence 5) [FCB29C07], AccurateRip returned [657F7DC2] (AR v2)
Track 15 cannot be verified as accurate (confidence 5) [D2C7117E], AccurateRip returned [E875FFFC] (AR v2)
Track 16 cannot be verified as accurate (confidence 5) [2EF381D0], AccurateRip returned [DDA99B36] (AR v2)
Track 17 cannot be verified as accurate (confidence 5) [735AB444], AccurateRip returned [24891388] (AR v2)
Track 18 cannot be verified as accurate (confidence 5) [E14C8FDC], AccurateRip returned [DB5F26B3] (AR v2)
Track 19 cannot be verified as accurate (confidence 5) [7DD858A7], AccurateRip returned [556848BD] (AR v2)
Track 20 cannot be verified as accurate (confidence 5) [E7023C7B], AccurateRip returned [F41D7663] (AR v2)
Track 21 cannot be verified as accurate (confidence 5) [CAEB0996], AccurateRip returned [9B97016C] (AR v2)
Track 22 cannot be verified as accurate (confidence 5) [78E0BC96], AccurateRip returned [6611F6FB] (AR v2)
Track 23 cannot be verified as accurate (confidence 5) [4A85648E], AccurateRip returned [063740B1] (AR v2)
Track 24 cannot be verified as accurate (confidence 5) [FCE35841], AccurateRip returned [C6F40EE7] (AR v2)
Track 25 cannot be verified as accurate (confidence 5) [678374E7], AccurateRip returned [3EBFB4EB] (AR v2)

No tracks could be verified as accurate
You may have a different pressing from the one(s) in the database

End of status report

–– CUETools DB Plugin V2.1.3

[CTDB TOCID: w435afnKl7CKQNDDbUpNxe5y3Ew-] found, Submit result: w435afnKl7CKQNDDbUpNxe5y3Ew- has been confirmed
[f467024a] (20/22) No match
[d6c7e0d3] (01/22) No match
[fe7ccc98] (01/22) Accurately ripped


==== Log checksum BC5AA8B05276D7E927EEAC22457E736A5688E5D3029EC5C3749769F452C3C08E ====

Exact Audio Copy V1.0 beta 3 from 29. August 2011

EAC extraction logfile from 19. November 2016, 20:03

Berliner Philarmoniker - Zubin Mehta / Strauss - Ein Heldenleben

Used drive : HL-DT-STDVDRAM GH24NSB0 Adapter: 0 ID: 0

Read mode : Secure
Utilize accurate stream : Yes
Defeat audio cache : No
Make use of C2 pointers : Yes

Read offset correction : 6
Overread into Lead-In and Lead-Out : No
Fill up missing offset samples with silence : Yes
Delete leading and trailing silent blocks : No
Null samples used in CRC calculations : Yes
Used interface : Native Win32 interface for Win NT & 2000

Used output format : User Defined Encoder
Selected bitrate : 768 kBit/s
Quality : High
Add ID3 tag : No
Command line compressor : C:\Program Files (x86)\Exact Audio Copy\FLAC\FLAC.EXE
Additional command line options : -6 -V -T "ARTIST=%artist%" -T "TITLE=%title%" -T "ALBUM=%albumtitle%" -T "DATE=%year%" -T "TRACKNUMBER=%tracknr%" -T "GENRE=%genre%" -T "COMMENT=%comment%" -T "BAND=%albuminterpret%" -T "ALBUMARTIST=%albuminterpret%" -T "COMPOSER=%composer%" %haslyrics%–tag-from-file=LYRICS="%lyricsfile%"%haslyrics% -T "DISCNUMBER=%cdnumber%" -T "TOTALDISCS=%totalcds%" -T "TOTALTRACKS=%numtracks%" %hascover%–picture="%coverfile%"%hascover% %source% -o %dest%


TOC of the extracted CD

Track | Start | Length | Start sector | End sector
––––––––––––––––––––––––––––-
1 | 0:00.00 | 4:15.10 | 0 | 19134
2 | 4:15.10 | 3:25.55 | 19135 | 34564
3 | 7:40.65 | 13:24.58 | 34565 | 94922
4 | 21:05.48 | 7:08.45 | 94923 | 127067
5 | 28:14.18 | 6:20.35 | 127068 | 155602
6 | 34:34.53 | 12:34.57 | 155603 | 212209
7 | 47:09.35 | 8:22.05 | 212210 | 249864
8 | 55:31.40 | 5:37.23 | 249865 | 275162
9 | 61:08.63 | 5:11.23 | 275163 | 298510


Range status and errors

Selected range

Filename D:\Zubin Mehta conducts Richard Strauss\CD3 Berliner Philarmoniker - Zubin Mehta - Strauss - Ein Heldenleben.wav

Peak level 98.8 %
Extraction speed 24.6 X
Range quality 99.9 %
Copy CRC 5A37B8BB
Copy OK

No errors occurred


AccurateRip summary

Track 1 not present in database
Track 2 not present in database
Track 3 not present in database
Track 4 not present in database
Track 5 not present in database
Track 6 not present in database
Track 7 not present in database
Track 8 not present in database
Track 9 not present in database

None of the tracks are present in the AccurateRip database

End of status report

–– CUETools DB Plugin V2.1.3

[CTDB TOCID: kufzmvAODKl_fLsyvd5I3rmzC7I-] found, Submit result: kufzmvAODKl_fLsyvd5I3rmzC7I- has been confirmed
[d55a0b26] (1/1) Accurately ripped


==== Log checksum 0CE8186879CF75BFD7DF9C67944BD4C1A72EB043E7AFC2BB03525F70A5BE799C ====

Exact Audio Copy V1.0 beta 3 from 29. August 2011

EAC extraction logfile from 19. November 2016, 20:08

Zubin Mehta, Berliner Philharmonier; Daniel Barenboin, piano / Symphonia Domestica & Burleske

Used drive : HL-DT-STDVDRAM GH24NSB0 Adapter: 0 ID: 0

Read mode : Secure
Utilize accurate stream : Yes
Defeat audio cache : No
Make use of C2 pointers : Yes

Read offset correction : 6
Overread into Lead-In and Lead-Out : No
Fill up missing offset samples with silence : Yes
Delete leading and trailing silent blocks : No
Null samples used in CRC calculations : Yes
Used interface : Native Win32 interface for Win NT & 2000

Used output format : User Defined Encoder
Selected bitrate : 768 kBit/s
Quality : High
Add ID3 tag : No
Command line compressor : C:\Program Files (x86)\Exact Audio Copy\FLAC\FLAC.EXE
Additional command line options : -6 -V -T "ARTIST=%artist%" -T "TITLE=%title%" -T "ALBUM=%albumtitle%" -T "DATE=%year%" -T "TRACKNUMBER=%tracknr%" -T "GENRE=%genre%" -T "COMMENT=%comment%" -T "BAND=%albuminterpret%" -T "ALBUMARTIST=%albuminterpret%" -T "COMPOSER=%composer%" %haslyrics%–tag-from-file=LYRICS="%lyricsfile%"%haslyrics% -T "DISCNUMBER=%cdnumber%" -T "TOTALDISCS=%totalcds%" -T "TOTALTRACKS=%numtracks%" %hascover%–picture="%coverfile%"%hascover% %source% -o %dest%


TOC of the extracted CD

Track | Start | Length | Start sector | End sector
––––––––––––––––––––––––––––-
1 | 0:00.00 | 0:59.17 | 0 | 4441
2 | 0:59.17 | 2:32.08 | 4442 | 15849
3 | 3:31.25 | 1:49.02 | 15850 | 24026
4 | 5:20.27 | 3:42.28 | 24027 | 40704
5 | 9:02.55 | 3:05.45 | 40705 | 54624
6 | 12:08.25 | 3:33.00 | 54625 | 70599
7 | 15:41.25 | 2:33.12 | 70600 | 82086
8 | 18:14.37 | 9:55.45 | 82087 | 126756
9 | 28:10.07 | 2:56.05 | 126757 | 139961
10 | 31:06.12 | 5:47.73 | 139962 | 166059
11 | 36:54.10 | 5:42.35 | 166060 | 191744
12 | 42:36.45 | 3:19.05 | 191745 | 206674
13 | 45:55.50 | 2:01.22 | 206675 | 215771
14 | 47:56.72 | 3:19.53 | 215772 | 230749
15 | 51:16.50 | 5:11.50 | 230750 | 254124
16 | 56:28.25 | 2:41.40 | 254125 | 266239
17 | 59:09.65 | 1:40.67 | 266240 | 273806
18 | 60:50.57 | 0:43.13 | 273807 | 277044
19 | 61:33.70 | 3:58.57 | 277045 | 294951


Range status and errors

Selected range

Filename D:\Zubin Mehta conducts Richard Strauss\CD4 Symphonia Domestica & Burleske.wav

Peak level 98.8 %
Extraction speed 24.5 X
Range quality 99.9 %
Copy CRC C4444B14
Copy OK

No errors occurred


AccurateRip summary

Track 1 cannot be verified as accurate (confidence 2) [BB46EDFB], AccurateRip returned [B9D77B49] (AR v2)
Track 2 cannot be verified as accurate (confidence 2) [5FF0F528], AccurateRip returned [E9273DE3] (AR v2)
Track 3 cannot be verified as accurate (confidence 2) [B7515C03], AccurateRip returned [020407CE] (AR v2)
Track 4 cannot be verified as accurate (confidence 2) [F5EB7DC6], AccurateRip returned [261CEFFA] (AR v2)
Track 5 cannot be verified as accurate (confidence 2) [BA5F7A19], AccurateRip returned [BC1F3A85] (AR v2)
Track 6 cannot be verified as accurate (confidence 2) [D789F6D5], AccurateRip returned [4237A96A] (AR v2)
Track 7 cannot be verified as accurate (confidence 2) [505DE022], AccurateRip returned [A8CC2BF1] (AR v2)
Track 8 cannot be verified as accurate (confidence 2) [AB7C4464], AccurateRip returned [B4E7EE70] (AR v2)
Track 9 cannot be verified as accurate (confidence 2) [DE7BDFDF], AccurateRip returned [B591E9CC] (AR v2)
Track 10 cannot be verified as accurate (confidence 2) [5F515F1A], AccurateRip returned [1A27FCAD] (AR v2)
Track 11 cannot be verified as accurate (confidence 2) [938401A6], AccurateRip returned [2D93B742] (AR v2)
Track 12 cannot be verified as accurate (confidence 2) [517AD341], AccurateRip returned [E0BCF99A] (AR v2)
Track 13 cannot be verified as accurate (confidence 2) [982E6BC7], AccurateRip returned [FC8B3A0B] (AR v2)
Track 14 cannot be verified as accurate (confidence 2) [6515F87C], AccurateRip returned [1DA89B3B] (AR v2)
Track 15 cannot be verified as accurate (confidence 2) [41B833D0], AccurateRip returned [B1FEA79F] (AR v2)
Track 16 cannot be verified as accurate (confidence 2) [361AE6E8], AccurateRip returned [40EDC8E0] (AR v2)
Track 17 cannot be verified as accurate (confidence 2) [B331F998], AccurateRip returned [CC8DAE42] (AR v2)
Track 18 cannot be verified as accurate (confidence 2) [D77F6F15], AccurateRip returned [11E0DE14] (AR v2)
Track 19 cannot be verified as accurate (confidence 2) [B51414AD], AccurateRip returned [4000AA29] (AR v2)

No tracks could be verified as accurate
You may have a different pressing from the one(s) in the database

End of status report

–– CUETools DB Plugin V2.1.3

[CTDB TOCID: auPjT5_3cU3yKRzZDBY24CVLr5s-] found, Submit result: auPjT5_3cU3yKRzZDBY24CVLr5s- has been confirmed
[2a4d52be] (2/3) No match
[23140eae] (1/3) Accurately ripped


==== Log checksum 9D2D26D27F114BA4818045198968D69369265D3F4C37C16AD6EA8A16545031E1 ====

Exact Audio Copy V1.0 beta 3 from 29. August 2011

EAC extraction logfile from 19. November 2016, 20:13

Berlin Philharmonic (Mehta, 1990) / Richard Strauss Symphonic Music

Used drive : HL-DT-STDVDRAM GH24NSB0 Adapter: 0 ID: 0

Read mode : Secure
Utilize accurate stream : Yes
Defeat audio cache : No
Make use of C2 pointers : Yes

Read offset correction : 6
Overread into Lead-In and Lead-Out : No
Fill up missing offset samples with silence : Yes
Delete leading and trailing silent blocks : No
Null samples used in CRC calculations : Yes
Used interface : Native Win32 interface for Win NT & 2000

Used output format : User Defined Encoder
Selected bitrate : 768 kBit/s
Quality : High
Add ID3 tag : No
Command line compressor : C:\Program Files (x86)\Exact Audio Copy\FLAC\FLAC.EXE
Additional command line options : -6 -V -T "ARTIST=%artist%" -T "TITLE=%title%" -T "ALBUM=%albumtitle%" -T "DATE=%year%" -T "TRACKNUMBER=%tracknr%" -T "GENRE=%genre%" -T "COMMENT=%comment%" -T "BAND=%albuminterpret%" -T "ALBUMARTIST=%albuminterpret%" -T "COMPOSER=%composer%" %haslyrics%–tag-from-file=LYRICS="%lyricsfile%"%haslyrics% -T "DISCNUMBER=%cdnumber%" -T "TOTALDISCS=%totalcds%" -T "TOTALTRACKS=%numtracks%" %hascover%–picture="%coverfile%"%hascover% %source% -o %dest%


TOC of the extracted CD

Track | Start | Length | Start sector | End sector
––––––––––––––––––––––––––––-
1 | 0:00.00 | 11:39.47 | 0 | 52471
2 | 11:39.47 | 3:43.70 | 52472 | 69266
3 | 15:23.42 | 5:42.58 | 69267 | 94974
4 | 21:06.25 | 9:38.32 | 94975 | 138356
5 | 30:44.57 | 6:31.23 | 138357 | 167704
6 | 37:16.05 | 3:54.00 | 167705 | 185254
7 | 41:10.05 | 2:17.57 | 185255 | 195586
8 | 43:27.62 | 20:30.15 | 195587 | 287851


Range status and errors

Selected range

Filename D:\Zubin Mehta conducts Richard Strauss\CD5 Berlin Philharmonic (Mehta, 1990) - Richard Strauss Symphonic Music.wav

Peak level 98.8 %
Extraction speed 14.9 X
Range quality 99.9 %
Copy CRC B993F4F3
Copy OK

No errors occurred


AccurateRip summary

Track 1 cannot be verified as accurate (confidence 5) [0A306B0D], AccurateRip returned [5C3D81A7] (AR v2)
Track 2 cannot be verified as accurate (confidence 5) [BB57BA60], AccurateRip returned [64156A24] (AR v2)
Track 3 cannot be verified as accurate (confidence 5) [60069C39], AccurateRip returned [76CF494A] (AR v2)
Track 4 cannot be verified as accurate (confidence 5) [7DBFE51E], AccurateRip returned [2BA3B0A3] (AR v2)
Track 5 cannot be verified as accurate (confidence 5) [02BA6EBB], AccurateRip returned [8E016322] (AR v2)
Track 6 cannot be verified as accurate (confidence 5) [02838FE2], AccurateRip returned [842BAC8C] (AR v2)
Track 7 cannot be verified as accurate (confidence 5) [48C5ADD3], AccurateRip returned [90681EED] (AR v2)
Track 8 cannot be verified as accurate (confidence 4) [73F4F229], AccurateRip returned [5E50807E] (AR v2)

No tracks could be verified as accurate
You may have a different pressing from the one(s) in the database

End of status report

–– CUETools DB Plugin V2.1.3

[CTDB TOCID: EsbT2_cYiOQGnLyy6KInegOMzcQ-] found, Submit result: EsbT2_cYiOQGnLyy6KInegOMzcQ- has been confirmed
[8f851f48] (7/8) No match
[34bc7d78] (1/8) Accurately ripped


==== Log checksum BCD559CB06E49B209007C82140B5392F91F635B70498EDC622C63CC7116135D7 ====

Exact Audio Copy V1.0 beta 3 from 29. August 2011

EAC extraction logfile from 19. November 2016, 20:18

Marton; Weikl; Zednik; Fassbaender / Strauss: Salome (Mehta)

Used drive : HL-DT-STDVDRAM GH24NSB0 Adapter: 0 ID: 0

Read mode : Secure
Utilize accurate stream : Yes
Defeat audio cache : No
Make use of C2 pointers : Yes

Read offset correction : 6
Overread into Lead-In and Lead-Out : No
Fill up missing offset samples with silence : Yes
Delete leading and trailing silent blocks : No
Null samples used in CRC calculations : Yes
Used interface : Native Win32 interface for Win NT & 2000

Used output format : User Defined Encoder
Selected bitrate : 768 kBit/s
Quality : High
Add ID3 tag : No
Command line compressor : C:\Program Files (x86)\Exact Audio Copy\FLAC\FLAC.EXE
Additional command line options : -6 -V -T "ARTIST=%artist%" -T "TITLE=%title%" -T "ALBUM=%albumtitle%" -T "DATE=%year%" -T "TRACKNUMBER=%tracknr%" -T "GENRE=%genre%" -T "COMMENT=%comment%" -T "BAND=%albuminterpret%" -T "ALBUMARTIST=%albuminterpret%" -T "COMPOSER=%composer%" %haslyrics%–tag-from-file=LYRICS="%lyricsfile%"%haslyrics% -T "DISCNUMBER=%cdnumber%" -T "TOTALDISCS=%totalcds%" -T "TOTALTRACKS=%numtracks%" %hascover%–picture="%coverfile%"%hascover% %source% -o %dest%


TOC of the extracted CD

Track | Start | Length | Start sector | End sector
––––––––––––––––––––––––––––-
1 | 0:00.00 | 2:34.05 | 0 | 11554
2 | 2:34.05 | 2:27.02 | 11555 | 22581
3 | 5:01.07 | 1:41.50 | 22582 | 30206
4 | 6:42.57 | 3:45.55 | 30207 | 47136
5 | 10:28.37 | 1:39.58 | 47137 | 54619
6 | 12:08.20 | 1:18.35 | 54620 | 60504
7 | 13:26.55 | 4:37.72 | 60505 | 81351
8 | 18:04.52 | 4:13.63 | 81352 | 100389
9 | 22:18.40 | 6:52.17 | 100390 | 131306
10 | 29:10.57 | 5:13.68 | 131307 | 154849
11 | 34:24.50 | 3:52.47 | 154850 | 172296
12 | 38:17.22 | 3:42.03 | 172297 | 188949
13 | 41:59.25 | 3:30.20 | 188950 | 204719
14 | 45:29.45 | 2:31.65 | 204720 | 216109
15 | 48:01.35 | 5:10.67 | 216110 | 239426


Range status and errors

Selected range

Filename D:\Zubin Mehta conducts Richard Strauss\CD6 Strauss- Salome (Mehta).wav

Peak level 98.8 %
Extraction speed 23.4 X
Range quality 100.0 %
Copy CRC 73976CEE
Copy OK

No errors occurred


AccurateRip summary

Track 1 cannot be verified as accurate (confidence 6) [B03553F0], AccurateRip returned [22DC2782] (AR v2)
Track 2 cannot be verified as accurate (confidence 6) [EA7ABB0D], AccurateRip returned [653302B4] (AR v2)
Track 3 cannot be verified as accurate (confidence 6) [1FF3AEA4], AccurateRip returned [CEA337D4] (AR v2)
Track 4 cannot be verified as accurate (confidence 6) [2FB94E4D], AccurateRip returned [CC76B813] (AR v2)
Track 5 cannot be verified as accurate (confidence 6) [EBDE6141], AccurateRip returned [5E356AE6] (AR v2)
Track 6 cannot be verified as accurate (confidence 6) [A48B337B], AccurateRip returned [25868764] (AR v2)
Track 7 cannot be verified as accurate (confidence 6) [E502AF24], AccurateRip returned [BF352099] (AR v2)
Track 8 cannot be verified as accurate (confidence 6) [2798662F], AccurateRip returned [EBC582A3] (AR v2)
Track 9 cannot be verified as accurate (confidence 6) [72B77AE0], AccurateRip returned [DF715448] (AR v2)
Track 10 cannot be verified as accurate (confidence 6) [89FCE02A], AccurateRip returned [A63F6698] (AR v2)
Track 11 cannot be verified as accurate (confidence 6) [B0C2AA69], AccurateRip returned [10CF294C] (AR v2)
Track 12 cannot be verified as accurate (confidence 5) [3251F554], AccurateRip returned [54E95E1F] (AR v2)
Track 13 cannot be verified as accurate (confidence 5) [690D0054], AccurateRip returned [F7D40E8C] (AR v2)
Track 14 cannot be verified as accurate (confidence 6) [51AF5B70], AccurateRip returned [770FA7E5] (AR v2)
Track 15 cannot be verified as accurate (confidence 6) [EC4F544B], AccurateRip returned [FBF8D56D] (AR v2)

No tracks could be verified as accurate
You may have a different pressing from the one(s) in the database

End of status report

–– CUETools DB Plugin V2.1.3

[CTDB TOCID: YF1fjijdHAy5InwR69u2NI9R99c-] found, Submit result: YF1fjijdHAy5InwR69u2NI9R99c- has been confirmed
[fdc57382] (10/12) No match
[4dacab31] (01/12) No match
[c1201a34] (01/12) Accurately ripped


==== Log checksum A9B291206FE6D6F153463F5A51C68DE9DAF7B1FD938B358D89F9D3B256AFAB24 ====

Exact Audio Copy V1.0 beta 3 from 29. August 2011

EAC extraction logfile from 19. November 2016, 20:26

Marton; Weikl; Zednik; Fassbaender / Strauss: Salome (Mehta)

Used drive : HL-DT-STDVDRAM GH24NSB0 Adapter: 0 ID: 0

Read mode : Secure
Utilize accurate stream : Yes
Defeat audio cache : No
Make use of C2 pointers : Yes

Read offset correction : 6
Overread into Lead-In and Lead-Out : No
Fill up missing offset samples with silence : Yes
Delete leading and trailing silent blocks : No
Null samples used in CRC calculations : Yes
Used interface : Native Win32 interface for Win NT & 2000

Used output format : User Defined Encoder
Selected bitrate : 768 kBit/s
Quality : High
Add ID3 tag : No
Command line compressor : C:\Program Files (x86)\Exact Audio Copy\FLAC\FLAC.EXE
Additional command line options : -6 -V -T "ARTIST=%artist%" -T "TITLE=%title%" -T "ALBUM=%albumtitle%" -T "DATE=%year%" -T "TRACKNUMBER=%tracknr%" -T "GENRE=%genre%" -T "COMMENT=%comment%" -T "BAND=%albuminterpret%" -T "ALBUMARTIST=%albuminterpret%" -T "COMPOSER=%composer%" %haslyrics%–tag-from-file=LYRICS="%lyricsfile%"%haslyrics% -T "DISCNUMBER=%cdnumber%" -T "TOTALDISCS=%totalcds%" -T "TOTALTRACKS=%numtracks%" %hascover%–picture="%coverfile%"%hascover% %source% -o %dest%


TOC of the extracted CD

Track | Start | Length | Start sector | End sector
––––––––––––––––––––––––––––-
1 | 0:00.00 | 3:51.57 | 0 | 17381
2 | 3:51.57 | 9:35.50 | 17382 | 60556
3 | 13:27.32 | 3:40.28 | 60557 | 77084
4 | 17:07.60 | 6:53.12 | 77085 | 108071
5 | 24:00.72 | 0:52.03 | 108072 | 111974
6 | 24:53.00 | 2:15.45 | 111975 | 122144
7 | 27:08.45 | 10:45.45 | 122145 | 170564
8 | 37:54.15 | 1:06.00 | 170565 | 175514
9 | 39:00.15 | 4:42.60 | 175515 | 196724


Range status and errors

Selected range

Filename D:\Zubin Mehta conducts Richard Strauss\CD7 Strauss- Salome (Mehta).wav

Peak level 98.8 %
Extraction speed 8.8 X
Range quality 100.0 %
Copy CRC 950CF87D
Copy OK

No errors occurred


AccurateRip summary

Track 1 cannot be verified as accurate (confidence 6) [1E46651A], AccurateRip returned [0051E596] (AR v2)
Track 2 cannot be verified as accurate (confidence 6) [8AF150DF], AccurateRip returned [DA571613] (AR v2)
Track 3 cannot be verified as accurate (confidence 5) [C94B4D4A], AccurateRip returned [991E01C3] (AR v2)
Track 4 cannot be verified as accurate (confidence 5) [34D3726B], AccurateRip returned [81627AE5] (AR v2)
Track 5 cannot be verified as accurate (confidence 6) [C1E834FD], AccurateRip returned [FA5DDCBC] (AR v2)
Track 6 cannot be verified as accurate (confidence 6) [44152CEA], AccurateRip returned [CDAAF5F6] (AR v2)
Track 7 cannot be verified as accurate (confidence 6) [E9532BFA], AccurateRip returned [0727D561] (AR v2)
Track 8 cannot be verified as accurate (confidence 6) [0A15C92A], AccurateRip returned [B266FF2A] (AR v2)
Track 9 cannot be verified as accurate (confidence 6) [CA0F8257], AccurateRip returned [5EBFE147] (AR v2)

No tracks could be verified as accurate
You may have a different pressing from the one(s) in the database

End of status report

–– CUETools DB Plugin V2.1.3

[CTDB TOCID: PfQVE4OhKB8ZHyAxcqv0ebRNEvs-] found, Submit result: PfQVE4OhKB8ZHyAxcqv0ebRNEvs- has been confirmed
[e5690b34] (10/12) No match
[1e0923d1] (01/12) No match
[e625f21b] (01/12) Accurately ripped


==== Log checksum D2D0C62FD2674FE1CDC67F6094C323221E4BB4E6A0B1B126ED04C9C11D960F1C ====

Exact Audio Copy V1.0 beta 3 from 29. August 2011

EAC extraction logfile from 19. November 2016, 20:32

Unknown Artist / Unknown Title

Used drive : HL-DT-STDVDRAM GH24NSB0 Adapter: 0 ID: 0

Read mode : Secure
Utilize accurate stream : Yes
Defeat audio cache : No
Make use of C2 pointers : Yes

Read offset correction : 6
Overread into Lead-In and Lead-Out : No
Fill up missing offset samples with silence : Yes
Delete leading and trailing silent blocks : No
Null samples used in CRC calculations : Yes
Used interface : Native Win32 interface for Win NT & 2000

Used output format : User Defined Encoder
Selected bitrate : 768 kBit/s
Quality : High
Add ID3 tag : No
Command line compressor : C:\Program Files (x86)\Exact Audio Copy\FLAC\FLAC.EXE
Additional command line options : -6 -V -T "ARTIST=%artist%" -T "TITLE=%title%" -T "ALBUM=%albumtitle%" -T "DATE=%year%" -T "TRACKNUMBER=%tracknr%" -T "GENRE=%genre%" -T "COMMENT=%comment%" -T "BAND=%albuminterpret%" -T "ALBUMARTIST=%albuminterpret%" -T "COMPOSER=%composer%" %haslyrics%–tag-from-file=LYRICS="%lyricsfile%"%haslyrics% -T "DISCNUMBER=%cdnumber%" -T "TOTALDISCS=%totalcds%" -T "TOTALTRACKS=%numtracks%" %hascover%–picture="%coverfile%"%hascover% %source% -o %dest%


TOC of the extracted CD

Track | Start | Length | Start sector | End sector
––––––––––––––––––––––––––––-
1 | 0:00.00 | 14:48.27 | 0 | 66626
2 | 14:48.27 | 5:09.55 | 66627 | 89856
3 | 19:58.07 | 5:33.20 | 89857 | 114851
4 | 25:31.27 | 8:21.73 | 114852 | 152499
5 | 33:53.25 | 4:44.23 | 152500 | 173822


Range status and errors

Selected range

Filename D:\Zubin Mehta conducts Richard Strauss\CD8.wav

Peak level 99.8 %
Extraction speed 8.5 X
Range quality 100.0 %
Copy CRC DC5F92F8
Copy OK

No errors occurred


AccurateRip summary

Track 1 not present in database
Track 2 not present in database
Track 3 not present in database
Track 4 not present in database
Track 5 not present in database

None of the tracks are present in the AccurateRip database

End of status report

–– CUETools DB Plugin V2.1.3

[CTDB TOCID: GqvDgnEA2z8A1wxGY703WV7Q2GY-] found, Submit result: GqvDgnEA2z8A1wxGY703WV7Q2GY- has been confirmed
[876cd1f7] (1/1) Accurately ripped


==== Log checksum B38EA36318C54B998D2EDBEEE6E2F773AED9C584B1DC7CDF20E73885DC8A585D ====

Thanks to the Original customer.