Tags
Language
Tags

ABBA - Singles Collection: 1972-1982 (1999) [27 CDS Box Set] Re-UploaD

Posted By: Justin
ABBA - Singles Collection: 1972-1982 (1999) [27 CDS Box Set] Re-UploaD

ABBA - Singles Collection: 1972-1982 (1999) [27 CDS Box Set]
27x EAC | FLAC(tracks) +CUEs+LOGs - 1,48 GB | Full Scans | MP3 CBR 320 Kbps - 486 MB
Pop / Disco | TT - 211:41 minutes | Label: Polar Music International A.B. | Catalogue # 561252-2

Rare 1999 UK limited edition 54-track 27-CD single box set, features all the singles from the decade in superb colour card picture sleeves, presented in a stunning silver flip-top card box with facsimilie signatures and logo emblazoned across the front.

Yet another repackaging of the Swedish superstars' hits, Singles Collection 1972-82 is a lavish limited-edition package offering no less than 27 individual CDs, each containing the respective A and B sides of every ABBA single released during their decade at the top.

Disc 01 - People Need Love (1972):
01. People Need Love
02. Merry-Go-Round

Disc 02 - Ring Ring (1973):
01. Ring Ring
02. Rock 'N' Roll Band

Disc 03 - Waterloo (1974):
01. Waterloo
02. Watch Out

Disc 04 - Honey Honey (1974):
01. Honey Honey
02. Ring Ring

Disc 05 - So Long (1974):
01. So Long
02. I've Been Waiting For You

Disc 06 - I Do, I Do, I Do, I Do, I Do (1975):
01. I Do, I Do, I Do, I Do, I Do
02. Rock Me

Disc 07 - S.O.S. (1975):
01. S.O.S.
02. Man In The Middle

Disc 08 - Mamma Mia (1975):
01. Mamma Mia
02. Intermezzo Nr. 1

Disc 09 - Fernando (1976):
01. Fernando
02. Tropical Loveland

Disc 10 - Dancing Queen (1976):
01. Dancing Queen
02. That's Me

Disc 11 - Money, Money, Money (1976):
01. Money, Money, Money
02. Crazy World

Disc 12 - Knowing Me, Knowing You (1977):
01. Knowing Me, Knowing You
02. Happy Hawaii

Disc 13 - The Name Of The Game (1977):
01. The Name Of The Game
02. I Wonder (b]Departure

Disc 14 - Take A Chance On Me (1978):
01. Take A Chance On Me
02. I'm A Marionette

Disc 15 - Eagle (1978):
01. Eagle
02. Thank You For The Music

Disc 16 - Summer Night City (1978):
01. Summer Night City
02. Medley: Pick A Bale Of Cotton, On Top Of Old Smokey, Midnight Special

Disc 17 - Chiquitita (1979):
01. Chiquitita
02. Lovelight

Disc 18 - Does Your Mother Know (1979):
01. Does Your Mother Know
02. Kisses Of Fire

Disc 19 - Voulez-Vous (1979):
01. Voulez-Vous
02. Angeleyes

Disc 20 - Gimme! Gimme! Gimme! (1979):
01. Gimme! Gimme! Gimme!
02. The King Has Lost His Crown

Disc 21 - I Have A Dream (1979):
01. I Have A Dream
02. Take A Chance On Me (b):Live

Disc 22 - The Winner Takes It All (1980):
01. The Winner Takes It All
02. Elaine

Disc 23 - Super Trouper (1980):
01. Super Trouper
02. The Piper

Disc 24 - One Of Us (1981):
01. One Of Us
02. Should I Laugh Or Cry

Disc 25 - Head Over Heels (1982):
01. Head Over Heels
02. The Visitors

Disc 26 - The Day Before You Came (1982):
01. The Day Before You Came
02. Cassandra

Disc 27 - Under Attack (1982):
01. Under Attack
02. You Owe Me One


EAC extraction logfile from 10. November 2007, 12:41 for CD
ABBA / Singles Collection 1972-1982 (Disc 01) People Need Love [1972]

Used drive : SONY DVD RW DW-G121A Adapter: 4 ID: 0
Read mode : Secure with NO C2, accurate stream, disable cache
Read offset correction : 6
Overread into Lead-In and Lead-Out : No

Used output format : C:\Program Files\FLAC\flac.exe (User Defined Encoder)
128 kBit/s
Additional command line options : -V -8 -T "artist=%a" -T "title=%t" -T "album=%g" -T "date=%y" -T "tracknumber=%n" -T "genre=%m" %s

Other options :
Fill up missing offset samples with silence : Yes
Delete leading and trailing silent blocks : No
Native Win32 interface for Win NT & 2000


Track 1
Filename C:\ABBA - Singles Collection 1972-1982 (Disc 01) People Need Love [1972]\01 - People Need Love.wav

Pre-gap length 0:00:02.00

Peak level 97.0 %
Track quality 100.0 %
Test CRC EE2D6495
Copy CRC EE2D6495
Copy OK

Track 2
Filename C:\ABBA - Singles Collection 1972-1982 (Disc 01) People Need Love [1972]\02 - Merry-Go-Round.wav

Pre-gap length 0:00:01.93

Peak level 92.7 %
Track quality 99.9 %
Test CRC 0DFEEDA1
Copy CRC 0DFEEDA1
Copy OK

No errors occured


End of status report

EAC extraction logfile from 10. November 2007, 12:52 for CD
ABBA / Singles Collection 1972-1982 (Disc 02) Ring Ring [1973]

Used drive : SONY DVD RW DW-G121A Adapter: 4 ID: 0
Read mode : Secure with NO C2, accurate stream, disable cache
Read offset correction : 6
Overread into Lead-In and Lead-Out : No

Used output format : C:\Program Files\FLAC\flac.exe (User Defined Encoder)
128 kBit/s
Additional command line options : -V -8 -T "artist=%a" -T "title=%t" -T "album=%g" -T "date=%y" -T "tracknumber=%n" -T "genre=%m" %s

Other options :
Fill up missing offset samples with silence : Yes
Delete leading and trailing silent blocks : No
Native Win32 interface for Win NT & 2000


Track 1
Filename C:\ABBA - Singles Collection 1972-1982 (Disc 02) Ring Ring [1973]\01 - Ring Ring.wav

Pre-gap length 0:00:02.00

Peak level 99.6 %
Track quality 100.0 %
Test CRC 77FFAFEA
Copy CRC 77FFAFEA
Copy OK

Track 2
Filename C:\ABBA - Singles Collection 1972-1982 (Disc 02) Ring Ring [1973]\02 - Rock 'N' Roll Band.wav

Pre-gap length 0:00:02.06

Peak level 95.1 %
Track quality 100.0 %
Test CRC 7AA4D263
Copy CRC 7AA4D263
Copy OK

No errors occured


End of status report

EAC extraction logfile from 10. November 2007, 13:02 for CD
ABBA / Singles Collection 1972-1982 (Disc 03) Waterloo [1974]

Used drive : SONY DVD RW DW-G121A Adapter: 4 ID: 0
Read mode : Secure with NO C2, accurate stream, disable cache
Read offset correction : 6
Overread into Lead-In and Lead-Out : No

Used output format : C:\Program Files\FLAC\flac.exe (User Defined Encoder)
128 kBit/s
Additional command line options : -V -8 -T "artist=%a" -T "title=%t" -T "album=%g" -T "date=%y" -T "tracknumber=%n" -T "genre=%m" %s

Other options :
Fill up missing offset samples with silence : Yes
Delete leading and trailing silent blocks : No
Native Win32 interface for Win NT & 2000


Track 1
Filename C:\ABBA - Singles Collection 1972-1982 (Disc 03) Waterloo [1974]\01 - Waterloo.wav

Pre-gap length 0:00:02.00

Peak level 99.6 %
Track quality 100.0 %
Test CRC EC5CEAD7
Copy CRC EC5CEAD7
Copy OK

Track 2
Filename C:\ABBA - Singles Collection 1972-1982 (Disc 03) Waterloo [1974]\02 - Watch Out.wav

Pre-gap length 0:00:01.53

Peak level 97.0 %
Track quality 100.0 %
Test CRC 5DF8F156
Copy CRC 5DF8F156
Copy OK

No errors occured


End of status report

EAC extraction logfile from 10. November 2007, 13:13 for CD
ABBA / Singles Collection 1972-1982 (Disc 04) Honey Honey [1974]

Used drive : SONY DVD RW DW-G121A Adapter: 4 ID: 0
Read mode : Secure with NO C2, accurate stream, disable cache
Read offset correction : 6
Overread into Lead-In and Lead-Out : No

Used output format : C:\Program Files\FLAC\flac.exe (User Defined Encoder)
128 kBit/s
Additional command line options : -V -8 -T "artist=%a" -T "title=%t" -T "album=%g" -T "date=%y" -T "tracknumber=%n" -T "genre=%m" %s

Other options :
Fill up missing offset samples with silence : Yes
Delete leading and trailing silent blocks : No
Native Win32 interface for Win NT & 2000


Track 1
Filename C:\ABBA - Singles Collection 1972-1982 (Disc 04) Honey Honey [1974]\01 - Honey Honey.wav

Pre-gap length 0:00:02.00

Peak level 100.0 %
Track quality 100.0 %
Test CRC 6848A018
Copy CRC 6848A018
Copy OK

Track 2
Filename C:\ABBA - Singles Collection 1972-1982 (Disc 04) Honey Honey [1974]\02 - Ring Ring.wav

Pre-gap length 0:00:03.49

Peak level 91.7 %
Track quality 100.0 %
Test CRC E0A687DB
Copy CRC E0A687DB
Copy OK

No errors occured


End of status report

EAC extraction logfile from 10. November 2007, 13:23 for CD
ABBA / Singles Collection 1972-1982 (Disc 05) So Long [1974]

Used drive : SONY DVD RW DW-G121A Adapter: 4 ID: 0
Read mode : Secure with NO C2, accurate stream, disable cache
Read offset correction : 6
Overread into Lead-In and Lead-Out : No

Used output format : C:\Program Files\FLAC\flac.exe (User Defined Encoder)
128 kBit/s
Additional command line options : -V -8 -T "artist=%a" -T "title=%t" -T "album=%g" -T "date=%y" -T "tracknumber=%n" -T "genre=%m" %s

Other options :
Fill up missing offset samples with silence : Yes
Delete leading and trailing silent blocks : No
Native Win32 interface for Win NT & 2000


Track 1
Filename C:\ABBA - Singles Collection 1972-1982 (Disc 05) So Long [1974]\01 - So Long.wav

Pre-gap length 0:00:02.00

Peak level 99.6 %
Track quality 100.0 %
Test CRC 7916F629
Copy CRC 7916F629
Copy OK

Track 2
Filename C:\ABBA - Singles Collection 1972-1982 (Disc 05) So Long [1974]\02 - I've Been Waiting For You.wav

Pre-gap length 0:00:02.80

Peak level 99.5 %
Track quality 100.0 %
Test CRC 778A6F9C
Copy CRC 778A6F9C
Copy OK

No errors occured


End of status report

EAC extraction logfile from 10. November 2007, 13:36 for CD
ABBA / Singles Collection 1972-1982 (Disc 06) I Do, I Do, I Do, I Do, I Do [1975]

Used drive : SONY DVD RW DW-G121A Adapter: 4 ID: 0
Read mode : Secure with NO C2, accurate stream, disable cache
Read offset correction : 6
Overread into Lead-In and Lead-Out : No

Used output format : C:\Program Files\FLAC\flac.exe (User Defined Encoder)
128 kBit/s
Additional command line options : -V -8 -T "artist=%a" -T "title=%t" -T "album=%g" -T "date=%y" -T "tracknumber=%n" -T "genre=%m" %s

Other options :
Fill up missing offset samples with silence : Yes
Delete leading and trailing silent blocks : No
Native Win32 interface for Win NT & 2000


Track 1
Filename C:\ABBA - Singles Collection 1972-1982 (Disc 06) I Do, I Do, I Do, I Do, I Do [1975]\01 - I Do, I Do, I Do, I Do, I Do.wav

Pre-gap length 0:00:02.00

Peak level 90.3 %
Track quality 100.0 %
Test CRC 36A7BA36
Copy CRC 36A7BA36
Copy OK

Track 2
Filename C:\ABBA - Singles Collection 1972-1982 (Disc 06) I Do, I Do, I Do, I Do, I Do [1975]\02 - Rock Me.wav

Pre-gap length 0:00:02.49

Peak level 99.5 %
Track quality 100.0 %
Test CRC EC2FCB89
Copy CRC EC2FCB89
Copy OK

No errors occured


End of status report

EAC extraction logfile from 10. November 2007, 16:42 for CD
ABBA / Singles Collection 1972-1982 (Disc 07) S.O.S. [1975]

Used drive : SONY DVD RW DW-G121A Adapter: 4 ID: 0
Read mode : Secure with NO C2, accurate stream, disable cache
Read offset correction : 6
Overread into Lead-In and Lead-Out : No

Used output format : C:\Program Files\FLAC\flac.exe (User Defined Encoder)
128 kBit/s
Additional command line options : -V -8 -T "artist=%a" -T "title=%t" -T "album=%g" -T "date=%y" -T "tracknumber=%n" -T "genre=%m" %s

Other options :
Fill up missing offset samples with silence : Yes
Delete leading and trailing silent blocks : No
Native Win32 interface for Win NT & 2000


Track 1
Filename C:\ABBA - Singles Collection 1972-1982 (Disc 07) S.O.S. [1975]\01 - S.O.S..wav

Pre-gap length 0:00:02.00

Peak level 95.1 %
Track quality 100.0 %
Test CRC 848FE129
Copy CRC 848FE129
Copy OK

Track 2
Filename C:\ABBA - Singles Collection 1972-1982 (Disc 07) S.O.S. [1975]\02 - Man In The Middle.wav

Pre-gap length 0:00:01.57

Peak level 97.0 %
Track quality 100.0 %
Test CRC 1E48BB8A
Copy CRC 1E48BB8A
Copy OK

No errors occured


End of status report

EAC extraction logfile from 10. November 2007, 16:53 for CD
ABBA / Singles Collection 1972-1982 (Disc 08) Mamma Mia [1975]

Used drive : SONY DVD RW DW-G121A Adapter: 4 ID: 0
Read mode : Secure with NO C2, accurate stream, disable cache
Read offset correction : 6
Overread into Lead-In and Lead-Out : No

Used output format : C:\Program Files\FLAC\flac.exe (User Defined Encoder)
128 kBit/s
Additional command line options : -V -8 -T "artist=%a" -T "title=%t" -T "album=%g" -T "date=%y" -T "tracknumber=%n" -T "genre=%m" %s

Other options :
Fill up missing offset samples with silence : Yes
Delete leading and trailing silent blocks : No
Native Win32 interface for Win NT & 2000


Track 1
Filename C:\ABBA - Singles Collection 1972-1982 (Disc 08) Mamma Mia [1975]\01 - Mamma Mia.wav

Pre-gap length 0:00:02.00

Peak level 99.3 %
Track quality 100.0 %
Test CRC DCE04979
Copy CRC DCE04979
Copy OK

Track 2
Filename C:\ABBA - Singles Collection 1972-1982 (Disc 08) Mamma Mia [1975]\02 - Intermezzo Nr. 1.wav

Pre-gap length 0:00:01.40

Peak level 96.2 %
Track quality 100.0 %
Test CRC A0FAC335
Copy CRC A0FAC335
Copy OK

No errors occured


End of status report

EAC extraction logfile from 10. November 2007, 17:06 for CD
ABBA / Singles Collection 1972-1982 (Disc 09) Fernando [1975]

Used drive : SONY DVD RW DW-G121A Adapter: 4 ID: 0
Read mode : Secure with NO C2, accurate stream, disable cache
Read offset correction : 6
Overread into Lead-In and Lead-Out : No

Used output format : C:\Program Files\FLAC\flac.exe (User Defined Encoder)
128 kBit/s
Additional command line options : -V -8 -T "artist=%a" -T "title=%t" -T "album=%g" -T "date=%y" -T "tracknumber=%n" -T "genre=%m" %s

Other options :
Fill up missing offset samples with silence : Yes
Delete leading and trailing silent blocks : No
Native Win32 interface for Win NT & 2000


Track 1
Filename C:\ABBA - Singles Collection 1972-1982 (Disc 09) Fernando [1976]\01 - Fernando.wav

Pre-gap length 0:00:02.00

Peak level 92.8 %
Track quality 100.0 %
Test CRC 64FD58E4
Copy CRC 64FD58E4
Copy OK

Track 2
Filename C:\ABBA - Singles Collection 1972-1982 (Disc 09) Fernando [1976]\02 - Tropical Loveland.wav

Pre-gap length 0:00:03.90

Peak level 95.1 %
Track quality 100.0 %
Test CRC B8857AFC
Copy CRC B8857AFC
Copy OK

No errors occured


End of status report

EAC extraction logfile from 10. November 2007, 17:19 for CD
ABBA / Singles Collection 1972-1982 (Disc 10) Dancing Queen [1976]

Used drive : SONY DVD RW DW-G121A Adapter: 4 ID: 0
Read mode : Secure with NO C2, accurate stream, disable cache
Read offset correction : 6
Overread into Lead-In and Lead-Out : No

Used output format : C:\Program Files\FLAC\flac.exe (User Defined Encoder)
128 kBit/s
Additional command line options : -V -8 -T "artist=%a" -T "title=%t" -T "album=%g" -T "date=%y" -T "tracknumber=%n" -T "genre=%m" %s

Other options :
Fill up missing offset samples with silence : Yes
Delete leading and trailing silent blocks : No
Native Win32 interface for Win NT & 2000


Track 1
Filename C:\ABBA - Singles Collection 1972-1982 (Disc 10) Dancing Queen [1976]\01 - Dancing Queen.wav

Pre-gap length 0:00:02.00

Peak level 95.1 %
Track quality 100.0 %
Test CRC 97727460
Copy CRC 97727460
Copy OK

Track 2
Filename C:\ABBA - Singles Collection 1972-1982 (Disc 10) Dancing Queen [1976]\02 - That's Me.wav

Pre-gap length 0:00:01.50

Peak level 95.1 %
Track quality 100.0 %
Test CRC 6018DC4C
Copy CRC 6018DC4C
Copy OK

No errors occured


End of status report

EAC extraction logfile from 10. November 2007, 17:31 for CD
ABBA / Singles Collection 1972-1982 (Disc 11) Money, Money, Money [1976]

Used drive : SONY DVD RW DW-G121A Adapter: 4 ID: 0
Read mode : Secure with NO C2, accurate stream, disable cache
Read offset correction : 6
Overread into Lead-In and Lead-Out : No

Used output format : C:\Program Files\FLAC\flac.exe (User Defined Encoder)
128 kBit/s
Additional command line options : -V -8 -T "artist=%a" -T "title=%t" -T "album=%g" -T "date=%y" -T "tracknumber=%n" -T "genre=%m" %s

Other options :
Fill up missing offset samples with silence : Yes
Delete leading and trailing silent blocks : No
Native Win32 interface for Win NT & 2000


Track 1
Filename C:\ABBA - Singles Collection 1972-1982 (Disc 11) Money, Money, Money [1976]\01 - Money, Money, Money.wav

Pre-gap length 0:00:02.00

Peak level 95.1 %
Track quality 100.0 %
Test CRC 81ADEC63
Copy CRC 81ADEC63
Copy OK

Track 2
Filename C:\ABBA - Singles Collection 1972-1982 (Disc 11) Money, Money, Money [1976]\02 - Crazy World.wav

Pre-gap length 0:00:02.44

Peak level 99.5 %
Track quality 100.0 %
Test CRC 3DAF12BD
Copy CRC 3DAF12BD
Copy OK

No errors occured


End of status report

EAC extraction logfile from 10. November 2007, 17:44 for CD
ABBA / Singles Collection 1972-1982 (Disc 12) Knowing Me, Knowing You [1977]

Used drive : SONY DVD RW DW-G121A Adapter: 4 ID: 0
Read mode : Secure with NO C2, accurate stream, disable cache
Read offset correction : 6
Overread into Lead-In and Lead-Out : No

Used output format : C:\Program Files\FLAC\flac.exe (User Defined Encoder)
128 kBit/s
Additional command line options : -V -8 -T "artist=%a" -T "title=%t" -T "album=%g" -T "date=%y" -T "tracknumber=%n" -T "genre=%m" %s

Other options :
Fill up missing offset samples with silence : Yes
Delete leading and trailing silent blocks : No
Native Win32 interface for Win NT & 2000


Track 1
Filename C:\ABBA - Singles Collection 1972-1982 (Disc 12) Knowing Me, Knowing You [1977]\01 - Knowing Me, Knowing You.wav

Pre-gap length 0:00:02.00

Peak level 95.1 %
Track quality 100.0 %
Test CRC A5384F2A
Copy CRC A5384F2A
Copy OK

Track 2
Filename C:\ABBA - Singles Collection 1972-1982 (Disc 12) Knowing Me, Knowing You [1977]\02 - Happy Hawaii.wav

Pre-gap length 0:00:01.80

Peak level 95.8 %
Track quality 100.0 %
Test CRC 6E2D2410
Copy CRC 6E2D2410
Copy OK

No errors occured


End of status report

EAC extraction logfile from 10. November 2007, 18:01 for CD
ABBA / Singles Collection 1972-1982 (Disc 13) The Name Of The Game [1977]

Used drive : SONY DVD RW DW-G121A Adapter: 4 ID: 0
Read mode : Secure with NO C2, accurate stream, disable cache
Read offset correction : 6
Overread into Lead-In and Lead-Out : No

Used output format : C:\Program Files\FLAC\flac.exe (User Defined Encoder)
128 kBit/s
Additional command line options : -V -8 -T "artist=%a" -T "title=%t" -T "album=%g" -T "date=%y" -T "tracknumber=%n" -T "genre=%m" %s

Other options :
Fill up missing offset samples with silence : Yes
Delete leading and trailing silent blocks : No
Native Win32 interface for Win NT & 2000


Track 1
Filename C:\ABBA - Singles Collection 1972-1982 (Disc 13) The Name Of The Game [1977]\01 - The Name Of The Game.wav

Pre-gap length 0:00:02.00

Peak level 95.1 %
Track quality 100.0 %
Test CRC AAD65225
Copy CRC AAD65225
Copy OK

Track 2
Filename C:\ABBA - Singles Collection 1972-1982 (Disc 13) The Name Of The Game [1977]\02 - I Wonder (Departure).wav

Pre-gap length 0:00:02.56

Peak level 95.0 %
Track quality 100.0 %
Test CRC 8008ED5D
Copy CRC 8008ED5D
Copy OK

No errors occured


End of status report

EAC extraction logfile from 10. November 2007, 18:13 for CD
ABBA / Singles Collection 1972-1982 (Disc 14) Take A Chance On Me [1978]

Used drive : SONY DVD RW DW-G121A Adapter: 4 ID: 0
Read mode : Secure with NO C2, accurate stream, disable cache
Read offset correction : 6
Overread into Lead-In and Lead-Out : No

Used output format : C:\Program Files\FLAC\flac.exe (User Defined Encoder)
128 kBit/s
Additional command line options : -V -8 -T "artist=%a" -T "title=%t" -T "album=%g" -T "date=%y" -T "tracknumber=%n" -T "genre=%m" %s

Other options :
Fill up missing offset samples with silence : Yes
Delete leading and trailing silent blocks : No
Native Win32 interface for Win NT & 2000


Track 1
Filename C:\ABBA - Singles Collection 1972-1982 (Disc 14) Take A Chance On Me [1978]\01 - Take A Chance On Me.wav

Pre-gap length 0:00:02.00

Peak level 95.1 %
Track quality 100.0 %
Test CRC 89E30F1D
Copy CRC 89E30F1D
Copy OK

Track 2
Filename C:\ABBA - Singles Collection 1972-1982 (Disc 14) Take A Chance On Me [1978]\02 - I'm A Marionette.wav

Pre-gap length 0:00:03.73

Peak level 92.8 %
Track quality 100.0 %
Test CRC 9104EFF3
Copy CRC 9104EFF3
Copy OK

No errors occured


End of status report

EAC extraction logfile from 10. November 2007, 18:36 for CD
ABBA / Singles Collection 1972-1982 (Disc 15] Eagle [1978]

Used drive : SONY DVD RW DW-G121A Adapter: 4 ID: 0
Read mode : Secure with NO C2, accurate stream, disable cache
Read offset correction : 6
Overread into Lead-In and Lead-Out : No

Used output format : C:\Program Files\FLAC\flac.exe (User Defined Encoder)
128 kBit/s
Additional command line options : -V -8 -T "artist=%a" -T "title=%t" -T "album=%g" -T "date=%y" -T "tracknumber=%n" -T "genre=%m" %s

Other options :
Fill up missing offset samples with silence : Yes
Delete leading and trailing silent blocks : No
Native Win32 interface for Win NT & 2000


Track 1
Filename C:\ABBA - Singles Collection 1972-1982 (Disc 15] Eagle [1978]\01 - Eagle.wav

Pre-gap length 0:00:02.00

Peak level 99.6 %
Track quality 100.0 %
Test CRC 09C7B4BA
Copy CRC 09C7B4BA
Copy OK

Track 2
Filename C:\ABBA - Singles Collection 1972-1982 (Disc 15] Eagle [1978]\02 - Thank You For The Music.wav

Pre-gap length 0:00:03.46

Peak level 99.9 %
Track quality 100.0 %
Test CRC A30C69AD
Copy CRC A30C69AD
Copy OK

No errors occured


End of status report

EAC extraction logfile from 10. November 2007, 19:18 for CD
ABBA / Singles Collection 1972-1982 (Disc 16) Summer Night City [1978]

Used drive : SONY DVD RW DW-G121A Adapter: 4 ID: 0
Read mode : Secure with NO C2, accurate stream, disable cache
Read offset correction : 6
Overread into Lead-In and Lead-Out : No

Used output format : C:\Program Files\FLAC\flac.exe (User Defined Encoder)
128 kBit/s
Additional command line options : -V -8 -T "artist=%a" -T "title=%t" -T "album=%g" -T "date=%y" -T "tracknumber=%n" -T "genre=%m" %s

Other options :
Fill up missing offset samples with silence : Yes
Delete leading and trailing silent blocks : No
Native Win32 interface for Win NT & 2000


Track 1
Filename C:\ABBA - Singles Collection 1972-1982 (Disc 16) Summer Night City [1978]\01 - Summer Night City.wav

Pre-gap length 0:00:02.00

Peak level 97.1 %
Track quality 99.9 %
Test CRC 2D344EF8
Copy CRC 2D344EF8
Copy OK

Track 2
Filename C:\ABBA - Singles Collection 1972-1982 (Disc 16) Summer Night City [1978]\02 - Medley- Pick A Bale Of Cotton, On Top Of Old Smokey, Midnight Special.wav

Pre-gap length 0:00:02.13

Peak level 92.8 %
Track quality 100.0 %
Test CRC 5C0586E9
Copy CRC 5C0586E9
Copy OK

No errors occured


End of status report

EAC extraction logfile from 10. November 2007, 19:31 for CD
ABBA / Singles Collection 1972-1982 (Disc 17) Chiquitita [1979]

Used drive : SONY DVD RW DW-G121A Adapter: 4 ID: 0
Read mode : Secure with NO C2, accurate stream, disable cache
Read offset correction : 6
Overread into Lead-In and Lead-Out : No

Used output format : C:\Program Files\FLAC\flac.exe (User Defined Encoder)
128 kBit/s
Additional command line options : -V -8 -T "artist=%a" -T "title=%t" -T "album=%g" -T "date=%y" -T "tracknumber=%n" -T "genre=%m" %s

Other options :
Fill up missing offset samples with silence : Yes
Delete leading and trailing silent blocks : No
Native Win32 interface for Win NT & 2000


Track 1
Filename C:\ABBA - Singles Collection 1972-1982 (Disc 17) Chiquitita [1979]\01 - Chiquitita.wav

Pre-gap length 0:00:02.00

Peak level 95.1 %
Track quality 100.0 %
Test CRC BF94B084
Copy CRC BF94B084
Copy OK

Track 2
Filename C:\ABBA - Singles Collection 1972-1982 (Disc 17) Chiquitita [1979]\02 - Lovelight.wav

Pre-gap length 0:00:01.70

Peak level 94.4 %
Track quality 100.0 %
Test CRC B07128E8
Copy CRC B07128E8
Copy OK

No errors occured


End of status report

EAC extraction logfile from 10. November 2007, 19:46 for CD
ABBA / Singles Collection 1972-1982 (Disc 18) Does Your Mother Know [1979]

Used drive : SONY DVD RW DW-G121A Adapter: 4 ID: 0
Read mode : Secure with NO C2, accurate stream, disable cache
Read offset correction : 6
Overread into Lead-In and Lead-Out : No

Used output format : C:\Program Files\FLAC\flac.exe (User Defined Encoder)
128 kBit/s
Additional command line options : -V -8 -T "artist=%a" -T "title=%t" -T "album=%g" -T "date=%y" -T "tracknumber=%n" -T "genre=%m" %s

Other options :
Fill up missing offset samples with silence : Yes
Delete leading and trailing silent blocks : No
Native Win32 interface for Win NT & 2000


Track 1
Filename C:\ABBA - Singles Collection 1972-1982 (Disc 18) Does Your Mother Know [1979]\01 - Does Your Mother Know.wav

Pre-gap length 0:00:02.00

Peak level 97.0 %
Track quality 99.9 %
Test CRC 4D8F7F4F
Copy CRC 4D8F7F4F
Copy OK

Track 2
Filename C:\ABBA - Singles Collection 1972-1982 (Disc 18) Does Your Mother Know [1979]\02 - Kisses Of Fire.wav

Pre-gap length 0:00:02.86

Peak level 99.6 %
Track quality 99.9 %
Test CRC 254374FC
Copy CRC 254374FC
Copy OK

No errors occured


End of status report

EAC extraction logfile from 10. November 2007, 20:01 for CD
ABBA / Singles Collection 1972-1982 (Disc 19) Voulez-Vous [1979]

Used drive : SONY DVD RW DW-G121A Adapter: 4 ID: 0
Read mode : Secure with NO C2, accurate stream, disable cache
Read offset correction : 6
Overread into Lead-In and Lead-Out : No

Used output format : C:\Program Files\FLAC\flac.exe (User Defined Encoder)
128 kBit/s
Additional command line options : -V -8 -T "artist=%a" -T "title=%t" -T "album=%g" -T "date=%y" -T "tracknumber=%n" -T "genre=%m" %s

Other options :
Fill up missing offset samples with silence : Yes
Delete leading and trailing silent blocks : No
Native Win32 interface for Win NT & 2000


Track 1
Filename C:\ABBA - Singles Collection 1972-1982 (Disc 19) Voulez-Vous [1979]\01 - Voulez-Vous.wav

Pre-gap length 0:00:02.00

Peak level 97.0 %
Track quality 100.0 %
Test CRC 26C9A665
Copy CRC 26C9A665
Copy OK

Track 2
Filename C:\ABBA - Singles Collection 1972-1982 (Disc 19) Voulez-Vous [1979]\02 - Angeleyes.wav

Pre-gap length 0:00:04.53

Peak level 97.0 %
Track quality 100.0 %
Test CRC 56212382
Copy CRC 56212382
Copy OK

No errors occured


End of status report

EAC extraction logfile from 10. November 2007, 20:18 for CD
ABBA / Singles Collection 1972-1982 (Disc 20) Gimme! Gimme! Gimme! [1979]

Used drive : SONY DVD RW DW-G121A Adapter: 4 ID: 0
Read mode : Secure with NO C2, accurate stream, disable cache
Read offset correction : 6
Overread into Lead-In and Lead-Out : No

Used output format : C:\Program Files\FLAC\flac.exe (User Defined Encoder)
128 kBit/s
Additional command line options : -V -8 -T "artist=%a" -T "title=%t" -T "album=%g" -T "date=%y" -T "tracknumber=%n" -T "genre=%m" %s

Other options :
Fill up missing offset samples with silence : Yes
Delete leading and trailing silent blocks : No
Native Win32 interface for Win NT & 2000


Track 1
Filename C:\ABBA - Singles Collection 1972-1982 (Disc 20) Gimme! Gimme! Gimme! [1979]\01 - Gimme! Gimme! Gimme!.wav

Pre-gap length 0:00:02.00

Peak level 97.0 %
Track quality 99.9 %
Test CRC FE8C7393
Copy CRC FE8C7393
Copy OK

Track 2
Filename C:\ABBA - Singles Collection 1972-1982 (Disc 20) Gimme! Gimme! Gimme! [1979]\02 - The King Has Lost His Crown.wav

Pre-gap length 0:00:01.50

Peak level 95.1 %
Track quality 99.9 %
Test CRC BF0A1337
Copy CRC BF0A1337
Copy OK

No errors occured


End of status report

EAC extraction logfile from 10. November 2007, 20:36 for CD
ABBA / Singles Collection 1972-1982 (Disc 21) I Have A Dream [1979]

Used drive : SONY DVD RW DW-G121A Adapter: 4 ID: 0
Read mode : Secure with NO C2, accurate stream, disable cache
Read offset correction : 6
Overread into Lead-In and Lead-Out : No

Used output format : C:\Program Files\FLAC\flac.exe (User Defined Encoder)
128 kBit/s
Additional command line options : -V -8 -T "artist=%a" -T "title=%t" -T "album=%g" -T "date=%y" -T "tracknumber=%n" -T "genre=%m" %s

Other options :
Fill up missing offset samples with silence : Yes
Delete leading and trailing silent blocks : No
Native Win32 interface for Win NT & 2000


Track 1
Filename C:\ABBA - Singles Collection 1972-1982 (Disc 21) I Have A Dream [1979]\01 - I Have A Dream.wav

Pre-gap length 0:00:02.00

Peak level 90.3 %
Track quality 100.0 %
Test CRC 15C67186
Copy CRC 15C67186
Copy OK

Track 2
Filename C:\ABBA - Singles Collection 1972-1982 (Disc 21) I Have A Dream [1979]\02 - Take A Chance On Me (Live).wav

Pre-gap length 0:00:00.76

Peak level 95.3 %
Track quality 99.9 %
Test CRC 55B0FA7C
Copy CRC 55B0FA7C
Copy OK

No errors occured


End of status report

EAC extraction logfile from 10. November 2007, 20:49 for CD
ABBA / Singles Collection 1972-1982 (Disc 22) The Winner Takes It All [1980]

Used drive : SONY DVD RW DW-G121A Adapter: 4 ID: 0
Read mode : Secure with NO C2, accurate stream, disable cache
Read offset correction : 6
Overread into Lead-In and Lead-Out : No

Used output format : C:\Program Files\FLAC\flac.exe (User Defined Encoder)
128 kBit/s
Additional command line options : -V -8 -T "artist=%a" -T "title=%t" -T "album=%g" -T "date=%y" -T "tracknumber=%n" -T "genre=%m" %s

Other options :
Fill up missing offset samples with silence : Yes
Delete leading and trailing silent blocks : No
Native Win32 interface for Win NT & 2000


Track 1
Filename C:\ABBA - Singles Collection 1972-1982 (Disc 22) The Winner Takes It All [1980]\01 - The Winner Takes It All.wav

Pre-gap length 0:00:02.00

Peak level 99.3 %
Track quality 99.9 %
Test CRC 2CDB6685
Copy CRC 2CDB6685
Copy OK

Track 2
Filename C:\ABBA - Singles Collection 1972-1982 (Disc 22) The Winner Takes It All [1980]\02 - Elaine.wav

Peak level 92.8 %
Track quality 100.0 %
Test CRC EB0EB4C1
Copy CRC EB0EB4C1
Copy OK

No errors occured


End of status report

EAC extraction logfile from 10. November 2007, 22:01 for CD
ABBA / Singles Collection 1972-1982 (Disc 23) Super Trouper [1980]

Used drive : SONY DVD RW DW-G121A Adapter: 4 ID: 0
Read mode : Secure with NO C2, accurate stream, disable cache
Read offset correction : 6
Overread into Lead-In and Lead-Out : No

Used output format : C:\Program Files\FLAC\flac.exe (User Defined Encoder)
128 kBit/s
Additional command line options : -V -8 -T "artist=%a" -T "title=%t" -T "album=%g" -T "date=%y" -T "tracknumber=%n" -T "genre=%m" %s

Other options :
Fill up missing offset samples with silence : Yes
Delete leading and trailing silent blocks : No
Native Win32 interface for Win NT & 2000


Track 1
Filename C:\ABBA - Singles Collection 1972-1982 (Disc 23) Super Trouper [1980]\01 - Super Trouper.wav

Pre-gap length 0:00:02.00

Peak level 98.6 %
Track quality 100.0 %
Test CRC 5061D239
Copy CRC 5061D239
Copy OK

Track 2
Filename C:\ABBA - Singles Collection 1972-1982 (Disc 23) Super Trouper [1980]\02 - The Piper.wav

Pre-gap length 0:00:01.84

Peak level 95.1 %
Track quality 100.0 %
Test CRC D53E754C
Copy CRC D53E754C
Copy OK

No errors occured


End of status report

EAC extraction logfile from 10. November 2007, 22:24 for CD
ABBA / Singles Collection 1972-1982 (Disc 24) One Of Us [1981]

Used drive : SONY DVD RW DW-G121A Adapter: 4 ID: 0
Read mode : Secure with NO C2, accurate stream, disable cache
Read offset correction : 6
Overread into Lead-In and Lead-Out : No

Used output format : C:\Program Files\FLAC\flac.exe (User Defined Encoder)
128 kBit/s
Additional command line options : -V -8 -T "artist=%a" -T "title=%t" -T "album=%g" -T "date=%y" -T "tracknumber=%n" -T "genre=%m" %s

Other options :
Fill up missing offset samples with silence : Yes
Delete leading and trailing silent blocks : No
Native Win32 interface for Win NT & 2000


Track 1
Filename C:\ABBA - Singles Collection 1972-1982 (Disc 24) One Of Us [1981]\01 - One Of Us.wav

Pre-gap length 0:00:02.00

Peak level 98.6 %
Track quality 100.0 %
Test CRC E944643F
Copy CRC E944643F
Copy OK

Track 2
Filename C:\ABBA - Singles Collection 1972-1982 (Disc 24) One Of Us [1981]\02 - Should I Laugh Or Cry.wav

Pre-gap length 0:00:02.37

Peak level 99.3 %
Track quality 100.0 %
Test CRC A8349F39
Copy CRC A8349F39
Copy OK

No errors occured


End of status report

EAC extraction logfile from 11. November 2007, 9:19 for CD
ABBA / Singles Collection 1972-1982 (Disc 25) Head Over Heels [1982]

Used drive : SONY DVD RW DW-G121A Adapter: 4 ID: 0
Read mode : Secure with NO C2, accurate stream, disable cache
Read offset correction : 6
Overread into Lead-In and Lead-Out : No

Used output format : C:\Program Files\FLAC\flac.exe (User Defined Encoder)
128 kBit/s
Additional command line options : -V -8 -T "artist=%a" -T "title=%t" -T "album=%g" -T "date=%y" -T "tracknumber=%n" -T "genre=%m" %s

Other options :
Fill up missing offset samples with silence : Yes
Delete leading and trailing silent blocks : No
Native Win32 interface for Win NT & 2000


Track 1
Filename C:\ABBA - Singles Collection 1972-1982 (Disc 25) Head Over Heels [1982]\01 - Head Over Heels.wav

Pre-gap length 0:00:02.00

Peak level 98.6 %
Track quality 99.9 %
Test CRC 4042E7FD
Copy CRC 4042E7FD
Copy OK

Track 2
Filename C:\ABBA - Singles Collection 1972-1982 (Disc 25) Head Over Heels [1982]\02 - The Visitors.wav

Pre-gap length 0:00:00.66

Peak level 99.7 %
Track quality 100.0 %
Test CRC E0596DAF
Copy CRC E0596DAF
Copy OK

No errors occured


End of status report

EAC extraction logfile from 11. November 2007, 9:35 for CD
ABBA / Singles Collection 1972-1982 (Disc 26) The Day Before You Came [1982]

Used drive : SONY DVD RW DW-G121A Adapter: 4 ID: 0
Read mode : Secure with NO C2, accurate stream, disable cache
Read offset correction : 6
Overread into Lead-In and Lead-Out : No

Used output format : C:\Program Files\FLAC\flac.exe (User Defined Encoder)
128 kBit/s
Additional command line options : -V -8 -T "artist=%a" -T "title=%t" -T "album=%g" -T "date=%y" -T "tracknumber=%n" -T "genre=%m" %s

Other options :
Fill up missing offset samples with silence : Yes
Delete leading and trailing silent blocks : No
Native Win32 interface for Win NT & 2000


Track 1
Filename C:\ABBA - Singles Collection 1972-1982 (Disc 26) The Day Before You Came [1982]\01 - The Day Before You Came.wav

Pre-gap length 0:00:02.00

Peak level 95.1 %
Track quality 100.0 %
Test CRC C15CB329
Copy CRC C15CB329
Copy OK

Track 2
Filename C:\ABBA - Singles Collection 1972-1982 (Disc 26) The Day Before You Came [1982]\02 - Cassandra.wav

Pre-gap length 0:00:03.77

Peak level 96.6 %
Track quality 100.0 %
Test CRC 0E9E4986
Copy CRC 0E9E4986
Copy OK

No errors occured


End of status report

EAC extraction logfile from 11. November 2007, 9:57 for CD
ABBA / Singles Collection 1972-1982 (Disc 27) Under Attack [1982]

Used drive : SONY DVD RW DW-G121A Adapter: 4 ID: 0
Read mode : Secure with NO C2, accurate stream, disable cache
Read offset correction : 6
Overread into Lead-In and Lead-Out : No

Used output format : C:\Program Files\FLAC\flac.exe (User Defined Encoder)
128 kBit/s
Additional command line options : -V -8 -T "artist=%a" -T "title=%t" -T "album=%g" -T "date=%y" -T "tracknumber=%n" -T "genre=%m" %s

Other options :
Fill up missing offset samples with silence : Yes
Delete leading and trailing silent blocks : No
Native Win32 interface for Win NT & 2000


Track 1
Filename C:\ABBA - Singles Collection 1972-1982 (Disc 27) Under Attack [1982]\01 - Under Attack.wav

Pre-gap length 0:00:02.00

Peak level 98.6 %
Track quality 100.0 %
Test CRC 6B59F60F
Copy CRC 6B59F60F
Copy OK

Track 2
Filename C:\ABBA - Singles Collection 1972-1982 (Disc 27) Under Attack [1982]\02 - You Owe Me One.wav

Pre-gap length 0:00:03.86

Peak level 99.1 %
Track quality 100.0 %
Test CRC 2D5F3837
Copy CRC 2D5F3837
Copy OK

No errors occured


End of status report


Thanks to the Original Ripper!