Tags
Language
Tags

Valerie Ekoumé - Kwin Na Kinguè (2017)

Posted By: aasana
Valerie Ekoumé - Kwin Na Kinguè (2017)

Valerie Ekoumé - Kwin Na Kinguè (2017)
EAC Rip | FLAC (tracks+.cue) | 00:41:34 | 293,23 MB
World, Afropop | Label: Quart de Lune

ntrer dans l’univers de Valérie EKOUME est une expérience que vous ne regretterez pas ! Dans son monde rempli de couleurs, l’amour est Roi et l’Afropop est le style musical qu’elle a choisi pour l’exprimer. Après son premier album solo DJAALE projet sorti en 2015, né de la collaboration et d’un travail intense de trois ans, entre Valérie EKOUME et Guy NWOGANG, compositeur, batteur-percussionniste, également réalisateur de l’album, voici venir KWIN NA KINGUE « Pour ce nouvel opus, nous sommes allés puiser encore plus loin dans nos racines », il en résulte des chansons engagées, soutenues par des rythmes comme le Bikutsi ou encore l’Essèwè, musiques traditionnelles du Cameroun. Préparer vous à danser !

Tracklist:
01. Valerie Ekoumé - Faya (Wéya)
02. Valerie Ekoumé - Kwin Na Kinguè
03. Valerie Ekoumé - O Bosso
04. Valerie Ekoumé - Muléma Mo
05. Valerie Ekoumé - Se Yaya
06. Valerie Ekoumé - O Bia E!
07. Valerie Ekoumé - Lobiko
08. Valerie Ekoumé - Ingea
09. Valerie Ekoumé - Muléma Mo (Version Longue)
10. Valerie Ekoumé - Muléma Mo (Version Pbo)

Exact Audio Copy V1.3 from 2. September 2016

EAC extraction logfile from 14. March 2018, 20:58

Unknown Artist / Unknown Title

Used drive : PIONEER BD-RW BDR-208D Adapter: 1 ID: 0

Read mode : Secure
Utilize accurate stream : Yes
Defeat audio cache : Yes
Make use of C2 pointers : No

Read offset correction : 667
Overread into Lead-In and Lead-Out : No
Fill up missing offset samples with silence : Yes
Delete leading and trailing silent blocks : No
Null samples used in CRC calculations : Yes
Used interface : Native Win32 interface for Win NT & 2000
Gap handling : Appended to previous track

Used output format : User Defined Encoder
Selected bitrate : 1024 kBit/s
Quality : High
Add ID3 tag : No
Command line compressor : C:\Program Files (x86)\Exact Audio Copy\Flac\flac.exe
Additional command line options : -8 -e -V -T "ARTIST=%artist%" -T "TITLE=%title%" -T "ALBUM=%albumtitle%" -T "DATE=%year%" -T "TRACKNUMBER=%tracknr%" -T "GENRE=%genre%" -T "PERFORMER=%albuminterpret%" -T "COMPOSER=%composer%" %haslyrics%–tag-from-file=LYRICS="%lyricsfile%"%haslyrics% -T "ALBUMARTIST=%albumartist%" -T "DISCNUMBER=%cdnumber%" -T "TOTALDISCS=%totalcds%" -T "TOTALTRACKS=%numtracks%" -T "COMMENT=%comment%" %source% -o %dest%


TOC of the extracted CD

Track | Start | Length | Start sector | End sector
––––––––––––––––––––––––––––-
1 | 0:00.00 | 3:48.13 | 0 | 17112
2 | 3:48.13 | 3:37.40 | 17113 | 33427
3 | 7:25.53 | 3:38.49 | 33428 | 49826
4 | 11:04.27 | 4:28.42 | 49827 | 69968
5 | 15:32.69 | 3:34.31 | 69969 | 86049
6 | 19:07.25 | 3:52.27 | 86050 | 103476
7 | 22:59.52 | 3:40.54 | 103477 | 120030
8 | 26:40.31 | 4:02.32 | 120031 | 138212
9 | 30:42.63 | 7:12.74 | 138213 | 170686
10 | 37:55.62 | 3:38.46 | 170687 | 187082


Track 1

Filename K:\Musique\Valérie\01 - Track01.wav

Pre-gap length 0:00:02.00

Peak level 99.9 %
Extraction speed 4.5 X
Track quality 100.0 %
Test CRC BF11DAF9
Copy CRC BF11DAF9
Track not present in AccurateRip database
Copy OK

Track 2

Filename K:\Musique\Valérie\02 - Track02.wav

Peak level 99.9 %
Extraction speed 4.9 X
Track quality 100.0 %
Test CRC 8334B9F1
Copy CRC 8334B9F1
Track not present in AccurateRip database
Copy OK

Track 3

Filename K:\Musique\Valérie\03 - Track03.wav

Peak level 99.9 %
Extraction speed 5.3 X
Track quality 100.0 %
Test CRC 79C63E61
Copy CRC 79C63E61
Track not present in AccurateRip database
Copy OK

Track 4

Filename K:\Musique\Valérie\04 - Track04.wav

Peak level 99.9 %
Extraction speed 5.2 X
Track quality 99.9 %
Test CRC 6E0A3706
Copy CRC 6E0A3706
Track not present in AccurateRip database
Copy OK

Track 5

Filename K:\Musique\Valérie\05 - Track05.wav

Peak level 99.9 %
Extraction speed 6.0 X
Track quality 100.0 %
Test CRC E94DDC4B
Copy CRC E94DDC4B
Track not present in AccurateRip database
Copy OK

Track 6

Filename K:\Musique\Valérie\06 - Track06.wav

Peak level 99.9 %
Extraction speed 6.3 X
Track quality 100.0 %
Test CRC 91A3F416
Copy CRC 91A3F416
Track not present in AccurateRip database
Copy OK

Track 7

Filename K:\Musique\Valérie\07 - Track07.wav

Peak level 99.9 %
Extraction speed 6.6 X
Track quality 100.0 %
Test CRC 1F597EB7
Copy CRC 1F597EB7
Track not present in AccurateRip database
Copy OK

Track 8

Filename K:\Musique\Valérie\08 - Track08.wav

Peak level 99.9 %
Extraction speed 7.0 X
Track quality 100.0 %
Test CRC EB9E8A09
Copy CRC EB9E8A09
Track not present in AccurateRip database
Copy OK

Track 9

Filename K:\Musique\Valérie\09 - Track09.wav

Peak level 99.9 %
Extraction speed 7.9 X
Track quality 100.0 %
Test CRC B5D93A12
Copy CRC B5D93A12
Track not present in AccurateRip database
Copy OK

Track 10

Filename K:\Musique\Valérie\10 - Track10.wav

Peak level 99.9 %
Extraction speed 7.7 X
Track quality 100.0 %
Test CRC F7B2866E
Copy CRC F7B2866E
Track not present in AccurateRip database
Copy OK


None of the tracks are present in the AccurateRip database

No errors occurred

End of status report

–– CUETools DB Plugin V2.1.6

[CTDB TOCID: QHMSOMAiXcJQ.TEOESdit3Vqklw-] disk not present in database
Submit result: QHMSOMAiXcJQ.TEOESdit3Vqklw- has been uploaded


==== Log checksum EFDE3EBA9AF148DFC27F376B3ADB86753B0489CD6B3CDFC4231892722DEAEF53 ====