Subcategories

Altin Gun - Gece (2019)

Posted By: Domestos
Altin Gun - Gece (2019)

Altın Gün - Gece (2019)
XLD Rip | FLAC (tracks+.cue, log) ~ 213.68 Mb | 37:20 | Cover
Anatolian Rock, Psychedelic Rock | Label: ATO Records (United States) - ATO 0490

Following their hotly tipped 2018 debut album “On” – Altın Gün returns with an exhilarating second album. “Gece” firmly establishes the band as essential interpreters of the Anatolian rock and folk legacy and as a leading voice in the emergent global psych-rock scene. Explosive, funky and transcendent.

The world is rarely what it seems. A quick glance doesn’t always reveal the full truth. To find that, you need to burrow deeper. Listen to Altın Gün, for example: they sound utterly Turkish, but only one of the Netherlands based band’s six members was actually born there. And while their new album, Gece, is absolutely electric, filled with funk-like grooves and explosive psychedelic textures, what they play – by their own estimation – is folk music.

“It really is,” insists band founder and bass player Jasper Verhulst. “The songs come out of a long tradition. This is music that tries to be a voice for a lot of other people.”

While most of the material here has been a familiar part of Turkish life for many years – some of it associated with the late national icon Neşet Ertaş – it’s definitely never been heard like this before. This music is electric Turkish history, shot through with a heady buzz of 21st century intensity. Pumping, flowing, a new and leading voice in the emergent global psych scene.

“We do have a weak spot for the music of the late ‘60s and ‘70s,” Verhulst admits. “With all the instruments and effects that arrived then, it was an exciting time. Everything was new, and it still feels fresh. We’re not trying to copy it, but these are the sounds we like and we’re trying to make them our own.”

And what they create really is theirs. Altın Gün radically reimagine an entire tradition. The electric saz (a three-string Turkish lute) and voice of Erdinç Ecevit (who has Turkish roots) is urgent and immediately distinctive, while keyboards, guitar, bass, drums, and percussion power the surging rhythms and Merve Daşdemir (born and raised in Istanbul) sings with the mesmerizing power of a young Grace Slick. This isn’t music that seduces the listener: it demands attention.

Altın Gün – the name translates as “golden day” – are focused, relentless and absolutely assured in what they do. What is remarkable is the band has only existed for two years and didn’t play in public until November 2017; now they have almost 200 shows under their belt. It all grew from Verhulst’s obsession with Turkish music. He’d been aware of it for some time but a trip to Istanbul while playing in another band gave him the chance to discover so much more. But Verhulst wasn’t content to just listen, he had a vision for what the music could be. And Altın Gün was born.

“For me, finding out about this music is crate digging,” he admits. “None of it is widely available in the Netherlands. Of course, since our singers are Turkish, they know many of these pieces. All this is part of the country’s musical past, their heritage, like ‘House of The Rising Sun’ is in America.” As Verhulst delves deeper and deeper into old Turkish music, he’s constantly seeking out things that grab his ear.

“I’m listening for something we can change and make into our own. You have to understand that most of these songs have had hundreds of different interpretations over the years. We need something that will make people stop and listen, as if it’s the first time they’ve heard it.”

It’s a testament to Altın Gün’s work and vision that everything on Gece sounds so cohesive. They bring together music from many different Anatolian sources (the only original is the improvised piece “Şoför Bey”) so that it bristles with the power and tightness of a rock band; echoing new textures and radiating a spectrum of vibrant color (ironic, as gece means “night” in Turkish). It’s the sound of a band both committed to its sources and excitedly transforming them. It’s the sound of Altın Gün. Incandescent and sweltering.

Creating the band’s sound is very much a collaborative process, Verhulst explains.
“Sometimes me or the singer will come in with a demo of our ideas. Sometimes an idea will just come up and we’ll work on it together at rehearsals. However we start, it’s always finished by the whole band. We can feel very quickly if it’s going to work, if this is really our song.”

Just how Altın Gün can collectively spark and burn is evident in the YouTube concert video they made for the legendary Seattle radio station KEXP. In just under 20 minutes they set out their irresistible manifesto for an electrified, contemporary Turkish folk rock. It’s utterly compelling. And with around 800,000 views, it has helped make them known around the world.

“It certainly got us a lot of attention,” Verhulst agrees. “I think a lot of that interest originally came from Turkey, plenty of people there shared it.”

That might be how it began, but it’s not the whole tale. The waves have spread far beyond the Bosphorus. What started out as a deep passion for Turkish folk and psychedelia has taken on a resonance that now travels widely. The band has played all over Europe, has ventured to Turkey and Australia and will soon bring their music to North America for the first time.

“Not a lot of other bands are doing what we do,” he says, “playing songs in that style and seeing folk music in the same way.”



Track List:
01 Yolcu [02:39]
02 Vay dünya [04:19]
03 Leyla [03:18]
04 Anlatmam derdimi [04:13]
05 Şoför bey [03:11]
06 Derdimi dökersem [03:54]
07 Kolbastı [03:27]
08 Ervah-ı ezelde [04:46]
09 Gesi bağları [02:03]
10 Süpürgesi yoncadan [05:30]

X Lossless Decoder version 20181019 (151.1)

XLD extraction logfile from 2019-05-20 19:46:51 -0500

Altin Gün / Gece

Used drive : PIONEER DVD-RW DVRTS08 (revision Q81D)
Media type : Pressed CD

Ripper mode : XLD Secure Ripper
Disable audio cache : OK for the drive with a cache less than 1375KiB
Make use of C2 pointers : NO
Read offset correction : 48
Max retry count : 20
Gap status : Analyzed, Appended (except HTOA)

TOC of the extracted CD
Track | Start | Length | Start sector | End sector
––––––––––––––––––––––––––––-
1 | 00:00:00 | 02:38:30 | 0 | 11879
2 | 02:38:30 | 04:18:00 | 11880 | 31229
3 | 06:56:30 | 03:17:57 | 31230 | 46061
4 | 10:14:12 | 04:12:49 | 46062 | 65010
5 | 14:26:61 | 03:15:10 | 65011 | 79645
6 | 17:41:71 | 03:53:15 | 79646 | 97135
7 | 21:35:11 | 03:26:58 | 97136 | 112643
8 | 25:01:69 | 04:45:06 | 112644 | 134024
9 | 29:47:00 | 02:02:07 | 134025 | 143181
10 | 31:49:07 | 05:30:18 | 143182 | 167949

AccurateRip Summary
Disc not found in AccurateRip DB.

All Tracks
Album gain : -5.17 dB
Peak : 0.974640
Statistics
Read error : 0
Jitter error (maybe fixed) : 0
Retry sector count : 0
Damaged sector count : 0

Track 01
Filename : /Volumes/3V3RYTHING/MOTHERSHIP/Altin Gün - Gece (2019) [FLAC]/01 Yolcu.flac
/Volumes/3V3RYTHING/MOTHERSHIP/Altin Gün - Gece (2019) [MP3 V0]/01 Yolcu.mp3
Pre-gap length : 00:02:00

Track gain : -6.50 dB
Peak : 0.971497
CRC32 hash (test run) : 9BAFEE0D
CRC32 hash : 9BAFEE0D
CRC32 hash (skip zero) : A53D7B7E
AccurateRip v1 signature : CBA741BE
AccurateRip v2 signature : F01E3E23
->Track not present in AccurateRip database.
Statistics
Read error : 0
Jitter error (maybe fixed) : 0
Retry sector count : 0
Damaged sector count : 0

Track 02
Filename : /Volumes/3V3RYTHING/MOTHERSHIP/Altin Gün - Gece (2019) [FLAC]/02 Vay Dunya.flac
/Volumes/3V3RYTHING/MOTHERSHIP/Altin Gün - Gece (2019) [MP3 V0]/02 Vay Dunya.mp3

Track gain : -6.20 dB
Peak : 0.974640
CRC32 hash (test run) : C8ED43AB
CRC32 hash : C8ED43AB
CRC32 hash (skip zero) : C5F7D60C
AccurateRip v1 signature : CD1B7709
AccurateRip v2 signature : 360E8E9E
->Track not present in AccurateRip database.
Statistics
Read error : 0
Jitter error (maybe fixed) : 0
Retry sector count : 0
Damaged sector count : 0

Track 03
Filename : /Volumes/3V3RYTHING/MOTHERSHIP/Altin Gün - Gece (2019) [FLAC]/03 Leyla.flac
/Volumes/3V3RYTHING/MOTHERSHIP/Altin Gün - Gece (2019) [MP3 V0]/03 Leyla.mp3

Track gain : -7.07 dB
Peak : 0.969574
CRC32 hash (test run) : 3178FCC2
CRC32 hash : 3178FCC2
CRC32 hash (skip zero) : 830D3BF7
AccurateRip v1 signature : B32A1F57
AccurateRip v2 signature : 6818D297
->Track not present in AccurateRip database.
Statistics
Read error : 0
Jitter error (maybe fixed) : 0
Retry sector count : 0
Damaged sector count : 0

Track 04
Filename : /Volumes/3V3RYTHING/MOTHERSHIP/Altin Gün - Gece (2019) [FLAC]/04 Anlatmam Derdimi.flac
/Volumes/3V3RYTHING/MOTHERSHIP/Altin Gün - Gece (2019) [MP3 V0]/04 Anlatmam Derdimi.mp3

Track gain : -5.38 dB
Peak : 0.972534
CRC32 hash (test run) : 291DE026
CRC32 hash : 291DE026
CRC32 hash (skip zero) : E8F48FD6
AccurateRip v1 signature : 498C66B5
AccurateRip v2 signature : D5354295
->Track not present in AccurateRip database.
Statistics
Read error : 0
Jitter error (maybe fixed) : 0
Retry sector count : 0
Damaged sector count : 0

Track 05
Filename : /Volumes/3V3RYTHING/MOTHERSHIP/Altin Gün - Gece (2019) [FLAC]/05 Sofor Bey.flac
/Volumes/3V3RYTHING/MOTHERSHIP/Altin Gün - Gece (2019) [MP3 V0]/05 Sofor Bey.mp3

Track gain : -4.61 dB
Peak : 0.969604
CRC32 hash (test run) : EBD61FE5
CRC32 hash : EBD61FE5
CRC32 hash (skip zero) : 8C588291
AccurateRip v1 signature : FC0D2A1B
AccurateRip v2 signature : E06A3732
->Track not present in AccurateRip database.
Statistics
Read error : 0
Jitter error (maybe fixed) : 0
Retry sector count : 0
Damaged sector count : 0

Track 06
Filename : /Volumes/3V3RYTHING/MOTHERSHIP/Altin Gün - Gece (2019) [FLAC]/06 Derdimi Dokersem.flac
/Volumes/3V3RYTHING/MOTHERSHIP/Altin Gün - Gece (2019) [MP3 V0]/06 Derdimi Dokersem.mp3

Track gain : -3.97 dB
Peak : 0.969696
CRC32 hash (test run) : 6B53B105
CRC32 hash : 6B53B105
CRC32 hash (skip zero) : AEB1A66C
AccurateRip v1 signature : D94BDCF1
AccurateRip v2 signature : 8BD0EA09
->Track not present in AccurateRip database.
Statistics
Read error : 0
Jitter error (maybe fixed) : 0
Retry sector count : 0
Damaged sector count : 0

Track 07
Filename : /Volumes/3V3RYTHING/MOTHERSHIP/Altin Gün - Gece (2019) [FLAC]/07 Kolbasti.flac
/Volumes/3V3RYTHING/MOTHERSHIP/Altin Gün - Gece (2019) [MP3 V0]/07 Kolbasti.mp3

Track gain : -6.24 dB
Peak : 0.971436
CRC32 hash (test run) : CC9A74DF
CRC32 hash : CC9A74DF
CRC32 hash (skip zero) : A9D7A2C5
AccurateRip v1 signature : FEDB468A
AccurateRip v2 signature : D7FDFA25
->Track not present in AccurateRip database.
Statistics
Read error : 0
Jitter error (maybe fixed) : 0
Retry sector count : 0
Damaged sector count : 0

Track 08
Filename : /Volumes/3V3RYTHING/MOTHERSHIP/Altin Gün - Gece (2019) [FLAC]/08 Ervah-i Ezelde.flac
/Volumes/3V3RYTHING/MOTHERSHIP/Altin Gün - Gece (2019) [MP3 V0]/08 Ervah-i Ezelde.mp3

Track gain : -3.61 dB
Peak : 0.973267
CRC32 hash (test run) : C367439C
CRC32 hash : C367439C
CRC32 hash (skip zero) : CC61D933
AccurateRip v1 signature : B5E70FC3
AccurateRip v2 signature : 98EFB882
->Track not present in AccurateRip database.
Statistics
Read error : 0
Jitter error (maybe fixed) : 0
Retry sector count : 0
Damaged sector count : 0

Track 09
Filename : /Volumes/3V3RYTHING/MOTHERSHIP/Altin Gün - Gece (2019) [FLAC]/09 Gesi Baglari.flac
/Volumes/3V3RYTHING/MOTHERSHIP/Altin Gün - Gece (2019) [MP3 V0]/09 Gesi Baglari.mp3

Track gain : -2.55 dB
Peak : 0.740936
CRC32 hash (test run) : 258DAF31
CRC32 hash : 258DAF31
CRC32 hash (skip zero) : 18815401
AccurateRip v1 signature : 23FE6394
AccurateRip v2 signature : 1094B3C3
->Track not present in AccurateRip database.
Statistics
Read error : 0
Jitter error (maybe fixed) : 0
Retry sector count : 0
Damaged sector count : 0

Track 10
Filename : /Volumes/3V3RYTHING/MOTHERSHIP/Altin Gün - Gece (2019) [FLAC]/10 Supurgesi Yoncadan.flac
/Volumes/3V3RYTHING/MOTHERSHIP/Altin Gün - Gece (2019) [MP3 V0]/10 Supurgesi Yoncadan.mp3

Track gain : -3.26 dB
Peak : 0.932098
CRC32 hash (test run) : 17EA0CFB
CRC32 hash : 17EA0CFB
CRC32 hash (skip zero) : DDEC426A
AccurateRip v1 signature : 2577E0E8
AccurateRip v2 signature : 1056AF7A
->Track not present in AccurateRip database.
Statistics
Read error : 0
Jitter error (maybe fixed) : 0
Retry sector count : 0
Damaged sector count : 0

No errors occurred

End of status report

––-BEGIN XLD SIGNATURE––-
OKTf79xLEkii_6uMQBjNY7vyNfov3l5JChW6_3QFBaRhKsTMtPr8xRdiZLGH7Qkt_Tb4mz7.BYQskFxLGF6mMS7UaU83r60rhtZtfA8
––-END XLD SIGNATURE––-

All thanks go to the redacted

More Music in My Blog
Follow My RSS Channel