Subcategories

Amsterdam Guitar Trio - J.S. Bach: Brandenburg Concertos Nos. 2, 3, 5 & 6

Posted By: bumbo
Amsterdam Guitar Trio - J.S. Bach: Brandenburg Concertos Nos. 2, 3, 5 & 6

Amsterdam Guitar Trio - J.S. Bach: Brandenburg Concertos Nos. 2, 3, 5 & 6
Classical | EAC (APE+CUE+LOG) | full 300dpi scans | 293 MB
RCA Classics | 1996 | 74321 427422 | rar files | 3% recovery

Brilliant transcriptions for guitar trio of four of the Brandenburgs.

Recorded in 1985 in Utrecht

On this CD:

1. Brandenburg Concerto No. 6 in B flat major, BWV 1051
Composed by Johann Sebastian Bach
with Helenus de Rijke, Amsterdam Guitar Trio, Olga Franssen, Johan Dorrestein

2. Brandenburg Concerto No. 3 in G major, BWV 1048
Composed by Johann Sebastian Bach
with Helenus de Rijke, Amsterdam Guitar Trio, Olga Franssen, Johan Dorrestein

3. Brandenburg Concerto No. 5 in D major, BWV 1050
Composed by Johann Sebastian Bach
with Helenus de Rijke, Amsterdam Guitar Trio, Tini Mathot, Olga Franssen, Johan Dorrestein

4. Brandenburg Concerto No. 2 in F major, BWV 1047
Composed by Johann Sebastian Bach
with Helenus de Rijke, Amsterdam Guitar Trio, Olga Franssen, Johan Dorrestein

Tracks
1. Con No.6 in B-Flat, BWV 1051: Allegro Moderato
2. Con No.6 in B-Flat, BWV 1051: Adagio Ma Non Tanto
3. Con No.6 in B-Flat, BWV 1051: Allegro
4. Con No.3 in G, BWV 1048: Allegro
5. Con No.3 in G, BWV 1048: Adagio
6. Con No.3 in G, BWV 1048: Allegro
7. Con No.5 in D, BWV 1050: Allegro
8. Con No.5 in D, BWV 1050: Affetuoso
9. Con No.5 in D, BWV 1050: Allegro
10. Con No.2 in F, BWV 1047: Allegro Moderato
11. Con No.2 in F, BWV 1047: Andante
12. Con No.2 in F, BWV 1047: Allegro Assai

Glenn Alcott said:
Brilliant transcriptions for guitar trio of four of the Brandenburgs. This trio is bursting with virtuosity and spirit and could probably convince you that this is the instrumentation for which the pieces were originally written…

Exact Audio Copy V0.99 prebeta 4 from 23. January 2008

EAC extraction logfile from 25. January 2009, 15:27

Amsterdam Guitar Trio / JS Bach Brandenburg Concertos 2,3,5,6

Used drive : PIONEER DVD-RW DVR-111D Adapter: 0 ID: 0

Read mode : Secure
Utilize accurate stream : Yes
Defeat audio cache : Yes
Make use of C2 pointers : No

Read offset correction : 48
Overread into Lead-In and Lead-Out : No
Fill up missing offset samples with silence : Yes
Delete leading and trailing silent blocks : No
Null samples used in CRC calculations : Yes
Used interface : Installed external ASPI interface

Used output format : Internal WAV Routines
Sample format : 44.100 Hz; 16 Bit; Stereo


TOC of the extracted CD

Track | Start | Length | Start sector | End sector
––––––––––––––––––––––––––––-
1 | 0:00.32 | 6:06.40 | 32 | 27521
2 | 6:06.72 | 4:14.05 | 27522 | 46576
3 | 10:21.02 | 5:42.33 | 46577 | 72259
4 | 16:03.35 | 5:57.30 | 72260 | 99064
5 | 22:00.65 | 0:55.20 | 99065 | 103209
6 | 22:56.10 | 5:29.22 | 103210 | 127906
7 | 28:25.32 | 7:58.48 | 127907 | 163804
8 | 36:24.05 | 5:30.42 | 163805 | 188596
9 | 41:54.47 | 5:20.63 | 188597 | 212659
10 | 47:15.35 | 5:15.42 | 212660 | 236326
11 | 52:31.02 | 3:30.55 | 236327 | 252131
12 | 56:01.57 | 2:50.33 | 252132 | 264914


Range status and errors

Selected range

Filename D:\Moji ripovi\Amsterdam Guitar Trio - JS Bach Brandenburg Concertos 2,3,5,6.wav

Peak level 100.0 %
Range quality 100.0 %
Test CRC 0A237B0E
Copy CRC 0A237B0E
Copy OK

No errors occurred


AccurateRip summary

Track 1 not present in database
Track 2 not present in database
Track 3 not present in database
Track 4 not present in database
Track 5 not present in database
Track 6 not present in database
Track 7 not present in database
Track 8 not present in database
Track 9 not present in database
Track 10 not present in database
Track 11 not present in database
Track 12 not present in database

None of the tracks are present in the AccurateRip database

End of status report