Tags
Language
Tags
February 2023
Su Mo Tu We Th Fr Sa
29 30 31 1 2 3 4
5 6 7 8 9 10 11
12 13 14 15 16 17 18
19 20 21 22 23 24 25
26 27 28 1 2 3 4

Amy Dickson - In Circles (2019)

Posted By: delpotro
Amy Dickson - In Circles (2019)

Amy Dickson - In Circles (2019)
XLD Rip | FLAC (tracks+log+.cue) - 244 Mb | MP3 CBR 320 kbps - 161 Mb | Digital booklet | 01:09:00
Classical | Label: ABC Classics, Sony Music

On the 'Sony Classical' label - The sensational, Classic BRIT winning saxophonist Amy Dickson returns with her exquisite new album "In Circles" . This album explores the connections between classical composers and folk music. This stunning new album features breath-taking works by celebrated composers Ralph Vaughan Williams, Brahms, William Bolton and many more.. Dickson began playing the saxophone at the age of six. She made her concerto debut at 16 and has since gone on to perform at prestigious venues throughout the world including the prestigious Royal Albert Hall, Sydney Opera House and the Konzerthaus, Vienna. Named by BBC Music Magazine as one of the world’s six best classical saxophonists, Amy Dickson has won numerous prizes including the Gold Medal at the Royal Overseas League Competition, the Symphony Australia Young Performer of the Year Competition and the Prince’s Prize. Dickson will tour the UK alongside the acclaimed Aurora Orchestra.
Tracklist:
1. Amy Dickson & Daniel de Borah – Andalouse, Op. 20 No. 8 (02:47)
2. Amy Dickson & William Barton – Djilile (03:58)
3. Amy Dickson & Daniel de Borah – Siete canciones populares españoles: No. 4 Jota (03:10)
4. Amy Dickson – From Galloway (03:35)
5. Amy Dickson & William Barton – She Moved Through the Fair (03:31)
6. Amy Dickson, Nicholas Carter & Adelaide Symphony Orchestra – Saxophone Concerto: I. March, Strathspey and Reel (05:39)
7. Amy Dickson, Nicholas Carter & Adelaide Symphony Orchestra – Saxophone Concerto: II. Gaelic Psalm (06:21)
8. Amy Dickson, Nicholas Carter & Adelaide Symphony Orchestra – Saxophone Concerto: III. Jigs (05:13)
9. Amy Dickson – Shepherd's Hey (01:52)
10. Amy Dickson & Daniel de Borah – Hungarian Dance No. 4 (04:12)
11. Amy Dickson – Discovery (01:50)
12. Amy Dickson & Daniel de Borah – Siete canciones populares españolas: No. 5 Nana (02:37)
13. Amy Dickson & William Barton – Kalkadunga Yurdu (10:25)
14. Amy Dickson & Daniel de Borah – Six Studies in English Folk-Song (Arr. for Saxophone and Piano): I. Adagio (01:36)
15. Amy Dickson & Daniel de Borah – Six Studies in English Folk-Song (Arr. for Saxophone and Piano): II. Andante sostenuto (01:17)
16. Amy Dickson & Daniel de Borah – Six Studies in English Folk-Song (Arr. for Saxophone and Piano): III. Larghetto (01:37)
17. Amy Dickson & Daniel de Borah – Six Studies in English Folk-Song (Arr. for Saxophone and Piano): IV. Lento (01:35)
18. Amy Dickson & Daniel de Borah – Six Studies in English Folk-Song (Arr. for Saxophone and Piano): V. Andante tranquillo (01:31)
19. Amy Dickson & Daniel de Borah – Six Studies in English Folk-Song (Arr. for Saxophone and Piano): VI. Allegro vivace (00:55)
20. Amy Dickson & William Barton – Yanada (05:12)

X Lossless Decoder version 20181019 (151.1)

XLD extraction logfile from 2019-07-02 19:54:48 +1000

Amy Dickson / In Circles

Used drive : MATSHITA DVD-R UJ-898 (revision HC09)
Media type : Pressed CD

Ripper mode : XLD Secure Ripper
Disable audio cache : OK for the drive with a cache less than 1375KiB
Make use of C2 pointers : NO
Read offset correction : 102
Max retry count : 20
Gap status : Analyzed, Appended

TOC of the extracted CD
Track | Start | Length | Start sector | End sector
––––––––––––––––––––––––––––-
1 | 00:00:00 | 02:47:09 | 0 | 12533
2 | 02:47:09 | 03:58:23 | 12534 | 30406
3 | 06:45:32 | 03:10:56 | 30407 | 44712
4 | 09:56:13 | 03:34:69 | 44713 | 60831
5 | 13:31:07 | 03:31:37 | 60832 | 76693
6 | 17:02:44 | 05:39:60 | 76694 | 102178
7 | 22:42:29 | 06:21:36 | 102179 | 130789
8 | 29:03:65 | 05:13:10 | 130790 | 154274
9 | 34:17:00 | 01:52:00 | 154275 | 162674
10 | 36:09:00 | 04:12:58 | 162675 | 181632
11 | 40:21:58 | 01:50:09 | 181633 | 189891
12 | 42:11:67 | 02:37:10 | 189892 | 201676
13 | 44:49:02 | 10:25:20 | 201677 | 248571
14 | 55:14:22 | 01:36:03 | 248572 | 255774
15 | 56:50:25 | 01:17:48 | 255775 | 261597
16 | 58:07:73 | 01:37:45 | 261598 | 268917
17 | 59:45:43 | 01:35:01 | 268918 | 276043
18 | 61:20:44 | 01:31:44 | 276044 | 282912
19 | 62:52:13 | 00:55:25 | 282913 | 287062
20 | 63:47:38 | 05:12:52 | 287063 | 310514

AccurateRip Summary
Disc not found in AccurateRip DB.

All Tracks
Album gain : 0.76 dB
Peak : 0.999939
Statistics
Read error : 0
Jitter error (maybe fixed) : 0
Retry sector count : 0
Damaged sector count : 0

Track 01
Filename : /Users/andrew/Desktop/Amy Dickson - In Circles (2019) [FLAC]/01 - Amy Dickson - Andalouse.flac
Pre-gap length : 00:02:00

Track gain : -0.85 dB
Peak : 0.835297
CRC32 hash (test run) : AB75585B
CRC32 hash : AB75585B
CRC32 hash (skip zero) : D9A6EBFB
AccurateRip v1 signature : 24706D4D
AccurateRip v2 signature : BE83A354
->Track not present in AccurateRip database.
Statistics
Read error : 0
Jitter error (maybe fixed) : 0
Retry sector count : 0
Damaged sector count : 0

Track 02
Filename : /Users/andrew/Desktop/Amy Dickson - In Circles (2019) [FLAC]/02 - Amy Dickson - Djilile.flac
Pre-gap length : 00:05:30

Track gain : 1.31 dB
Peak : 0.773926
CRC32 hash (test run) : FF72CAE4
CRC32 hash : FF72CAE4
CRC32 hash (skip zero) : 000BAC2F
AccurateRip v1 signature : 81410FBB
AccurateRip v2 signature : AD469A0D
->Track not present in AccurateRip database.
Statistics
Read error : 0
Jitter error (maybe fixed) : 0
Retry sector count : 0
Damaged sector count : 0

Track 03
Filename : /Users/andrew/Desktop/Amy Dickson - In Circles (2019) [FLAC]/03 - Amy Dickson - Jota (No.4 from Siete canciones populares espanoles).flac
Pre-gap length : 00:06:32

Track gain : 1.95 dB
Peak : 0.975586
CRC32 hash (test run) : 72265308
CRC32 hash : 72265308
CRC32 hash (skip zero) : E881E8C6
AccurateRip v1 signature : 27BF1BB9
AccurateRip v2 signature : 6AC9F360
->Track not present in AccurateRip database.
Statistics
Read error : 0
Jitter error (maybe fixed) : 0
Retry sector count : 0
Damaged sector count : 0

Track 04
Filename : /Users/andrew/Desktop/Amy Dickson - In Circles (2019) [FLAC]/04 - Amy Dickson - From Galloway.flac
Pre-gap length : 00:07:01

Track gain : 1.90 dB
Peak : 0.455475
CRC32 hash (test run) : 735859ED
CRC32 hash : 735859ED
CRC32 hash (skip zero) : 2300B19F
AccurateRip v1 signature : B8D93614
AccurateRip v2 signature : E9E4DA2B
->Track not present in AccurateRip database.
Statistics
Read error : 0
Jitter error (maybe fixed) : 0
Retry sector count : 0
Damaged sector count : 0

Track 05
Filename : /Users/andrew/Desktop/Amy Dickson - In Circles (2019) [FLAC]/05 - Amy Dickson - She Moved Through the Fair.flac
Pre-gap length : 00:07:43

Track gain : 4.54 dB
Peak : 0.396851
CRC32 hash (test run) : 4EEB716C
CRC32 hash : 4EEB716C
CRC32 hash (skip zero) : 0E140624
AccurateRip v1 signature : F87009C5
AccurateRip v2 signature : 1B19AA9F
->Track not present in AccurateRip database.
Statistics
Read error : 0
Jitter error (maybe fixed) : 0
Retry sector count : 0
Damaged sector count : 0

Track 06
Filename : /Users/andrew/Desktop/Amy Dickson - In Circles (2019) [FLAC]/06 - Amy Dickson - Saxophone Concerto: I. March, Strathspey and Reel.flac
Pre-gap length : 00:08:38

Track gain : 3.57 dB
Peak : 0.743195
CRC32 hash (test run) : 9588A99D
CRC32 hash : 9588A99D
CRC32 hash (skip zero) : 210B8D6A
AccurateRip v1 signature : 18D10460
AccurateRip v2 signature : B2160BBC
->Track not present in AccurateRip database.
Statistics
Read error : 0
Jitter error (maybe fixed) : 0
Retry sector count : 0
Damaged sector count : 0

Track 07
Filename : /Users/andrew/Desktop/Amy Dickson - In Circles (2019) [FLAC]/07 - Amy Dickson - Saxophone Concerto: II. Gaelic Psalm.flac
Pre-gap length : 00:02:71

Track gain : 11.39 dB
Peak : 0.216370
CRC32 hash (test run) : 543D74BE
CRC32 hash : 543D74BE
CRC32 hash (skip zero) : 85C0530F
AccurateRip v1 signature : A8D3EA8B
AccurateRip v2 signature : B23E58EE
->Track not present in AccurateRip database.
Statistics
Read error : 0
Jitter error (maybe fixed) : 0
Retry sector count : 0
Damaged sector count : 0

Track 08
Filename : /Users/andrew/Desktop/Amy Dickson - In Circles (2019) [FLAC]/08 - Amy Dickson - Saxophone Concerto: III. Jigs.flac
Pre-gap length : 00:03:47

Track gain : 0.79 dB
Peak : 0.944031
CRC32 hash (test run) : F954DBBE
CRC32 hash : F954DBBE
CRC32 hash (skip zero) : 202D4498
AccurateRip v1 signature : B77BDBAB
AccurateRip v2 signature : EC41699F
->Track not present in AccurateRip database.
Statistics
Read error : 0
Jitter error (maybe fixed) : 0
Retry sector count : 0
Damaged sector count : 0

Track 09
Filename : /Users/andrew/Desktop/Amy Dickson - In Circles (2019) [FLAC]/09 - Amy Dickson - Shepherd's Hey.flac
Pre-gap length : 00:03:33

Track gain : -1.38 dB
Peak : 0.965027
CRC32 hash (test run) : 433554DD
CRC32 hash : 433554DD
CRC32 hash (skip zero) : E7059C3A
AccurateRip v1 signature : FD9D264A
AccurateRip v2 signature : BCE8C9C9
->Track not present in AccurateRip database.
Statistics
Read error : 0
Jitter error (maybe fixed) : 0
Retry sector count : 0
Damaged sector count : 0

Track 10
Filename : /Users/andrew/Desktop/Amy Dickson - In Circles (2019) [FLAC]/10 - Amy Dickson - Hungarian Dance No. 4.flac
Pre-gap length : 00:05:12

Track gain : -2.73 dB
Peak : 0.999786
CRC32 hash (test run) : 13DF0F7C
CRC32 hash : 13DF0F7C
CRC32 hash (skip zero) : 60D479BD
AccurateRip v1 signature : 6B047822
AccurateRip v2 signature : 9DBA6811
->Track not present in AccurateRip database.
Statistics
Read error : 0
Jitter error (maybe fixed) : 0
Retry sector count : 0
Damaged sector count : 0

Track 11
Filename : /Users/andrew/Desktop/Amy Dickson - In Circles (2019) [FLAC]/11 - Amy Dickson - Discovery.flac
Pre-gap length : 00:07:04

Track gain : -0.98 dB
Peak : 0.764496
CRC32 hash (test run) : 2406179F
CRC32 hash : 2406179F
CRC32 hash (skip zero) : 4C5ADC86
AccurateRip v1 signature : 2DFC3438
AccurateRip v2 signature : FE7BCA0B
->Track not present in AccurateRip database.
Statistics
Read error : 0
Jitter error (maybe fixed) : 0
Retry sector count : 0
Damaged sector count : 0

Track 12
Filename : /Users/andrew/Desktop/Amy Dickson - In Circles (2019) [FLAC]/12 - Amy Dickson - Nana (No. 5 from Siete canciones populares espanolas).flac
Pre-gap length : 00:04:43

Track gain : 3.88 dB
Peak : 0.445312
CRC32 hash (test run) : A8AADDC3
CRC32 hash : A8AADDC3
CRC32 hash (skip zero) : F7982E5C
AccurateRip v1 signature : C4301DCF
AccurateRip v2 signature : 7D23EE40
->Track not present in AccurateRip database.
Statistics
Read error : 0
Jitter error (maybe fixed) : 0
Retry sector count : 0
Damaged sector count : 0

Track 13
Filename : /Users/andrew/Desktop/Amy Dickson - In Circles (2019) [FLAC]/13 - Amy Dickson - Kalkadunga Yurdu (Kalkadoon Man).flac
Pre-gap length : 00:05:38

Track gain : 1.94 dB
Peak : 0.999939
CRC32 hash (test run) : 926C2981
CRC32 hash : 926C2981
CRC32 hash (skip zero) : 7D8A5B49
AccurateRip v1 signature : 5CCD889D
AccurateRip v2 signature : 7268758F
->Track not present in AccurateRip database.
Statistics
Read error : 0
Jitter error (maybe fixed) : 0
Retry sector count : 0
Damaged sector count : 0

Track 14
Filename : /Users/andrew/Desktop/Amy Dickson - In Circles (2019) [FLAC]/14 - Amy Dickson - Six Studies in English Folk-Song: I. Adagio.flac
Pre-gap length : 00:08:73

Track gain : 2.26 dB
Peak : 0.452240
CRC32 hash (test run) : 4AAD3295
CRC32 hash : 4AAD3295
CRC32 hash (skip zero) : 776CE641
AccurateRip v1 signature : CC974C80
AccurateRip v2 signature : 4C22C20F
->Track not present in AccurateRip database.
Statistics
Read error : 0
Jitter error (maybe fixed) : 0
Retry sector count : 0
Damaged sector count : 0

Track 15
Filename : /Users/andrew/Desktop/Amy Dickson - In Circles (2019) [FLAC]/15 - Amy Dickson - Six Studies in English Folk-Song: II. Andante sostenuto.flac

Track gain : 1.53 dB
Peak : 0.519379
CRC32 hash (test run) : EC8D792D
CRC32 hash : EC8D792D
CRC32 hash (skip zero) : DA99632C
AccurateRip v1 signature : 01BDE2A9
AccurateRip v2 signature : 2BD4854B
->Track not present in AccurateRip database.
Statistics
Read error : 0
Jitter error (maybe fixed) : 0
Retry sector count : 0
Damaged sector count : 0

Track 16
Filename : /Users/andrew/Desktop/Amy Dickson - In Circles (2019) [FLAC]/16 - Amy Dickson - Six Studies in English Folk-Song: III. Larghetto.flac

Track gain : -0.49 dB
Peak : 0.654510
CRC32 hash (test run) : BB88DB7D
CRC32 hash : BB88DB7D
CRC32 hash (skip zero) : 52528189
AccurateRip v1 signature : 6B4DFE84
AccurateRip v2 signature : 965AF747
->Track not present in AccurateRip database.
Statistics
Read error : 0
Jitter error (maybe fixed) : 0
Retry sector count : 0
Damaged sector count : 0

Track 17
Filename : /Users/andrew/Desktop/Amy Dickson - In Circles (2019) [FLAC]/17 - Amy Dickson - Six Studies in English Folk-Song: IV. Lento.flac

Track gain : 1.54 dB
Peak : 0.597565
CRC32 hash (test run) : E02BDC68
CRC32 hash : E02BDC68
CRC32 hash (skip zero) : 7F7A197C
AccurateRip v1 signature : C98F50E7
AccurateRip v2 signature : DAAC62E6
->Track not present in AccurateRip database.
Statistics
Read error : 0
Jitter error (maybe fixed) : 0
Retry sector count : 0
Damaged sector count : 0

Track 18
Filename : /Users/andrew/Desktop/Amy Dickson - In Circles (2019) [FLAC]/18 - Amy Dickson - Six Studies in English Folk-Song: V. Andante tranquillo.flac

Track gain : -0.50 dB
Peak : 0.591278
CRC32 hash (test run) : 5B791901
CRC32 hash : 5B791901
CRC32 hash (skip zero) : D576F98E
AccurateRip v1 signature : C59A17F0
AccurateRip v2 signature : 09555297
->Track not present in AccurateRip database.
Statistics
Read error : 0
Jitter error (maybe fixed) : 0
Retry sector count : 0
Damaged sector count : 0

Track 19
Filename : /Users/andrew/Desktop/Amy Dickson - In Circles (2019) [FLAC]/19 - Amy Dickson - Six Studies in English Folk-Song: VI. Allegro vivace.flac

Track gain : -1.55 dB
Peak : 0.873230
CRC32 hash (test run) : CF3E7CE6
CRC32 hash : CF3E7CE6
CRC32 hash (skip zero) : BA5589CF
AccurateRip v1 signature : E6E10F8B
AccurateRip v2 signature : A3B16F6C
->Track not present in AccurateRip database.
Statistics
Read error : 0
Jitter error (maybe fixed) : 0
Retry sector count : 0
Damaged sector count : 0

Track 20
Filename : /Users/andrew/Desktop/Amy Dickson - In Circles (2019) [FLAC]/20 - Amy Dickson - Yanada.flac
Pre-gap length : 00:04:23

Track gain : 1.80 dB
Peak : 0.638184
CRC32 hash (test run) : 8611DD10
CRC32 hash : 8611DD10
CRC32 hash (skip zero) : E16A638C
AccurateRip v1 signature : 5B250373
AccurateRip v2 signature : A4391488
->Track not present in AccurateRip database.
Statistics
Read error : 0
Jitter error (maybe fixed) : 0
Retry sector count : 0
Damaged sector count : 0

No errors occurred

End of status report

––-BEGIN XLD SIGNATURE––-
rXk.mmWep4kSoZ8eTP_G9mDBqYD.jKlj35F.jG5jp7qmVTIPzaKbXZiM7abzxKtTL.831JWAb6NfDVOK5EaPpZvZvrZSyBPjAzeHR4O
––-END XLD SIGNATURE––-

Thanks to the Original ripper Foxy !