Tags
Language
Tags

And the Kids - When This Life Is Over (2019)

Posted By: Domestos
And the Kids - When This Life Is Over (2019)

And the Kids - When This Life Is Over (2019)
EAC Rip | FLAC (tracks+.cue, log) ~ 253.78 Mb | 41:34 | Scans included
Alternative Rock, Indie | Label: Signature Sounds Recordings - SIG-CD-2112

When This Life Is Over, is And The Kids highly anticipated third album for Signature Sounds. Praised by NPR for 'striking vocals [that] rival the vibrato and boldness of Siouxsie Sioux…and music that's both fearless and entertaining,' And The Kids return with a bold continuation of their chunky indie rock meets blissful new wave sound, while finding inspiration in exploring the 'total freedom of mortality's fate.' Hannah Mohan writes, 'We took inspiration from our lyrics 'When this life is over/no more rules/ no more orders' and let that set the tone of the whole album. Mohan continues, 'We wanted to break the rules of what an album should be like. We included bedroom demos and didn't worry about how we might play these songs live which can be very restrictive. We let everything go so that we could be our most creative selves. Although the title and theme might appear dark, it's actually about the remarkable beautiful freedom of the afterlife.



Track List:
01. No Way Sit Back (04:36)
02. Butterfingers (03:31)
03. Champagne Ladies (04:26)
04. 2003 (03:06)
05. The Final Free (03:12)
06. When This Life Is Over (02:30)
07. Special for Nothing (03:39)
08. Get to That Place (01:40)
09. Somethings (Are) Good (02:38)
10. White Comforters (03:29)
11. Religion (03:55)
12. Basically We are Dead (04:52)

And the Kids - When This Life Is Over (2019)

Exact Audio Copy V1.3 from 2. September 2016

EAC extraction logfile from 30. March 2019, 2:06

And the Kids / When This Life Is Over

Used drive : HL-DT-STBD-RE WH14NS40 Adapter: 1 ID: 0

Read mode : Secure
Utilize accurate stream : Yes
Defeat audio cache : Yes
Make use of C2 pointers : No

Read offset correction : 6
Overread into Lead-In and Lead-Out : No
Fill up missing offset samples with silence : Yes
Delete leading and trailing silent blocks : No
Null samples used in CRC calculations : Yes
Used interface : Native Win32 interface for Win NT & 2000
Gap handling : Appended to previous track

Used output format : User Defined Encoder
Selected bitrate : 1024 kBit/s
Quality : High
Add ID3 tag : No
Command line compressor : C:\Program Files (x86)\Exact Audio Copy\Flac\flac.exe
Additional command line options : -8 -e -p -V -T "ARTIST=%artist%" -T "TITLE=%title%" -T "ALBUM=%albumtitle%" -T "DATE=%year%" -T "TRACKNUMBER=%tracknr%" -T "GENRE=%genre%" -T "PERFORMER=%albuminterpret%" -T "COMPOSER=%composer%" %haslyrics%–tag-from-file=LYRICS="%lyricsfile%"%haslyrics% -T "ALBUMARTIST=%albumartist%" -T "DISCNUMBER=%cdnumber%" -T "TOTALDISCS=%totalcds%" -T "TOTALTRACKS=%numtracks%" -T "COMMENT=%comment%" %source% -o %dest%


TOC of the extracted CD

Track | Start | Length | Start sector | End sector
––––––––––––––––––––––––––––-
1 | 0:00.00 | 4:37.00 | 0 | 20774
2 | 4:37.00 | 3:31.70 | 20775 | 36669
3 | 8:08.70 | 4:26.08 | 36670 | 56627
4 | 12:35.03 | 3:06.74 | 56628 | 70651
5 | 15:42.02 | 3:12.30 | 70652 | 85081
6 | 18:54.32 | 2:30.44 | 85082 | 96375
7 | 21:25.01 | 3:39.32 | 96376 | 112832
8 | 25:04.33 | 1:40.29 | 112833 | 120361
9 | 26:44.62 | 2:38.67 | 120362 | 132278
10 | 29:23.54 | 3:29.36 | 132279 | 147989
11 | 32:53.15 | 3:55.22 | 147990 | 165636
12 | 36:48.37 | 4:53.25 | 165637 | 187636


Track 1

Filename C:\rips\And the Kids - When This Life Is Over (2019) [FLAC] {SIG-CD-2112}\01 - No Way Sit Back.wav

Pre-gap length 0:00:02.00

Peak level 98.2 %
Extraction speed 4.7 X
Track quality 100.0 %
Test CRC B843CAB5
Copy CRC B843CAB5
Track not present in AccurateRip database
Copy OK

Track 2

Filename C:\rips\And the Kids - When This Life Is Over (2019) [FLAC] {SIG-CD-2112}\02 - Butterfingers.wav

Peak level 100.0 %
Extraction speed 5.0 X
Track quality 100.0 %
Test CRC D3D09AB9
Copy CRC D3D09AB9
Track not present in AccurateRip database
Copy OK

Track 3

Filename C:\rips\And the Kids - When This Life Is Over (2019) [FLAC] {SIG-CD-2112}\03 - Champagne Ladies.wav

Peak level 98.9 %
Extraction speed 5.6 X
Track quality 100.0 %
Test CRC EDCA5D70
Copy CRC EDCA5D70
Track not present in AccurateRip database
Copy OK

Track 4

Filename C:\rips\And the Kids - When This Life Is Over (2019) [FLAC] {SIG-CD-2112}\04 - 2003.wav

Peak level 97.9 %
Extraction speed 5.6 X
Track quality 100.0 %
Test CRC C5CF5327
Copy CRC C5CF5327
Track not present in AccurateRip database
Copy OK

Track 5

Filename C:\rips\And the Kids - When This Life Is Over (2019) [FLAC] {SIG-CD-2112}\05 - The Final Free.wav

Peak level 98.5 %
Extraction speed 6.0 X
Track quality 100.0 %
Test CRC 5124374F
Copy CRC 5124374F
Track not present in AccurateRip database
Copy OK

Track 6

Filename C:\rips\And the Kids - When This Life Is Over (2019) [FLAC] {SIG-CD-2112}\06 - When This Life Is Over.wav

Peak level 97.0 %
Extraction speed 5.9 X
Track quality 100.0 %
Test CRC 914CDEA9
Copy CRC 914CDEA9
Track not present in AccurateRip database
Copy OK

Track 7

Filename C:\rips\And the Kids - When This Life Is Over (2019) [FLAC] {SIG-CD-2112}\07 - Special for Nothing.wav

Peak level 98.2 %
Extraction speed 5.4 X
Track quality 99.9 %
Test CRC 7E6E8E0B
Copy CRC 7E6E8E0B
Track not present in AccurateRip database
Copy OK

Track 8

Filename C:\rips\And the Kids - When This Life Is Over (2019) [FLAC] {SIG-CD-2112}\08 - Get to That Place.wav

Peak level 98.7 %
Extraction speed 5.8 X
Track quality 100.0 %
Test CRC 286FE9B1
Copy CRC 286FE9B1
Track not present in AccurateRip database
Copy OK

Track 9

Filename C:\rips\And the Kids - When This Life Is Over (2019) [FLAC] {SIG-CD-2112}\09 - Somethings (Are) Good.wav

Peak level 98.4 %
Extraction speed 6.6 X
Track quality 100.0 %
Test CRC 42B983FA
Copy CRC 42B983FA
Track not present in AccurateRip database
Copy OK

Track 10

Filename C:\rips\And the Kids - When This Life Is Over (2019) [FLAC] {SIG-CD-2112}\10 - White Comforters.wav

Peak level 98.4 %
Extraction speed 5.7 X
Track quality 99.9 %
Test CRC 331F022E
Copy CRC 331F022E
Track not present in AccurateRip database
Copy OK

Track 11

Filename C:\rips\And the Kids - When This Life Is Over (2019) [FLAC] {SIG-CD-2112}\11 - Religion.wav

Peak level 98.6 %
Extraction speed 7.5 X
Track quality 100.0 %
Test CRC 00167DB6
Copy CRC 00167DB6
Track not present in AccurateRip database
Copy OK

Track 12

Filename C:\rips\And the Kids - When This Life Is Over (2019) [FLAC] {SIG-CD-2112}\12 - Basically We Are Dead.wav

Peak level 100.0 %
Extraction speed 7.9 X
Track quality 100.0 %
Test CRC 6E72108B
Copy CRC 6E72108B
Track not present in AccurateRip database
Copy OK


None of the tracks are present in the AccurateRip database

No errors occurred

End of status report

–– CUETools DB Plugin V2.1.6

[CTDB TOCID: BUSnFtNQjPNmMbedSvcYmfvcgvQ-] found
Submit result: BUSnFtNQjPNmMbedSvcYmfvcgvQ- has been confirmed
Track | CTDB Status
1 | (2/2) Accurately ripped
2 | (2/2) Accurately ripped
3 | (2/2) Accurately ripped
4 | (2/2) Accurately ripped
5 | (2/2) Accurately ripped
6 | (2/2) Accurately ripped
7 | (2/2) Accurately ripped
8 | (2/2) Accurately ripped
9 | (2/2) Accurately ripped
10 | (2/2) Accurately ripped
11 | (2/2) Accurately ripped
12 | (2/2) Accurately ripped


==== Log checksum 714C174F3095E1CCE1A104343684D2829C9B1FB13343A701B091402442F1D181 ====

All thanks go to the Original ripper (unknown)

More Music in My Blog
Follow My RSS Channel