Tags
Language
Tags
June 2024
Su Mo Tu We Th Fr Sa
26 27 28 29 30 31 1
2 3 4 5 6 7 8
9 10 11 12 13 14 15
16 17 18 19 20 21 22
23 24 25 26 27 28 29
30 1 2 3 4 5 6

Andrew Hill - Mosaic Select 23: Solo (2006) {3CD Set, Mosaic Records MS-023 rec 1978}

Posted By: ruskaval
Andrew Hill - Mosaic Select 23: Solo (2006) {3CD Set, Mosaic Records MS-023 rec 1978}

Andrew Hill - Mosaic Select 23: Solo (2006) {3CD Set, Mosaic Records MS-023 rec 1978}
EAC rip (secure mode) | FLAC (tracks)+CUE+LOG -> 740 Mb | MP3 @320 -> 436 Mb
Full Artwork @ 300 dpi (jpg) -> 25 Mb | 5% repair rar
© 1978, 2006 Mosaic Records | MS-023
Jazz / Post Bop / Modal Music / Piano

Mosaic Select presents a limited edition containing all of the solo piano recordings made by Andrew Hill at the Fantasy studios in Berkeley, CA during August and October 1978. Only a fraction of this material – the first two titles on the third disc – had ever seen the light of day prior to this collection's release in the spring of 2007. Having operated throughout the '60s as an innovative composer, pianist and bandleader, Hill spent the first half of the following decade exercising his creativity by composing and instructing at Colgate University in Hamilton, NY, performing internationally, and making records for Freedom, East Wind and Steeplechase.

Andrew Hill - Mosaic Select 23: Solo (2006) {3CD Set, Mosaic Records MS-023 rec 1978}


In 1976 he moved to San Francisco with his wife, composer and organist Laverne Hill. The move was motivated by the fact that Laverne had recently learned that she was afflicted with an incurable ailment that would eventually deprive her of her life. Needing more peace and quiet than San Francisco offered, the Hills settled in Pittsburg, a small town east of Oakland. The music on this compilation is very personal, peaceful, ruminative and intimate. It was recorded during a time when Andrew Hill was performing regularly not too far from home, usually as a soloist in spaces better suited for the presentation of chamber music rather than in night clubs. "From California with Love" and "Reverend Du Bop" appeared on Artists House LP AH9, "From California with Love" was released in 1979. All of the rest of this music – more than two hours of additional solo piano improvisations – languished in Hawaii until the people behind Mosaic unearthed it and Michael Cuscuna produced this beautiful three-disc set. Readied for release during the summer of 2006, it was made available to the public in a limited edition only weeks after the passing of Andrew Hill in April 2007.
Andrew Hill - Mosaic Select 23: Solo (2006) {3CD Set, Mosaic Records MS-023 rec 1978}


Personnel:
Andrew Hill (piano)

Recorded at Fantasy Studios, Berkeley, California on August 30 (disc one), October 2 (disc two) and October 12 (disc three), 1978.
Recorded on a Yamaha Concert Grand piano using two Neumann U-47 microphones.


Tracklist:

CD1
01. Moonlit Monterey
02. 17 Mile Drive
03. Gone With The Wind
04. I Remember Clifford
05. Moonlit Monterey (alt. take)

Andrew Hill - Mosaic Select 23: Solo (2006) {3CD Set, Mosaic Records MS-023 rec 1978}


CD2
01. California Tinge
02. Napa Valley Twilight
03. Above Big Sur
04. An Afternoon in Berkeley
05. California Tinge (first version)

Andrew Hill - Mosaic Select 23: Solo (2006) {3CD Set, Mosaic Records MS-023 rec 1978}


CD3
01. From California With Love
02. Reverend Du Bop
03. Pastoral Pittsburg
04. Pittsburg Impasse

Andrew Hill - Mosaic Select 23: Solo (2006) {3CD Set, Mosaic Records MS-023 rec 1978}


Exact Audio Copy V1.1 from 23. June 2015

EAC extraction logfile from 24. October 2016, 13:50

Andrew Hill / Solo (CD1)

Used drive : PBDS CD-ROM DH-48N1S Adapter: 1 ID: 0

Read mode : Secure
Utilize accurate stream : Yes
Defeat audio cache : Yes
Make use of C2 pointers : No

Read offset correction : 6
Overread into Lead-In and Lead-Out : No
Fill up missing offset samples with silence : Yes
Delete leading and trailing silent blocks : No
Null samples used in CRC calculations : Yes
Used interface : Native Win32 interface for Win NT & 2000
Gap handling : Appended to previous track

Used output format : User Defined Encoder
Selected bitrate : 768 kBit/s
Quality : High
Add ID3 tag : No
Command line compressor : C:\Program Files (x86)\Exact Audio Copy\FLAC\FLAC.EXE
Additional command line options : -8 -V -T "ARTIST=%artist%" -T "TITLE=%title%" -T "ALBUM=%albumtitle%" -T "DATE=%year%" -T "TRACKNUMBER=%tracknr%" -T "GENRE=%genre%" -T "PERFORMER=%albuminterpret%" -T "COMPOSER=%composer%" %haslyrics%–tag-from-file=LYRICS="%lyricsfile%"%haslyrics% -T "ALBUMARTIST=%albumartist%" -T "DISCNUMBER=%cdnumber%" -T "TOTALDISCS=%totalcds%" -T "TOTALTRACKS=%numtracks%" -T "COMMENT=%comment%" %source% -o %dest%


TOC of the extracted CD

Track | Start | Length | Start sector | End sector
––––––––––––––––––––––––––––-
1 | 0:00.00 | 16:02.50 | 0 | 72199
2 | 16:02.50 | 12:22.00 | 72200 | 127849
3 | 28:24.50 | 6:06.50 | 127850 | 155349
4 | 34:31.25 | 4:30.37 | 155350 | 175636
5 | 39:01.62 | 9:01.15 | 175637 | 216226


Track 1

Filename C:\EACRips\01 - Moonlit Monterey.wav

Pre-gap length 0:00:02.00

Peak level 96.2 %
Extraction speed 5.1 X
Track quality 100.0 %
Test CRC 81118304
Copy CRC 81118304
Accurately ripped (confidence 2) [D3E352FF] (AR v2)
Copy OK

Track 2

Filename C:\EACRips\02 - 17 Mile Drive.wav

Peak level 99.8 %
Extraction speed 4.1 X
Track quality 99.9 %
Test CRC 3DC55810
Copy CRC 3DC55810
Accurately ripped (confidence 2) [E7128498] (AR v2)
Copy OK

Track 3

Filename C:\EACRips\03 - Gone With The Wind.wav

Peak level 96.4 %
Extraction speed 7.0 X
Track quality 100.0 %
Test CRC 56EFADBD
Copy CRC 56EFADBD
Accurately ripped (confidence 2) [05B41D95] (AR v2)
Copy OK

Track 4

Filename C:\EACRips\04 - I Remember Clifford.wav

Peak level 98.4 %
Extraction speed 7.1 X
Track quality 100.0 %
Test CRC 98514F1A
Copy CRC 98514F1A
Accurately ripped (confidence 2) [69FD8F88] (AR v2)
Copy OK

Track 5

Filename C:\EACRips\05 - Moonlit Monterey (alt take).wav

Peak level 100.0 %
Extraction speed 8.0 X
Track quality 100.0 %
Test CRC 730F79B3
Copy CRC 730F79B3
Accurately ripped (confidence 2) [65C78981] (AR v2)
Copy OK


All tracks accurately ripped

No errors occurred

End of status report

–– CUETools DB Plugin V2.1.6

[CTDB TOCID: 3jCZO_R3AVTlYlQodIyfevh1f6g-] found
Submit result: 3jCZO_R3AVTlYlQodIyfevh1f6g- has been confirmed
Track | CTDB Status
1 | (6/6) Accurately ripped
2 | (6/6) Accurately ripped
3 | (6/6) Accurately ripped
4 | (6/6) Accurately ripped
5 | (6/6) Accurately ripped


==== Log checksum 3181FEE1F96F48F350A0942B1A035AA436F2E68596E20ED084B9DD3E54606A64 ====
Exact Audio Copy V1.1 from 23. June 2015

EAC extraction logfile from 24. October 2016, 14:19

Andrew Hill / Solo (CD2)

Used drive : PBDS CD-ROM DH-48N1S Adapter: 1 ID: 0

Read mode : Secure
Utilize accurate stream : Yes
Defeat audio cache : Yes
Make use of C2 pointers : No

Read offset correction : 6
Overread into Lead-In and Lead-Out : No
Fill up missing offset samples with silence : Yes
Delete leading and trailing silent blocks : No
Null samples used in CRC calculations : Yes
Used interface : Native Win32 interface for Win NT & 2000
Gap handling : Appended to previous track

Used output format : User Defined Encoder
Selected bitrate : 768 kBit/s
Quality : High
Add ID3 tag : No
Command line compressor : C:\Program Files (x86)\Exact Audio Copy\FLAC\FLAC.EXE
Additional command line options : -8 -V -T "ARTIST=%artist%" -T "TITLE=%title%" -T "ALBUM=%albumtitle%" -T "DATE=%year%" -T "TRACKNUMBER=%tracknr%" -T "GENRE=%genre%" -T "PERFORMER=%albuminterpret%" -T "COMPOSER=%composer%" %haslyrics%–tag-from-file=LYRICS="%lyricsfile%"%haslyrics% -T "ALBUMARTIST=%albumartist%" -T "DISCNUMBER=%cdnumber%" -T "TOTALDISCS=%totalcds%" -T "TOTALTRACKS=%numtracks%" -T "COMMENT=%comment%" %source% -o %dest%


TOC of the extracted CD

Track | Start | Length | Start sector | End sector
––––––––––––––––––––––––––––-
1 | 0:00.00 | 11:46.22 | 0 | 52971
2 | 11:46.22 | 10:13.37 | 52972 | 98983
3 | 21:59.59 | 15:59.34 | 98984 | 170942
4 | 37:59.18 | 12:14.55 | 170943 | 226047
5 | 50:13.73 | 24:38.22 | 226048 | 336919


Track 1

Filename C:\EACRips\01 - California Tinge.wav

Pre-gap length 0:00:02.00

Peak level 92.1 %
Extraction speed 4.6 X
Track quality 100.0 %
Test CRC 8B30263A
Copy CRC 8B30263A
Accurately ripped (confidence 2) [47081385] (AR v2)
Copy OK

Track 2

Filename C:\EACRips\02 - Napa Valley Twilight.wav

Peak level 99.7 %
Extraction speed 5.8 X
Track quality 99.9 %
Test CRC 55BB6CCC
Copy CRC 55BB6CCC
Accurately ripped (confidence 2) [DF6E180E] (AR v2)
Copy OK

Track 3

Filename C:\EACRips\03 - Above Big Sur.wav

Peak level 93.7 %
Extraction speed 7.1 X
Track quality 99.9 %
Test CRC 4EE85FB7
Copy CRC 4EE85FB7
Accurately ripped (confidence 2) [C2A6AD36] (AR v2)
Copy OK

Track 4

Filename C:\EACRips\04 - An Afternoon In Berkeley.wav

Peak level 94.9 %
Extraction speed 7.9 X
Track quality 99.9 %
Test CRC 3A721A58
Copy CRC 3A721A58
Accurately ripped (confidence 2) [F622F7CD] (AR v2)
Copy OK

Track 5

Filename C:\EACRips\05 - California Tinge (first version).wav

Peak level 89.1 %
Extraction speed 9.6 X
Track quality 100.0 %
Test CRC 4F59F6D9
Copy CRC 4F59F6D9
Accurately ripped (confidence 2) [EB7129B0] (AR v2)
Copy OK


All tracks accurately ripped

No errors occurred

End of status report

–– CUETools DB Plugin V2.1.6

[CTDB TOCID: Tm4rMqa5hr4U4_nnaMsIU1hTzts-] found
Submit result: Tm4rMqa5hr4U4_nnaMsIU1hTzts- has been confirmed
Track | CTDB Status
1 | (6/6) Accurately ripped
2 | (6/6) Accurately ripped
3 | (6/6) Accurately ripped
4 | (6/6) Accurately ripped
5 | (6/6) Accurately ripped


==== Log checksum 8C23DE9D693527D50AEBB94C07497998805469A65F51A26AEA867DE3875BC3B7 ====
Exact Audio Copy V1.1 from 23. June 2015

EAC extraction logfile from 24. October 2016, 14:42

Andrew Hill / Solo (CD3)

Used drive : PBDS CD-ROM DH-48N1S Adapter: 1 ID: 0

Read mode : Secure
Utilize accurate stream : Yes
Defeat audio cache : Yes
Make use of C2 pointers : No

Read offset correction : 6
Overread into Lead-In and Lead-Out : No
Fill up missing offset samples with silence : Yes
Delete leading and trailing silent blocks : No
Null samples used in CRC calculations : Yes
Used interface : Native Win32 interface for Win NT & 2000
Gap handling : Appended to previous track

Used output format : User Defined Encoder
Selected bitrate : 768 kBit/s
Quality : High
Add ID3 tag : No
Command line compressor : C:\Program Files (x86)\Exact Audio Copy\FLAC\FLAC.EXE
Additional command line options : -8 -V -T "ARTIST=%artist%" -T "TITLE=%title%" -T "ALBUM=%albumtitle%" -T "DATE=%year%" -T "TRACKNUMBER=%tracknr%" -T "GENRE=%genre%" -T "PERFORMER=%albuminterpret%" -T "COMPOSER=%composer%" %haslyrics%–tag-from-file=LYRICS="%lyricsfile%"%haslyrics% -T "ALBUMARTIST=%albumartist%" -T "DISCNUMBER=%cdnumber%" -T "TOTALDISCS=%totalcds%" -T "TOTALTRACKS=%numtracks%" -T "COMMENT=%comment%" %source% -o %dest%


TOC of the extracted CD

Track | Start | Length | Start sector | End sector
––––––––––––––––––––––––––––-
1 | 0:00.00 | 20:02.48 | 0 | 90197
2 | 20:02.48 | 18:42.53 | 90198 | 174400
3 | 38:45.26 | 11:00.41 | 174401 | 223941
4 | 49:45.67 | 5:54.46 | 223942 | 250537


Track 1

Filename C:\EACRips\01 - From California With Love.wav

Pre-gap length 0:00:02.00

Peak level 95.9 %
Extraction speed 4.7 X
Track quality 100.0 %
Test CRC EC411A21
Copy CRC EC411A21
Accurately ripped (confidence 2) [38A1AAC0] (AR v2)
Copy OK

Track 2

Filename C:\EACRips\02 - Reverend Du Bop.wav

Peak level 94.4 %
Extraction speed 7.1 X
Track quality 100.0 %
Test CRC 1B2B71DE
Copy CRC 1B2B71DE
Accurately ripped (confidence 2) [10030737] (AR v2)
Copy OK

Track 3

Filename C:\EACRips\03 - Pastoral Pittsburg.wav

Peak level 98.7 %
Extraction speed 5.2 X
Track quality 100.0 %
Test CRC 737C5473
Copy CRC 737C5473
Accurately ripped (confidence 2) [09E4C86A] (AR v2)
Copy OK

Track 4

Filename C:\EACRips\04 - Pittsburg Impasse.wav

Peak level 94.6 %
Extraction speed 8.1 X
Track quality 100.0 %
Test CRC FFAC9BB3
Copy CRC FFAC9BB3
Accurately ripped (confidence 2) [4619F558] (AR v2)
Copy OK


All tracks accurately ripped

No errors occurred

End of status report

–– CUETools DB Plugin V2.1.6

[CTDB TOCID: 0gt_L8tTRQm6o0NZXMeATuOde_s-] found
Submit result: 0gt_L8tTRQm6o0NZXMeATuOde_s- has been confirmed
Track | CTDB Status
1 | (6/6) Accurately ripped
2 | (6/6) Accurately ripped
3 | (6/6) Accurately ripped
4 | (6/6) Accurately ripped


==== Log checksum 103C768F7F40EDF4026631F160276600567F63E17AF74C96BEF1C55955A08820 ====


Andrew Hill - Mosaic Select 23: Solo (2006) {3CD Set, Mosaic Records MS-023 rec 1978}



===