Tags
Language
Tags

Angelo Debarre - Trio Tout A Cordes (2008)

Posted By: Domestos
Angelo Debarre - Trio Tout A Cordes (2008)

Angelo Debarre - Trio Tout A Cordes (2008)
EAC Rip | FLAC (tracks+.cue, log) ~ 215.66 Mb + 109.91 Mb (Scans) | 38:57
Jazz, Gypsy Jazz | Country: France | Label: Le Chant Du Monde

Angelo Debarre ((born on August 19, 1962) is a French Romani gypsy jazz guitarist. Debarre was born in Saint-Denis, Paris, and began playing at age eight. In 1984, he formed his first group, the Angelo Debarre Quintet. In 1985, the group was hired by Serge Camps to play at his Parisian café, La Roue Fleurie, where Debarre was discovered by producer and guitarist Jon Larsen. Debarre has performed in several Romani and jazz festivals, including Birdland's annual Django Reinhardt Festival. He recorded Mémoires: Memories of Django with Tchavolo Schmitt.

Track List:
1. Blues for Raangy (2:18)
2. Caresse de l'Est (5:22)
3. Manege (3:14)
4. Swing chez Toto (3:01)
5. Inquietude (3:31)
6. Stand by (2:53)
7. La manouche (2:55)
8. Mon bolero (3:12)
9. Entre amis (4:02)
10. Coeur de bois (4:28)
11. Cafe noisette (4:01)

Angelo Debarre - Trio Tout A Cordes (2008)

Exact Audio Copy V0.99 prebeta 4 from 23. January 2008

EAC extraction logfile from 18. February 2009, 14:20

Angelo Debarre / Trio tout a cordes

Used drive : _NEC DVD_RW ND-3500AG Adapter: 0 ID: 1

Read mode : Secure
Utilize accurate stream : Yes
Defeat audio cache : Yes
Make use of C2 pointers : No

Read offset correction : 48
Overread into Lead-In and Lead-Out : No
Fill up missing offset samples with silence : Yes
Delete leading and trailing silent blocks : No
Null samples used in CRC calculations : Yes
Used interface : Native Win32 interface for Win NT & 2000
Gap handling : Appended to previous track

Used output format : User Defined Encoder
Selected bitrate : 128 kBit/s
Quality : High
Add ID3 tag : No
Command line compressor : C:\Program Files\FLAC\flac.exe
Additional command line options : -8 -V -T "ARTIST=%a" -T "TITLE=%t" -T "ALBUM=%g" -T "DATE=%y" -T "TRACKNUMBER=%n" -T "GENRE=%m" -T "COMMENT=EAC FLAC -8" %s

TOC of the extracted CD

Track | Start | Length | Start sector | End sector
––––––––––––––––––––––––––––-
1 | 0:00.00 | 2:18.12 | 0 | 10361
2 | 2:18.12 | 5:22.10 | 10362 | 34521
3 | 7:40.22 | 3:14.68 | 34522 | 49139
4 | 10:55.15 | 3:01.57 | 49140 | 62771
5 | 13:56.72 | 3:31.68 | 62772 | 78664
6 | 17:28.65 | 2:53.58 | 78665 | 91697
7 | 20:22.48 | 2:55.71 | 91698 | 104893
8 | 23:18.44 | 3:12.06 | 104894 | 119299
9 | 26:30.50 | 4:02.41 | 119300 | 137490
10 | 30:33.16 | 4:28.56 | 137491 | 157646
11 | 35:01.72 | 4:01.56 | 157647 | 175777

Track 1

Filename P:\DL temp\Angelo Debarre - Trio tout a cordes (2008) [FLAC]\01 - Blues for Raangy.wav

Pre-gap length 0:00:02.00

Peak level 97.7 %
Track quality 99.9 %
Test CRC D7D3093D
Copy CRC D7D3093D
Track not present in AccurateRip database
Copy OK

Track 2

Filename P:\DL temp\Angelo Debarre - Trio tout a cordes (2008) [FLAC]\02 - Caresse de l'Est.wav

Pre-gap length 0:00:02.00

Peak level 97.7 %
Track quality 100.0 %
Test CRC BF44577E
Copy CRC BF44577E
Track not present in AccurateRip database
Copy OK

Track 3

Filename P:\DL temp\Angelo Debarre - Trio tout a cordes (2008) [FLAC]\03 - Manege.wav

Pre-gap length 0:00:02.00

Peak level 97.7 %
Track quality 99.9 %
Test CRC 3B44CB56
Copy CRC 3B44CB56
Track not present in AccurateRip database
Copy OK

Track 4

Filename P:\DL temp\Angelo Debarre - Trio tout a cordes (2008) [FLAC]\04 - Swing chez Toto.wav

Pre-gap length 0:00:02.00

Peak level 97.7 %
Track quality 100.0 %
Test CRC F0FB7FDF
Copy CRC F0FB7FDF
Track not present in AccurateRip database
Copy OK

Track 5

Filename P:\DL temp\Angelo Debarre - Trio tout a cordes (2008) [FLAC]\05 - Inquietude.wav

Pre-gap length 0:00:02.00

Peak level 97.7 %
Track quality 100.0 %
Test CRC E48E881D
Copy CRC E48E881D
Track not present in AccurateRip database
Copy OK

Track 6

Filename P:\DL temp\Angelo Debarre - Trio tout a cordes (2008) [FLAC]\06 - Stand by.wav

Pre-gap length 0:00:02.00

Peak level 97.7 %
Track quality 100.0 %
Test CRC 98302D0D
Copy CRC 98302D0D
Track not present in AccurateRip database
Copy OK

Track 7

Filename P:\DL temp\Angelo Debarre - Trio tout a cordes (2008) [FLAC]\07 - La manouche.wav

Pre-gap length 0:00:02.00

Peak level 97.7 %
Track quality 100.0 %
Test CRC 31724C04
Copy CRC 31724C04
Track not present in AccurateRip database
Copy OK

Track 8

Filename P:\DL temp\Angelo Debarre - Trio tout a cordes (2008) [FLAC]\08 - Mon bolero.wav

Pre-gap length 0:00:02.00

Peak level 97.7 %
Track quality 100.0 %
Test CRC 32F0CD7B
Copy CRC 32F0CD7B
Track not present in AccurateRip database
Copy OK

Track 9

Filename P:\DL temp\Angelo Debarre - Trio tout a cordes (2008) [FLAC]\09 - Entre amis.wav

Pre-gap length 0:00:02.00

Peak level 97.7 %
Track quality 100.0 %
Test CRC 400B3DBA
Copy CRC 400B3DBA
Track not present in AccurateRip database
Copy OK

Track 10

Filename P:\DL temp\Angelo Debarre - Trio tout a cordes (2008) [FLAC]\10 - Coeur de bois.wav

Pre-gap length 0:00:02.00

Peak level 97.7 %
Track quality 100.0 %
Test CRC 9964FB58
Copy CRC 9964FB58
Track not present in AccurateRip database
Copy OK

Track 11

Filename P:\DL temp\Angelo Debarre - Trio tout a cordes (2008) [FLAC]\11 - Cafe noisette.wav

Pre-gap length 0:00:02.00

Peak level 97.7 %
Track quality 99.9 %
Test CRC F0B82699
Copy CRC F0B82699
Track not present in AccurateRip database
Copy OK

None of the tracks are present in the AccurateRip database

No errors occurred

End of status report

All thanks go to the dtromp

More Music in My Blog
Follow My RSS Channel