Subcategories

Anja Garbarek - Angel-A

Posted By: FLESH
Anja Garbarek - Angel-A

Anja Garbarek - Angel-A
Electronic, Rock, Trip Hop, Downtempo, Pop Rock
FLAC+cue+log | 311.1 Mb | MP3, 192 Kbps | 76.6 Mb | Covers
Label: Virgin Music | Catalog#: 0946 3 50219 2 9 | Country: France | Released: 16 Dec 2005

Tracklisting:
1 Anja Garbarek Beyond My Control
2 Anja Garbarek Can I Keep Him?
3 Anja Garbarek It's Just A Game
4 Anja Garbarek Thank You Franck
5 Anja Garbarek Her Room
6 Anja Garbarek André Running
7 Anja Garbarek No Trace Of Grey
8 Anja Garbarek The Cabinet
9 Anja Garbarek A. On Bridge
10 Anja Garbarek Spin The Context
11 Anja Garbarek It's Just A Game (Instrumental Version)
12 Anja Garbarek Le Corridor
13 Anja Garbarek Balloon Mood
14 Anja Garbarek André Face Au Miroir
15 Eat (3) Crossroads
16 Radar Captivante
17 Hiro My Hero Under Your Wings
Featuring - Soulfull
18 Hiro My Hero Angel

Exact Audio Copy V0.99 prebeta 4 from 23. January 2008

Отчёт EAC об извлечении, выполненном 11. марта 2008, 19:09

Anja Garbarek / Angel A

Дисковод: ASUS DRW-1814BLT Adapter: 3 ID: 0

Режим чтения : Достоверность
Использование точного потока : Да
Отключение кэша аудио : Да
Использование указателей C2 : Нет

Коррекция смещения при чтении : 6
Способность читать области Lead-in и Lead-out : Нет
Заполнение пропущенных сэмплов тишиной : Да
Удаление блоков с тишиной в начале и конце : Нет
При вычислениях CRC использовались нулевые сэмплы : Нет
Интерфейс : Установленный внешний ASPI-интерфейс

Выходной формат : Внутренние WAV-операции
Формат сэмплов : 44.100 Гц; 16 бит; стерео


TOC извлечённого CD

Трек | Старт | Длительность | Начальный сектор | Конечный сектор
––––––––––––––––––––––––––––––––––-
1 | 0:00.00 | 5:21.05 | 0 | 24079
2 | 5:21.05 | 3:41.04 | 24080 | 40658
3 | 9:02.09 | 3:10.16 | 40659 | 54924
4 | 12:12.25 | 0:44.28 | 54925 | 58252
5 | 12:56.53 | 2:30.47 | 58253 | 69549
6 | 15:27.25 | 1:00.36 | 69550 | 74085
7 | 16:27.61 | 3:21.18 | 74086 | 89178
8 | 19:49.04 | 4:40.59 | 89179 | 110237
9 | 24:29.63 | 1:06.39 | 110238 | 115226
10 | 25:36.27 | 4:43.23 | 115227 | 136474
11 | 30:19.50 | 1:34.03 | 136475 | 143527
12 | 31:53.53 | 1:28.66 | 143528 | 150193
13 | 33:22.44 | 3:24.06 | 150194 | 165499
14 | 36:46.50 | 1:40.32 | 165500 | 173031
15 | 38:27.07 | 3:31.26 | 173032 | 188882
16 | 41:58.33 | 6:24.44 | 188883 | 217726
17 | 48:23.02 | 3:39.67 | 217727 | 234218
18 | 52:02.69 | 4:34.09 | 234219 | 254777


Характеристики диапазона извлечения и сообщения об ошибках

Выбранный диапазон

Имя файла D:\www.subj.biz\Music Torrents\Anja Garbarek - Angel A\Anja Garbarek - Angel A.wav

Пиковый уровень 100.0 %
Качество диапазона 100.0 %
CRC копии A757A7CB
Копирование… OK

Ошибок не произошло


AccurateRip: сводка

Трек 1 точность не определена (достоверность 3) [790C47C9], AccurateRip вернул [FDDABF68]
Трек 2 точность не определена (достоверность 3) [BB87F4E8], AccurateRip вернул [BD809BB7]
Трек 3 точность не определена (достоверность 3) [0B76B59D], AccurateRip вернул [1843E36A]
Трек 4 точность не определена (достоверность 3) [D833B22F], AccurateRip вернул [511E5A97]
Трек 5 точность не определена (достоверность 3) [D65997A3], AccurateRip вернул [9DFA4439]
Трек 6 точность не определена (достоверность 3) [F197DDF1], AccurateRip вернул [C720A4C0]
Трек 7 точность не определена (достоверность 3) [B2F6A7EA], AccurateRip вернул [E9D64A9C]
Трек 8 точность не определена (достоверность 3) [FECEAB3D], AccurateRip вернул [113E3C87]
Трек 9 точность не определена (достоверность 3) [F2B1C479], AccurateRip вернул [8D459A2A]
Трек 10 точность не определена (достоверность 3) [2441BDF9], AccurateRip вернул [C3F2444D]
Трек 11 точность не определена (достоверность 3) [77500223], AccurateRip вернул [2204AC44]
Трек 12 точность не определена (достоверность 3) [62B9443C], AccurateRip вернул [488618EE]
Трек 13 точность не определена (достоверность 3) [A5E62456], AccurateRip вернул [4D3518A5]
Трек 14 точность не определена (достоверность 3) [219DF995], AccurateRip вернул [86067BAF]
Трек 15 точность не определена (достоверность 3) [47292031], AccurateRip вернул [8ED42559]
Трек 16 точность не определена (достоверность 3) [6DDDD4E8], AccurateRip вернул [D5E3AFF5]
Трек 17 точность не определена (достоверность 3) [85FF8AF3], AccurateRip вернул [38C2923A]
Трек 18 точность не определена (достоверность 3) [7F188B14], AccurateRip вернул [CC79DA5B]

Ни один трек не прошёл проверки на точность
В вашей базе может быть иной вариант штамповки диска

Конец отчёта


lossless
Скачать с RapidShare
Part 1 | Part 2 | Part 3 | Part 4

MP3
Скачать с RapidShare
MP3

Covers
Covers

Folder1 Music RapidShare
Folder2 Music RapidShare

Welcome to my Blog