Subcategories
Tags
Language
Tags

Anthony Braxton - 20 Standards (Quartet) 2003 (2005) {4CD Set, Leo Records ‎CD LR 431/434}

Posted By: ruskaval
Anthony Braxton - 20 Standards (Quartet) 2003 (2005) {4CD Set, Leo Records ‎CD LR 431/434}

Anthony Braxton - 20 Standards (Quartet) 2003 (2005) {4CD Set, Leo Records ‎CD LR 431/434}
EAC rip (secure mode) | FLAC (tracks)+CUE+LOG -> 1.52 Gb | MP3 @320 -> 716 Mb
Full Artwork @ 300 dpi (jpg) -> 41 Mb | 5% repair rar
© 2005 Leo Records ‎| CD LR 431/434
Jazz / Modern Jazz / Avant-Garde Jazz / Saxophone

Released a year after 23 Standards (Quartet) 2003, this second four-disc set doubles the amount of material released from Braxton's tours of Europe in early and late 2003, with the same lineup (Braxton on saxes, Kevin O'Neil on guitar, bassist Andy Eulau, and drummer Kevin Norton), same focus on jazz standards, and even the same dates in some cases. Together, the two four-CD sets released by Leo Records present recordings from ten different European dates (two in February 2003 and eight in November of that year). This second set continues with the editorial approach used in the first one: each disc consists of tracks from different concerts, brought together to make a balanced record.

So this second five-hour helping adds pieces performed at shows already represented in the first box set, and covers a couple of shows that were left untouched. Leftovers? Hardly. In fact, it is easy to be convinced that all eight discs were conceived simultaneously. Again, one is struck by the multifaceted balance of the album as a whole. Jazz crowd favorites like Desmond's "Take Five," Brubeck's "Blue Rondo à la Turk," Coltrane's "Lonnie's Lament," and Parker's "Blues for Alice" are presented side by side with less covered tunes, like Mulligan's "Lines for Lyons" and Harris' "Freedom Jazz Dance." And, as usual in such a jazz setting, Braxton pays a loving tribute to each tune, respecting the melody, pushing it beyond the composer's wildest dreams, taking it apart and reassembling it in the most natural-sounding way. The quartet takes flight right off the starting block with a 20-minute rendition of "All the Things You Are." Other highlights include Norton's solo in "Lines for Lyons," Braxton's uncanny out-sensitivity in "Waltz for Debbie," and the slippery playfulness – and impossible telepathy – of the quartet in "Take Five." Since the first box set sold out pretty quickly, this one is like a second chance, with all new material. These are masterfully creative revisitations of chunks of jazz history, big and small. Limited to a thousand copies, this album, like the previous one, is bound to become a collector's favorite.
Anthony Braxton - 20 Standards (Quartet) 2003 (2005) {4CD Set, Leo Records ‎CD LR 431/434}


PERSONNEL:

ANTHONY BRAXTON, saxes
KEVIN O'NEIL, guitar
ANDY EULAU, bass
KEVIN NORTON, drums

DISC ONE:

01. Crazy Rhythm
02. Off Minor
03. Desafinado
04. 26-1
05. Why Shouldn't I
06. 6.Giant Steps

Anthony Braxton - 20 Standards (Quartet) 2003 (2005) {4CD Set, Leo Records ‎CD LR 431/434}


DISC TWO:

01. Tangerine
02. Black Orpheus
03. Round Midnight
04. Ju-Ju
05. After You've Gone

Anthony Braxton - 20 Standards (Quartet) 2003 (2005) {4CD Set, Leo Records ‎CD LR 431/434}


DISC THREE:

01. Everything I Love
02. I Can't Get Started
03. It's A Raggy Waltz
04. Countdown
05. Blue In Green
06. Beatrice

Anthony Braxton - 20 Standards (Quartet) 2003 (2005) {4CD Set, Leo Records ‎CD LR 431/434}


DISC FOUR:

01. Only The Lonely
02. Recorda Me
03. Ill Wind
04. I'll Be Easy To Find
05. Three To Get Ready
06. Dolphin Dance

Anthony Braxton - 20 Standards (Quartet) 2003 (2005) {4CD Set, Leo Records ‎CD LR 431/434}


EAC extraction logfile from 3. October 2009, 12:59 for CD
Anthony Braxton / 20 Standards (Quartet) 2003 (disc 1)

Used drive : HP DVD Writer 1170d Adapter: 2 ID: 0
Read mode : Secure with NO C2, accurate stream, disable cache
Read offset correction : 6
Overread into Lead-In and Lead-Out : No

Used output format : C:\Eac\Codecs\flac.exe (User Defined Encoder)
320 kBit/s
Additional command line options : -8 -V -T "artist=%a" -T "title=%t" -T "album=%g" -T "date=%y" -T "tracknumber=%n" -T "genre=%m" -T "comment=EAC Flac 1.1.2 -8" %s

Other options :
Fill up missing offset samples with silence : Yes
Delete leading and trailing silent blocks : No
Installed external ASPI interface


Track 1
Filename C:\Documents and Settings\braxton\CD 1\01 - All The Things You Are.wav

Pre-gap length 0:00:02.00

Peak level 100.0 %
Track quality 100.0 %
Test CRC CC87E390
Copy CRC CC87E390
Copy OK

Track 2
Filename C:\Documents and Settings\braxton\CD 1\02 - Lines for Lyons.wav

Pre-gap length 0:00:03.00

Peak level 99.9 %
Track quality 100.0 %
Test CRC 48CAC0F4
Copy CRC 48CAC0F4
Copy OK

Track 3
Filename C:\Documents and Settings\braxton\CD 1\03 - April In Paris.wav

Pre-gap length 0:00:04.50

Peak level 100.0 %
Track quality 99.9 %
Test CRC BA344863
Copy CRC BA344863
Copy OK

Track 4
Filename C:\Documents and Settings\braxton\CD 1\04 - Green Dolphin Street.wav

Pre-gap length 0:00:04.50

Peak level 100.0 %
Track quality 100.0 %
Test CRC 32DB6087
Copy CRC 32DB6087
Copy OK

Track 5
Filename C:\Documents and Settings\braxton\CD 1\05 - Blues for Alice.wav

Pre-gap length 0:00:04.50

Peak level 100.0 %
Track quality 100.0 %
Test CRC C70F7A94
Copy CRC C70F7A94
Copy OK

No errors occured


End of status report



///////////////////////////////////////////////////////////////////


EAC extraction logfile from 3. October 2009, 13:36 for CD
Anthony Braxton / 20 Standards (Quartet) 2003 (disc 2)

Used drive : HP DVD Writer 1170d Adapter: 2 ID: 0
Read mode : Secure with NO C2, accurate stream, disable cache
Read offset correction : 6
Overread into Lead-In and Lead-Out : No

Used output format : C:\Eac\Codecs\flac.exe (User Defined Encoder)
320 kBit/s
Additional command line options : -8 -V -T "artist=%a" -T "title=%t" -T "album=%g" -T "date=%y" -T "tracknumber=%n" -T "genre=%m" -T "comment=EAC Flac 1.1.2 -8" %s

Other options :
Fill up missing offset samples with silence : Yes
Delete leading and trailing silent blocks : No
Installed external ASPI interface


Track 1
Filename C:\Documents and Settings\braxton\CD 2\01 - Alone Together.wav

Pre-gap length 0:00:02.00

Peak level 100.0 %
Track quality 100.0 %
Test CRC 54820E19
Copy CRC 54820E19
Copy OK

Track 2
Filename C:\Documents and Settings\braxton\CD 2\02 - Waltz For Debbie.wav

Pre-gap length 0:00:04.00

Peak level 100.0 %
Track quality 100.0 %
Test CRC 23A6F261
Copy CRC 23A6F261
Copy OK

Track 3
Filename C:\Documents and Settings\braxton\CD 2\03 - For Heaven's Sake.wav

Pre-gap length 0:00:04.00

Peak level 99.9 %
Track quality 99.9 %
Test CRC D19D87F6
Copy CRC D19D87F6
Copy OK

Track 4
Filename C:\Documents and Settings\braxton\CD 2\04 - Freedom Jazz Dance.wav

Pre-gap length 0:00:03.98

Peak level 100.0 %
Track quality 100.0 %
Test CRC B104BA1C
Copy CRC B104BA1C
Copy OK

Track 5
Filename C:\Documents and Settings\braxton\CD 2\05 - The Song Is You.wav

Pre-gap length 0:00:05.50

Peak level 100.0 %
Track quality 99.9 %
Test CRC 562DED41
Copy CRC 562DED41
Copy OK

No errors occured


End of status report


////////////////////////////////////////////////////////////////////////////////////////////////////////////

EAC extraction logfile from 3. October 2009, 15:25 for CD
Anthony Braxton / 20 Standards (Quartet) 2003 (disc 3)

Used drive : HP DVD Writer 1170d Adapter: 2 ID: 0
Read mode : Secure with NO C2, accurate stream, disable cache
Read offset correction : 6
Overread into Lead-In and Lead-Out : No

Used output format : C:\Eac\Codecs\flac.exe (User Defined Encoder)
320 kBit/s
Additional command line options : -8 -V -T "artist=%a" -T "title=%t" -T "album=%g" -T "date=%y" -T "tracknumber=%n" -T "genre=%m" -T "comment=EAC Flac 1.1.2 -8" %s

Other options :
Fill up missing offset samples with silence : Yes
Delete leading and trailing silent blocks : No
Installed external ASPI interface


Track 1
Filename C:\Documents and Settings\braxton\CD 3\01 - The Duke.wav

Pre-gap length 0:00:02.00

Peak level 100.0 %
Track quality 100.0 %
Test CRC FA546C86
Copy CRC FA546C86
Copy OK

Track 2
Filename C:\Documents and Settings\braxton\CD 3\02 - I Love You.wav

Pre-gap length 0:00:04.50

Peak level 99.9 %
Track quality 100.0 %
Test CRC B79DE1CA
Copy CRC B79DE1CA
Copy OK

Track 3
Filename C:\Documents and Settings\braxton\CD 3\03 - Lonnie's Lament.wav

Pre-gap length 0:00:06.50

Peak level 63.0 %
Track quality 100.0 %
Test CRC 038D5497
Copy CRC 038D5497
Copy OK

Track 4
Filename C:\Documents and Settings\braxton\CD 3\04 - Blue Rondo A La Turk.wav

Pre-gap length 0:00:04.00

Peak level 100.0 %
Track quality 100.0 %
Test CRC 4330FB9A
Copy CRC 4330FB9A
Copy OK

Track 5
Filename C:\Documents and Settings\braxton\CD 3\05 - Invitation.wav

Pre-gap length 0:00:05.00

Peak level 100.0 %
Track quality 100.0 %
Test CRC 5700AF7E
Copy CRC 5700AF7E
Copy OK

No errors occured


End of status report


///////////////////////////////////////////////////////////////////////////////////////////////////

EAC extraction logfile from 3. October 2009, 16:08 for CD
Anthony Braxton / 20 Standards (Quartet) 2003 (disc 4)

Used drive : HP DVD Writer 1170d Adapter: 2 ID: 0
Read mode : Secure with NO C2, accurate stream, disable cache
Read offset correction : 6
Overread into Lead-In and Lead-Out : No

Used output format : C:\Eac\Codecs\flac.exe (User Defined Encoder)
320 kBit/s
Additional command line options : -8 -V -T "artist=%a" -T "title=%t" -T "album=%g" -T "date=%y" -T "tracknumber=%n" -T "genre=%m" -T "comment=EAC Flac 1.1.2 -8" %s

Other options :
Fill up missing offset samples with silence : Yes
Delete leading and trailing silent blocks : No
Installed external ASPI interface


Track 1
Filename C:\Documents and Settings\braxton\CD 4\01 - Tune Up.wav

Pre-gap length 0:00:02.00

Peak level 89.1 %
Track quality 99.9 %
Test CRC 2787C2B1
Copy CRC 2787C2B1
Copy OK

Track 2
Filename C:\Documents and Settings\braxton\CD 4\02 - Remember.wav

Pre-gap length 0:00:04.00

Peak level 89.1 %
Track quality 99.9 %
Test CRC 003A658E
Copy CRC 003A658E
Copy OK

Track 3
Filename C:\Documents and Settings\braxton\CD 4\03 - Moonlight In Vermont.wav

Pre-gap length 0:00:04.49

Peak level 89.1 %
Track quality 99.9 %
Test CRC 4BBEBB65
Copy CRC 4BBEBB65
Copy OK

Track 4
Filename C:\Documents and Settings\braxton\CD 4\04 - Take Five.wav

Pre-gap length 0:00:04.98

Peak level 89.1 %
Track quality 100.0 %
Test CRC 64E39828
Copy CRC 64E39828
Copy OK

Track 5
Filename C:\Documents and Settings\braxton\CD 4\05 - Serenity.wav

Pre-gap length 0:00:04.98

Peak level 84.1 %
Track quality 100.0 %
Test CRC B306DB20
Copy CRC B306DB20
Copy OK

No errors occured


End of status report


Anthony Braxton - 20 Standards (Quartet) 2003 (2005) {4CD Set, Leo Records ‎CD LR 431/434}



===