Tags
Language
Tags
December 2022
Su Mo Tu We Th Fr Sa
27 28 29 30 1 2 3
4 5 6 7 8 9 10
11 12 13 14 15 16 17
18 19 20 21 22 23 24
25 26 27 28 29 30 31

Apartment House - Luiz Henrique Yudo: Chamber Works (2020)

Posted By: delpotro
Apartment House - Luiz Henrique Yudo: Chamber Works (2020)

Apartment House - Luiz Henrique Yudo: Chamber Works (2020)
XLD Rip | FLAC (tracks+log+.cue) - 278 Mb | MP3 CBR 320 kbps - 154 Mb | 01:07:23
Classical | Label: Another Timbre

Luiz Henrique Yudo is a Brazilian-born composer now living in Amsterdam. He composes by transposing visual works of art into sound. “Music coming from structures, labyrinths, alphabets, codes, patterns, architecture, paintings, drawings, sculptures…” The pieces on the CD are wonderfully realised by Apartment House, who have championed his music in recent years. “What drew me in was the sheer eloquence and beauty of the works I heard, before having seen the scores, which are themselves works of art.” (Anton Lukoszevieze, Apartment House)
Tracklist:
1. A QUARTET FOR FRANCOIS MORELLET (08:07)
2. A QUARTET FOR CHRIS BEEKMAN (09:15)
3. A QUARTET FOR PALLADIO (04:09)
4. FIVE PALINDROMES #1 (02:20)
5. FIVE PALINDROMES #2 (02:08)
6. FIVE PALINDROMES #3 (01:41)
7. FIVE PALINDROMES #4 (02:57)
8. FIVE PALINDROMES #5 (01:40)
9. THE DONALD JUDD HARMONIES I-XXIII (34:54)

X Lossless Decoder version 20191004 (152.0)

XLD extraction logfile from 2020-03-24 14:55:03 +0100

Luiz Henrique Yudo, Apartment House / Chamber Works

Used drive : PIONEER BD-RW BDR-UD03 (revision 1.11)
Media type : Pressed CD

Ripper mode : XLD Secure Ripper
Disable audio cache : OK for the drive with a cache less than 1375KiB
Make use of C2 pointers : NO
Read offset correction : 667
Max retry count : 20
Gap status : Analyzed, Appended (except HTOA)

TOC of the extracted CD
Track | Start | Length | Start sector | End sector
––––––––––––––––––––––––––––-
1 | 00:00:00 | 08:10:45 | 0 | 36794
2 | 08:10:45 | 09:14:43 | 36795 | 78387
3 | 17:25:13 | 04:09:06 | 78388 | 97068
4 | 21:34:19 | 02:19:41 | 97069 | 107534
5 | 23:53:60 | 02:08:30 | 107535 | 117164
6 | 26:02:15 | 01:41:27 | 117165 | 124766
7 | 27:43:42 | 02:57:22 | 124767 | 138063
8 | 30:40:64 | 01:48:06 | 138064 | 146169
9 | 32:28:70 | 34:54:22 | 146170 | 303241

AccurateRip Summary
Disc not found in AccurateRip DB.

All Tracks
Album gain : 6.61 dB
Peak : 0.435516
Statistics
Read error : 0
Jitter error (maybe fixed) : 0
Retry sector count : 0
Damaged sector count : 0

Track 01
Filename : /Users/ouv/Luiz Henrique Yudo, Apartment House - Chamber Works (2020) {} [FLAC]/01 A QUARTET FOR FRANÇOIS MORELLET (2012).flac
Pre-gap length : 00:02:00

Track gain : 8.89 dB
Peak : 0.279297
CRC32 hash (test run) : EB9E497E
CRC32 hash : EB9E497E
CRC32 hash (skip zero) : 6937BAA1
AccurateRip v1 signature : 75258B3E
AccurateRip v2 signature : 9593524A
->Track not present in AccurateRip database.
Statistics
Read error : 0
Jitter error (maybe fixed) : 0
Retry sector count : 0
Damaged sector count : 0

Track 02
Filename : /Users/ouv/Luiz Henrique Yudo, Apartment House - Chamber Works (2020) {} [FLAC]/02 A QUARTET FOR CHRIS BEEKMAN (2017).flac

Track gain : 5.39 dB
Peak : 0.347107
CRC32 hash (test run) : A6C2B56F
CRC32 hash : A6C2B56F
CRC32 hash (skip zero) : F2BEE59A
AccurateRip v1 signature : 71EF6D80
AccurateRip v2 signature : DF535C28
->Track not present in AccurateRip database.
Statistics
Read error : 0
Jitter error (maybe fixed) : 0
Retry sector count : 0
Damaged sector count : 0

Track 03
Filename : /Users/ouv/Luiz Henrique Yudo, Apartment House - Chamber Works (2020) {} [FLAC]/03 A QUARTET FOR PALLADIO (1998).flac

Track gain : 4.15 dB
Peak : 0.435516
CRC32 hash (test run) : FDE9AA9E
CRC32 hash : FDE9AA9E
CRC32 hash (skip zero) : C131A6F0
AccurateRip v1 signature : 94BF4D4E
AccurateRip v2 signature : 07D6C580
->Track not present in AccurateRip database.
Statistics
Read error : 0
Jitter error (maybe fixed) : 0
Retry sector count : 0
Damaged sector count : 0

Track 04
Filename : /Users/ouv/Luiz Henrique Yudo, Apartment House - Chamber Works (2020) {} [FLAC]/04 FIVE PALINDROMES (1997) - 1.flac

Track gain : 8.35 dB
Peak : 0.219604
CRC32 hash (test run) : ADC4EC66
CRC32 hash : ADC4EC66
CRC32 hash (skip zero) : 26D78917
AccurateRip v1 signature : 39A7EAFA
AccurateRip v2 signature : 14761FF8
->Track not present in AccurateRip database.
Statistics
Read error : 0
Jitter error (maybe fixed) : 0
Retry sector count : 0
Damaged sector count : 0

Track 05
Filename : /Users/ouv/Luiz Henrique Yudo, Apartment House - Chamber Works (2020) {} [FLAC]/05 FIVE PALINDROMES (1997) - 2.flac

Track gain : 10.74 dB
Peak : 0.194946
CRC32 hash (test run) : 3C9F7DD8
CRC32 hash : 3C9F7DD8
CRC32 hash (skip zero) : C956DC86
AccurateRip v1 signature : 2EE79215
AccurateRip v2 signature : 3C169F13
->Track not present in AccurateRip database.
Statistics
Read error : 0
Jitter error (maybe fixed) : 0
Retry sector count : 0
Damaged sector count : 0

Track 06
Filename : /Users/ouv/Luiz Henrique Yudo, Apartment House - Chamber Works (2020) {} [FLAC]/06 FIVE PALINDROMES (1997) - 3.flac

Track gain : 10.60 dB
Peak : 0.218048
CRC32 hash (test run) : 046720FD
CRC32 hash : 046720FD
CRC32 hash (skip zero) : 503492BF
AccurateRip v1 signature : CCF0AAA0
AccurateRip v2 signature : 34E9BD34
->Track not present in AccurateRip database.
Statistics
Read error : 0
Jitter error (maybe fixed) : 0
Retry sector count : 0
Damaged sector count : 0

Track 07
Filename : /Users/ouv/Luiz Henrique Yudo, Apartment House - Chamber Works (2020) {} [FLAC]/07 FIVE PALINDROMES (1997) - 4.flac

Track gain : 4.46 dB
Peak : 0.380707
CRC32 hash (test run) : 989539EB
CRC32 hash : 989539EB
CRC32 hash (skip zero) : CC20B37B
AccurateRip v1 signature : D04E4F10
AccurateRip v2 signature : 34E7437E
->Track not present in AccurateRip database.
Statistics
Read error : 0
Jitter error (maybe fixed) : 0
Retry sector count : 0
Damaged sector count : 0

Track 08
Filename : /Users/ouv/Luiz Henrique Yudo, Apartment House - Chamber Works (2020) {} [FLAC]/08 FIVE PALINDROMES (1997) - 5.flac

Track gain : 4.33 dB
Peak : 0.345978
CRC32 hash (test run) : D59E5360
CRC32 hash : D59E5360
CRC32 hash (skip zero) : 50EC63D7
AccurateRip v1 signature : 4B00C428
AccurateRip v2 signature : E8DED935
->Track not present in AccurateRip database.
Statistics
Read error : 0
Jitter error (maybe fixed) : 0
Retry sector count : 0
Damaged sector count : 0

Track 09
Filename : /Users/ouv/Luiz Henrique Yudo, Apartment House - Chamber Works (2020) {} [FLAC]/09 THE DONALD JUDD HARMONIES I-XXIII (2016).flac

Track gain : 7.05 dB
Peak : 0.388123
CRC32 hash (test run) : 9FBD17F6
CRC32 hash : 9FBD17F6
CRC32 hash (skip zero) : 3BBD54FC
AccurateRip v1 signature : 3F6CF1D7
AccurateRip v2 signature : 930AF826
->Track not present in AccurateRip database.
Statistics
Read error : 0
Jitter error (maybe fixed) : 0
Retry sector count : 0
Damaged sector count : 0

No errors occurred

End of status report

––-BEGIN XLD SIGNATURE––-
dVWSgBSl1GWJV.PZ.gArYtQCXdz_PuBnnEBgu.WG2bkkFDaTHB.NQBdR.GXXYfM5TNt6.0ibIgZBA2w9CN1bQE8biRadPYmWjYl1b3O
––-END XLD SIGNATURE––-

Thanks to the Original ripper !