Subcategories

Archie Shepp & Chet Baker - In Memory Of (1988) {L+R Records CDLR 45006}

Posted By: ruskaval
Archie Shepp & Chet Baker - In Memory Of (1988) {L+R Records CDLR 45006}

Archie Shepp & Chet Baker - In Memory Of (1988) {L+R Records CDLR 45006}
EAC rip (secure mode) | FLAC (tracks)+CUE+LOG -> 380 Mb | MP3 @320 -> 166 Mb
Full Artwork @ 600 dpi (jpg) -> 40 Mb | 5% repair rar
© 1988 L+R Records / Bellaphon | CDLR 45006
Jazz / Post Bop / Cool / Modal Music / Saxophone / Trumpet

The unlikely musical partnership of Archie Shepp(b. 1937) and Chet Baker(1929-88) came together for their first and last gigs in Frankfurt and Paris during 1988. Chet Baker flew to Rome to buy an Alfa Romeo which he drove back for the Frankfurt gig. Consequently he was exhausted and sounds very tentative here. The Paris concert was better with Shepp & Baker complementing one another beautifully supported by a superb rhythm section. The relaxed and melancholic 70 minutes of music from these two contrasting jazz masters is well worth hearing. Tragically, two months later, Chet Baker fell to his death from a hotel window in Amsterdam.

Tracks 1-3 were recorded at the Frankfurt Jazz Festival on March 13, 1988 with Shepp(tenor sax, vocal); Chet Baker(trumpet, vocal); Horace Parlan(piano); Herman Wright(bass) & Clifford Jarvis(drums).
Tracks 4-7 were recorded at 'New Morning', Paris on March 14, 1988 with the above personnel.

Personnel:
Chet Baker, trumpet, vocals
Archie Shepp, tenor sax, vocals
Horace Parlan, piano
Herman Wright, bass
Clifford Jarvis, drums

Track Listing:
01 - Dedication To Bessie Smith's Blues
02 - My Foolish Heart
03 - Confirmation
04 - When Lights Are Low
05 - How Deep Is The Ocean
06 - Old Devil Moon
07 - My Ideal

Exact Audio Copy V1.0 beta 3 from 29. August 2011

EAC extraction logfile from 4. January 2014, 13:14

Archie Shepp & Chet Baker / In Memory of

Used drive : TSSTcorpCDDVDW SH-S223C Adapter: 3 ID: 0

Read mode : Secure
Utilize accurate stream : Yes
Defeat audio cache : Yes
Make use of C2 pointers : No

Read offset correction : 697
Overread into Lead-In and Lead-Out : No
Fill up missing offset samples with silence : Yes
Delete leading and trailing silent blocks : No
Null samples used in CRC calculations : Yes
Used interface : Native Win32 interface for Win NT & 2000
Gap handling : Appended to previous track

Used output format : User Defined Encoder
Selected bitrate : 1024 kBit/s
Quality : High
Add ID3 tag : No
Command line compressor : C:\Program Files (x86)\Exact Audio Copy\Flac\flac.exe
Additional command line options : -8 -V -T "ARTIST=%artist%" -T "TITLE=%title%" -T "ALBUM=%albumtitle%" -T "DATE=%year%" -T "TRACKNUMBER=%tracknr%" -T "GENRE=%genre%" -T "PERFORMER=%albuminterpret%" -T "COMPOSER=%composer%" %haslyrics%–tag-from-file=LYRICS="%lyricsfile%"%haslyrics% -T "ALBUMARTIST=%albumartist%" -T "DISCNUMBER=%cdnumber%" -T "TOTALDISCS=%totalcds%" -T "TOTALTRACKS=%numtracks%" -T "COMMENT=%comment%" %source% -o %dest%


TOC of the extracted CD

Track | Start | Length | Start sector | End sector
––––––––––––––––––––––––––––-
1 | 0:00.00 | 11:58.00 | 0 | 53849
2 | 11:58.00 | 9:14.25 | 53850 | 95424
3 | 21:12.25 | 11:06.12 | 95425 | 145386
4 | 32:18.37 | 9:28.63 | 145387 | 188049
5 | 41:47.25 | 9:44.50 | 188050 | 231899
6 | 51:32.00 | 10:54.37 | 231900 | 280986
7 | 62:26.37 | 7:18.40 | 280987 | 313876


Track 1

Filename C:\EAC Rips\Archie Sheep, Chet Baker - In memory of (1988)\01 - Dedication To Bessie Smith's Blues.wav

Pre-gap length 0:00:02.00

Peak level 100.0 %
Extraction speed 2.4 X
Track quality 100.0 %
Test CRC BE1E0356
Copy CRC BE1E0356
Accurately ripped (confidence 3) [6F4FD5DA] (AR v2)
Copy OK

Track 2

Filename C:\EAC Rips\Archie Sheep, Chet Baker - In memory of (1988)\02 - My Foolish Heart.wav

Pre-gap length 0:00:02.70

Peak level 98.0 %
Extraction speed 2.8 X
Track quality 100.0 %
Test CRC 563821A3
Copy CRC 563821A3
Accurately ripped (confidence 3) [3E8FEEFD] (AR v2)
Copy OK

Track 3

Filename C:\EAC Rips\Archie Sheep, Chet Baker - In memory of (1988)\03 - Confirmation.wav

Pre-gap length 0:00:02.90

Peak level 100.0 %
Extraction speed 3.3 X
Track quality 100.0 %
Test CRC 8A9D7013
Copy CRC 8A9D7013
Accurately ripped (confidence 3) [F80A9166] (AR v2)
Copy OK

Track 4

Filename C:\EAC Rips\Archie Sheep, Chet Baker - In memory of (1988)\04 - When Lights Are Low.wav

Pre-gap length 0:00:02.73

Peak level 86.5 %
Extraction speed 3.6 X
Track quality 100.0 %
Test CRC A46F5E61
Copy CRC A46F5E61
Accurately ripped (confidence 3) [CEA9A0CA] (AR v2)
Copy OK

Track 5

Filename C:\EAC Rips\Archie Sheep, Chet Baker - In memory of (1988)\05 - How Deep Is The Ocean.wav

Pre-gap length 0:00:02.86

Peak level 96.6 %
Extraction speed 1.1 X
Track quality 99.9 %
Test CRC A0776D1C
Copy CRC A0776D1C
Accurately ripped (confidence 3) [4122F79C] (AR v2)
Copy OK

Track 6

Filename C:\EAC Rips\Archie Sheep, Chet Baker - In memory of (1988)\06 - Old Devil Moon.wav

Pre-gap length 0:00:02.90

Peak level 100.0 %
Extraction speed 4.1 X
Track quality 100.0 %
Test CRC 40224843
Copy CRC 40224843
Accurately ripped (confidence 3) [06252BF2] (AR v2)
Copy OK

Track 7

Filename C:\EAC Rips\Archie Sheep, Chet Baker - In memory of (1988)\07 - My Ideal.wav

Pre-gap length 0:00:02.76

Peak level 100.0 %
Extraction speed 4.2 X
Track quality 100.0 %
Test CRC 118FB059
Copy CRC 118FB059
Accurately ripped (confidence 3) [AEC1A789] (AR v2)
Copy OK


All tracks accurately ripped

No errors occurred

End of status report

–– CUETools DB Plugin V2.1.3

[CTDB TOCID: .CaChSEuVgXbavFxdu68Mi64WTg-] found, Submit result: .CaChSEuVgXbavFxdu68Mi64WTg- has been confirmed
[2be37b0f] (6/6) Accurately ripped


==== Log checksum 3D613D400F2AE515CC7F9A3D04AA6B971926C406546D359E0D22D3BE18BE4045 ====


Archie Shepp & Chet Baker - In Memory Of (1988) {L+R Records CDLR 45006}

Archie Shepp & Chet Baker - In Memory Of (1988) {L+R Records CDLR 45006}


see more Archie Shepp…


===