Tags
Language
Tags
February 2024
Su Mo Tu We Th Fr Sa
28 29 30 31 1 2 3
4 5 6 7 8 9 10
11 12 13 14 15 16 17
18 19 20 21 22 23 24
25 26 27 28 29 1 2
Attention❗ To save your time, in order to download anything on this site, you must be registered 👉 HERE. If you do not have a registration yet, it is better to do it right away. ✌

( • )( • ) ( ͡⚆ ͜ʖ ͡⚆ ) (‿ˠ‿)
SpicyMags.xyz

Arne Domnerus Group - Jazz at the Pawnshop 2 (1991)

Posted By: Domestos
Arne Domnerus Group - Jazz at the Pawnshop 2 (1991)

Arne Domnerus Group - Jazz at the Pawnshop 2 (1991)
EAC Rip | FLAC (tracks+.cue, log) ~ 344.13 Mb | 01:00:13 | Covers
Bop | Label: Proprius - PRCD 9044

The second of four volumes that fully document a 1976 engagement at the Pawnshop Jazz Club in Stockholm, Sweden, this set differs from the others in that vibraphonist Lars Erstrand is not present. Arne Domnerus (on alto and clarinet) heads a quartet also featuring pianist Bengt Hallberg, bassist Georg Riedel and drummer Egil Johnasen. Other than an African folk song (a second version of "High Life,") and a Swedish folk song, the repertoire is dominated by swing standards; highlights include a lengthy "In a Mellow Tone," "Poor Butterfly" and "Things Ain't What They Used to Be." ~ AllMusic Review by Scott Yanow



Track List:
01. Over the Rainbow (Arlen-Harburg) - 7:17
02. Gubben och Kallingen (Trad.) - 7:30
03. In a Mellow Tone (Ellington-Gabler) - 10:30
04. Nancy with the Laughing Face (Heusen) - 6:34
05. High Life (take 2) (arr. Egerblad) - 5:57
06. Poor Butterfly (Hubbell) - 3:56
07. Exactly Like You (McHugh) - 6:14
08. Things Ain't What They Used to Be (M.Ellington) - 9:09
09. It Don't Mean a Thing (If It Ain't Got That Swing) (Ellington) - 3:06

Arne Domnerus - alto saxophone, clarinet
Bengt Hallberg - piano
Georg Riedel - bass
Egil Johansen - drums

Recorded at the "Stampen" Jazz Club, Stockholm Old Town on December 6-7, 1976.

Arne Domnerus Group - Jazz at the Pawnshop 2 (1991)

Exact Audio Copy V1.1 from 23. June 2015

EAC extraction logfile from 9. December 2015, 14:43

Arne Domnerus Group / Jazz at the Pawnshop 2

Used drive : HL-DT-STBD-RE WH14NS40 Adapter: 1 ID: 0

Read mode : Secure
Utilize accurate stream : Yes
Defeat audio cache : Yes
Make use of C2 pointers : No

Read offset correction : 6
Overread into Lead-In and Lead-Out : No
Fill up missing offset samples with silence : Yes
Delete leading and trailing silent blocks : No
Null samples used in CRC calculations : Yes
Used interface : Native Win32 interface for Win NT & 2000
Gap handling : Appended to previous track

Used output format : User Defined Encoder
Selected bitrate : 1024 kBit/s
Quality : High
Add ID3 tag : No
Command line compressor : C:\Program Files (x86)\Exact Audio Copy\FLAC\FLAC.EXE
Additional command line options : -8 -V -T "ARTIST=%artist%" -T "TITLE=%title%" -T "ALBUM=%albumtitle%" -T "DATE=%year%" -T "TRACKNUMBER=%tracknr%" -T "GENRE=%genre%" -T "COMMENT=%comment%" -T "BAND=%albuminterpret%" -T "ALBUMARTIST=%albuminterpret%" -T "COMPOSER=%composer%" %haslyrics%–tag-from-file=LYRICS="%lyricsfile%"%haslyrics% -T "DISCNUMBER=%cdnumber%" -T "TOTALDISCS=%totalcds%" -T "TOTALTRACKS=%numtracks%" %hascover%–picture="%coverfile%"%hascover% %source% -o %dest%


TOC of the extracted CD

Track | Start | Length | Start sector | End sector
––––––––––––––––––––––––––––-
1 | 0:00.00 | 7:16.40 | 0 | 32739
2 | 7:16.40 | 7:30.17 | 32740 | 66506
3 | 14:46.57 | 10:30.03 | 66507 | 113759
4 | 25:16.60 | 6:34.20 | 113760 | 143329
5 | 31:51.05 | 5:56.62 | 143330 | 170091
6 | 37:47.67 | 3:56.30 | 170092 | 187821
7 | 41:44.22 | 6:14.28 | 187822 | 215899
8 | 47:58.50 | 9:09.30 | 215900 | 257104
9 | 57:08.05 | 3:05.50 | 257105 | 271029


Track 1

Filename D:\EAC Rips\_FLAC\Arne Domnérus Group - Jazz at the Pawnshop 2 (1991) [FLAC]\01 - Over The Rainbow.wav

Pre-gap length 0:00:02.00

Peak level 89.4 %
Extraction speed 2.8 X
Track quality 100.0 %
Test CRC 8AF1BA79
Copy CRC 8AF1BA79
Accurately ripped (confidence 26) [6651F49F] (AR v2)
Copy OK

Track 2

Filename D:\EAC Rips\_FLAC\Arne Domnérus Group - Jazz at the Pawnshop 2 (1991) [FLAC]\02 - Gubben Och Källingen.wav

Peak level 91.7 %
Extraction speed 1.4 X
Track quality 100.0 %
Test CRC E61D7A58
Copy CRC E61D7A58
Accurately ripped (confidence 27) [30D1659E] (AR v2)
Copy OK

Track 3

Filename D:\EAC Rips\_FLAC\Arne Domnérus Group - Jazz at the Pawnshop 2 (1991) [FLAC]\03 - In A Mellow Tone.wav

Peak level 95.6 %
Extraction speed 1.6 X
Track quality 100.0 %
Test CRC A5667FFB
Copy CRC A5667FFB
Accurately ripped (confidence 25) [68F076C5] (AR v2)
Copy OK

Track 4

Filename D:\EAC Rips\_FLAC\Arne Domnérus Group - Jazz at the Pawnshop 2 (1991) [FLAC]\04 - Nancy With The Laughing Face.wav

Peak level 87.8 %
Extraction speed 1.8 X
Track quality 100.0 %
Test CRC 378472CA
Copy CRC 378472CA
Accurately ripped (confidence 27) [9F6757AF] (AR v2)
Copy OK

Track 5

Filename D:\EAC Rips\_FLAC\Arne Domnérus Group - Jazz at the Pawnshop 2 (1991) [FLAC]\05 - High Life (take 2).wav

Peak level 96.6 %
Extraction speed 1.9 X
Track quality 100.0 %
Test CRC CAC11063
Copy CRC CAC11063
Accurately ripped (confidence 27) [E57F4D7C] (AR v2)
Copy OK

Track 6

Filename D:\EAC Rips\_FLAC\Arne Domnérus Group - Jazz at the Pawnshop 2 (1991) [FLAC]\06 - Poor Butterfly.wav

Peak level 73.6 %
Extraction speed 1.6 X
Track quality 99.9 %
Test CRC 9BA314B3
Copy CRC 9BA314B3
Accurately ripped (confidence 28) [86ABD111] (AR v2)
Copy OK

Track 7

Filename D:\EAC Rips\_FLAC\Arne Domnérus Group - Jazz at the Pawnshop 2 (1991) [FLAC]\07 - Exactly Like You.wav

Peak level 89.8 %
Extraction speed 2.0 X
Track quality 100.0 %
Test CRC 7B72141A
Copy CRC 7B72141A
Accurately ripped (confidence 28) [9119E9D9] (AR v2)
Copy OK

Track 8

Filename D:\EAC Rips\_FLAC\Arne Domnérus Group - Jazz at the Pawnshop 2 (1991) [FLAC]\08 - Things Ain't What They Used To Be.wav

Peak level 94.2 %
Extraction speed 2.2 X
Track quality 100.0 %
Test CRC FBB7B798
Copy CRC FBB7B798
Accurately ripped (confidence 26) [DEBEBFC4] (AR v2)
Copy OK

Track 9

Filename D:\EAC Rips\_FLAC\Arne Domnérus Group - Jazz at the Pawnshop 2 (1991) [FLAC]\09 - It Don't Mean A Thing.wav

Peak level 98.4 %
Extraction speed 2.1 X
Track quality 100.0 %
Test CRC 41B8639B
Copy CRC 41B8639B
Accurately ripped (confidence 23) [ECB4B724] (AR v2)
Copy OK


All tracks accurately ripped

No errors occurred

End of status report

–– CUETools DB Plugin V2.1.6

[CTDB TOCID: TpqqjZrxJW4g.55xNcq5huyjCUE-] found
Submit result: already submitted
Track | CTDB Status
1 | (78/83) Accurately ripped
2 | (76/83) Accurately ripped
3 | (79/83) Accurately ripped
4 | (76/83) Accurately ripped
5 | (77/83) Accurately ripped
6 | (81/83) Accurately ripped
7 | (78/83) Accurately ripped
8 | (74/83) Accurately ripped
9 | (75/83) Accurately ripped


==== Log checksum B2E0A71DA07976102FF1920BC918CFB72EF02873E9CF1C66EA52D71626E11100 ====

All thanks go to the redacted

More Music in My Blog
Follow My RSS Channel