Tags
Language
Tags

Art Farmer Quartet - Interaction (1963) {2013 Japan Jazz Best Collection 1000 Series WPCR-27009}

Posted By: ruskaval
Art Farmer Quartet - Interaction (1963) {2013 Japan Jazz Best Collection 1000 Series WPCR-27009}

Art Farmer Quartet - Interaction (1963) {2013 Japan Jazz Best Collection 1000 Series WPCR-27009}
EAC rip (secure mode) | FLAC (tracks)+CUE+LOG -> 249 Mb | MP3 @320 -> 106 Mb
Full Artwork @ 300 dpi (jpg) -> 12 Mb | 5% repair rar | 24bit remaster
© 1963, 2013 Atlantic / Rhino / Warner Japan | WPCR-27009 / 8122-79694-7
Jazz / Cool / Hard Bop / Flugelhorn

An excellent session. Nothing unfamiliar or far out, but just great, straight-ahead playing from some of the most lyrical and thoughtful players in jazz. Anyone who appreciates Farmer and/or Hall should have this. The rhythm section of Steve Swallow and Walter Perkins couldn't be more attuned to the 2 leaders, and they really make the whole date cohesive; the title "Interaction" couldn't be more appropriate. Sound of this edition - the 24 bit Japanese edition - is fine - but not necessarily an improvement over earlier issues.

(The guitar distortion, as others have pointed out, remains.) All Farmer's Atlantic titles are worthwhile, and it's almost pointless to argue over which is best. But "Interaction" remains a high point in my collection, as it has since I first purchased the album more than 50 years ago. (The extra track - which is also on an earlier Japanese version - is completely in keeping with the mood of the session, and I can't imagine why it was left off the original LP.)
Art Farmer Quartet - Interaction (1963) {2013 Japan Jazz Best Collection 1000 Series WPCR-27009}


Personnel:

Art Farmer - flugelhorn
Jim Hall - guitar
Steve Swallow - bass
Walter Perkins - drums

Recorded: July 25 & 29, August 1, 1963

Track Listing:

1. Days of Wine and Roses
2. By Myself
3. My Little Suede Shoes
4. Embraceable You
5. My Kinda Love
6. Sometime Ago
7. Loads of Love

Exact Audio Copy V1.0 beta 3 from 29. August 2011

EAC extraction logfile from 18. August 2014, 13:38

Art Farmer Quartet / Interaction

Used drive : ATAPI DVD A DH16ABSH Adapter: 2 ID: 1

Read mode : Secure
Utilize accurate stream : Yes
Defeat audio cache : Yes
Make use of C2 pointers : No

Read offset correction : 6
Overread into Lead-In and Lead-Out : No
Fill up missing offset samples with silence : Yes
Delete leading and trailing silent blocks : No
Null samples used in CRC calculations : Yes
Used interface : Native Win32 interface for Win NT & 2000
Gap handling : Appended to previous track

Used output format : User Defined Encoder
Selected bitrate : 128 kBit/s
Quality : High
Add ID3 tag : No
Command line compressor : C:\Program Files (x86)\Exact Audio Copy\FLAC\FLAC.EXE
Additional command line options : -8 -V -T "ARTIST=%artist%" -T "TITLE=%title%" -T "ALBUM=%albumtitle%" -T "DATE=%year%" -T "TRACKNUMBER=%tracknr%" -T "TOTALTRACKS=%numtracks%" -T "GENRE=%genre%" -T "ALBUMARTIST=%albumartist%" -T "ALBUM ARTIST=%albumartist%" -T "COMMENT=EAC Secure Mode, Test & Copy, AccurateRip, FLAC -8" %source%


TOC of the extracted CD

Track | Start | Length | Start sector | End sector
––––––––––––––––––––––––––––-
1 | 0:00.00 | 6:49.58 | 0 | 30732
2 | 6:49.58 | 7:08.57 | 30733 | 62889
3 | 13:58.40 | 5:02.18 | 62890 | 85557
4 | 19:00.58 | 7:04.24 | 85558 | 117381
5 | 26:05.07 | 7:17.33 | 117382 | 150189
6 | 33:22.40 | 6:23.63 | 150190 | 178977
7 | 39:46.28 | 4:53.61 | 178978 | 201013


Track 1

Filename C:\Users\owner\Desktop\Art Farmer Quartet - Interaction (1963) [FLAC] {Atlantic WPCR-27009}\01 - Days Of Wine And Roses.wav

Pre-gap length 0:00:02.00

Peak level 100.0 %
Extraction speed 1.9 X
Track quality 100.0 %
Test CRC 70614F67
Copy CRC 70614F67
Accurately ripped (confidence 3) [9049707C] (AR v2)
Copy OK

Track 2

Filename C:\Users\owner\Desktop\Art Farmer Quartet - Interaction (1963) [FLAC] {Atlantic WPCR-27009}\02 - By Myself.wav

Pre-gap length 0:00:00.40

Peak level 100.0 %
Extraction speed 2.3 X
Track quality 100.0 %
Test CRC 4CA8C95E
Copy CRC 4CA8C95E
Accurately ripped (confidence 3) [71566330] (AR v2)
Copy OK

Track 3

Filename C:\Users\owner\Desktop\Art Farmer Quartet - Interaction (1963) [FLAC] {Atlantic WPCR-27009}\03 - My Little Suede Shoes.wav

Pre-gap length 0:00:00.58

Peak level 100.0 %
Extraction speed 2.5 X
Track quality 100.0 %
Test CRC 74004C68
Copy CRC 74004C68
Accurately ripped (confidence 3) [76982421] (AR v2)
Copy OK

Track 4

Filename C:\Users\owner\Desktop\Art Farmer Quartet - Interaction (1963) [FLAC] {Atlantic WPCR-27009}\04 - Embraceable You.wav

Pre-gap length 0:00:00.42

Peak level 100.0 %
Extraction speed 2.2 X
Track quality 99.9 %
Test CRC 7A2D0ECB
Copy CRC 7A2D0ECB
Accurately ripped (confidence 3) [D508012D] (AR v2)
Copy OK

Track 5

Filename C:\Users\owner\Desktop\Art Farmer Quartet - Interaction (1963) [FLAC] {Atlantic WPCR-27009}\05 - My Kinda Love.wav

Pre-gap length 0:00:01.01

Peak level 100.0 %
Extraction speed 3.0 X
Track quality 100.0 %
Test CRC C01C8B39
Copy CRC C01C8B39
Accurately ripped (confidence 3) [F59C5BAF] (AR v2)
Copy OK

Track 6

Filename C:\Users\owner\Desktop\Art Farmer Quartet - Interaction (1963) [FLAC] {Atlantic WPCR-27009}\06 - Sometime Ago.wav

Pre-gap length 0:00:01.14

Peak level 100.0 %
Extraction speed 3.1 X
Track quality 100.0 %
Test CRC 4A146992
Copy CRC 4A146992
Accurately ripped (confidence 3) [4B208D38] (AR v2)
Copy OK

Track 7

Filename C:\Users\owner\Desktop\Art Farmer Quartet - Interaction (1963) [FLAC] {Atlantic WPCR-27009}\07 - Loads Of Love.wav

Pre-gap length 0:00:01.26

Peak level 100.0 %
Extraction speed 2.5 X
Track quality 99.9 %
Test CRC 2D94BC9D
Copy CRC 2D94BC9D
Accurately ripped (confidence 3) [8DD4944A] (AR v2)
Copy OK


All tracks accurately ripped

No errors occurred

End of status report

==== Log checksum 604E39E84487DB5A542A6176CF1943BA4747AEB22A1138D4B7BCA7C523FD5A13 ====


Art Farmer Quartet - Interaction (1963) {2013 Japan Jazz Best Collection 1000 Series WPCR-27009}

Art Farmer Quartet - Interaction (1963) {2013 Japan Jazz Best Collection 1000 Series WPCR-27009}


see more Japan Jazz Best Collection 1000 Series…


===