Subcategories

Art Pepper - Modern Art - The Complete Art Pepper Aladdin Recordings, Vol. 2 (1957) { {Blue Note CDP 7 46848 2 rel 1988}

Posted By: ruskaval
Art Pepper - Modern Art - The Complete Art Pepper Aladdin Recordings, Vol. 2 (1957) { {Blue Note CDP 7 46848 2 rel 1988}

Art Pepper - Modern Art - The Complete Art Pepper Aladdin Recordings, Vol. 2 (1957) { {Blue Note CDP 7 46848 2 rel 1988}
EAC rip (secure mode) | FLAC (tracks)+CUE+LOG -> 381 Mb | MP3 @320 -> 157 Mb
Full Artwork @ 300 dpi (jpg) -> 9 Mb | 5% repair rar
© 1957, 1988 Blue Note / EMI-Manhattan Records | CDP 7 46848 2
Jazz / Bop / Cool / West Coast Jazz / Saxophone

One of the greatest West Coast jazz LPs of all time! Art Pepper plays beautiful spiralling alto lines with a tight quartet that includes Russ Freeman on piano, Chuck Flores on drums, and Ben Tucker on bass. The whole thing swings in a way that's tough to find on some of Pepper's other albums from the time, and the track list includes "Dianne's Dilemma", "Blues In", "Blues Out", and "Cool Bunny".
This album, recorded in 1956 and 1957, is the second part of a three-volume set released by Aladdin Records, comprising the saxophonist's full body of recorded material for this label. Combining bebop with West Coast cool, Modern Art documents memorable performances of standards, including the luscious ballad "Bewitched, Bothered and Bewildered," and the steamy "Summertime." Pepper's version of this latter track is replete with a thick, almost haunting, reverb effect. Other standouts are the stripped-down versions of "Blues In" and "Blue Out," two tunes that feature Pepper's lamenting sax as it soliloquizes over a simple walking bass line. Art Pepper was one of the world's greatest alto saxophonists. Though firmly rooted in the jazz tradition, Pepper possessed a strongly unique sensibility, and his career ups and downs (largely due to drug addiction) never seemed to affect his ability to play with precision, clarity, and insight.

Personnel:
Art Pepper - alto sax
Russ Freeman - piano (1-10)
Carl Perkins - piano (11-13)
Ben Tucker - bass
Chuck Flores - drums

Recorded at Radio Recorders in Los Angeles on December 28, 1956 (1-5)
Recorded at Master Recorder in Los Angeles on January 14, 1957 (6-10)
Recorded at Audio Arts in Los Angeles on April 1, 1957 (11-13)


tracklist:
01 - Blues In
02 - Bewitched, Bothered And Bewildered
03 - Stompin' At The Savoy
04 - What Is This Thing Called Love
05 - Blues Out
06 - When You're Smiling
07 - Cool Bunny
08 - Diane's Dilemma
09 - Diane's Dilemma (alternate take)
10 - Summertime
11 - Fascinating Rhythm (alternate take)
12 - Begin The Beguine (alternate take)
13 - Webb City (alternate take)

Exact Audio Copy V1.1 from 23. June 2015

EAC extraction logfile from 31. January 2017, 20:50

Art Pepper / Modern Art - The Complete Art Pepper Aladdin Recordings, Vol. 2

Used drive : TSSTcorpCDDVDW SE-208DB Adapter: 1 ID: 1

Read mode : Secure
Utilize accurate stream : Yes
Defeat audio cache : Yes
Make use of C2 pointers : No

Read offset correction : 6
Overread into Lead-In and Lead-Out : No
Fill up missing offset samples with silence : Yes
Delete leading and trailing silent blocks : No
Null samples used in CRC calculations : Yes
Used interface : Native Win32 interface for Win NT & 2000
Gap handling : Appended to previous track

Used output format : User Defined Encoder
Selected bitrate : 1024 kBit/s
Quality : High
Add ID3 tag : No
Command line compressor : C:\Program Files (x86)\FLAC Frontend\tools\flac.exe
Additional command line options : -8 -V -T "ARTIST=%artist%" -T "TITLE=%title%" -T "ALBUM=%albumtitle%" -T "DATE=%year%" -T "TRACKNUMBER=%tracknr%" -T "TOTALTRACKS=%numtracks%" -T "GENRE=%genre%" -T "ALBUMARTIST=%albumartist%" -T "ALBUM ARTIST=%albumartist%" -T "COMMENT=EAC Secure Mode, Test & Copy, AccurateRip, FLAC -8" %source%


TOC of the extracted CD

Track | Start | Length | Start sector | End sector
––––––––––––––––––––––––––––-
1 | 0:00.00 | 6:03.12 | 0 | 27236
2 | 6:03.12 | 4:27.53 | 27237 | 47314
3 | 10:30.65 | 5:06.25 | 47315 | 70289
4 | 15:37.15 | 6:07.35 | 70290 | 97849
5 | 21:44.50 | 4:48.72 | 97850 | 119521
6 | 26:33.47 | 4:53.58 | 119522 | 141554
7 | 31:27.30 | 4:15.57 | 141555 | 160736
8 | 35:43.12 | 3:51.30 | 160737 | 178091
9 | 39:34.42 | 4:57.10 | 178092 | 200376
10 | 44:31.52 | 7:19.63 | 200377 | 233364
11 | 51:51.40 | 4:02.27 | 233365 | 251541
12 | 55:53.67 | 6:18.55 | 251542 | 279946
13 | 62:12.47 | 4:35.08 | 279947 | 300579


Track 1

Filename D:\_EAC\Art Pepper - Modern Art - The Complete Art Pepper Aladdin Recordings, Vol. 2 (1957) [FLAC]\01 - Blues In.wav

Pre-gap length 0:00:02.00

Peak level 88.1 %
Extraction speed 1.2 X
Track quality 100.0 %
Test CRC 46D6B474
Copy CRC 46D6B474
Track not present in AccurateRip database
Copy OK

Track 2

Filename D:\_EAC\Art Pepper - Modern Art - The Complete Art Pepper Aladdin Recordings, Vol. 2 (1957) [FLAC]\02 - Bewitched, Bothered And Bewildered.wav

Peak level 78.0 %
Extraction speed 1.2 X
Track quality 100.0 %
Test CRC 356CD502
Copy CRC 356CD502
Track not present in AccurateRip database
Copy OK

Track 3

Filename D:\_EAC\Art Pepper - Modern Art - The Complete Art Pepper Aladdin Recordings, Vol. 2 (1957) [FLAC]\03 - Stompin' At The Savoy.wav

Peak level 88.5 %
Extraction speed 1.4 X
Track quality 100.0 %
Test CRC D3D25584
Copy CRC D3D25584
Track not present in AccurateRip database
Copy OK

Track 4

Filename D:\_EAC\Art Pepper - Modern Art - The Complete Art Pepper Aladdin Recordings, Vol. 2 (1957) [FLAC]\04 - What Is This Thing Called Love.wav

Peak level 95.8 %
Extraction speed 1.5 X
Track quality 100.0 %
Test CRC 18F759FA
Copy CRC 18F759FA
Track not present in AccurateRip database
Copy OK

Track 5

Filename D:\_EAC\Art Pepper - Modern Art - The Complete Art Pepper Aladdin Recordings, Vol. 2 (1957) [FLAC]\05 - Blues Out.wav

Peak level 79.0 %
Extraction speed 1.5 X
Track quality 100.0 %
Test CRC EDDAEA8A
Copy CRC EDDAEA8A
Track not present in AccurateRip database
Copy OK

Track 6

Filename D:\_EAC\Art Pepper - Modern Art - The Complete Art Pepper Aladdin Recordings, Vol. 2 (1957) [FLAC]\06 - When You're Smiling.wav

Peak level 79.2 %
Extraction speed 1.4 X
Track quality 99.9 %
Test CRC BF5173C0
Copy CRC BF5173C0
Track not present in AccurateRip database
Copy OK

Track 7

Filename D:\_EAC\Art Pepper - Modern Art - The Complete Art Pepper Aladdin Recordings, Vol. 2 (1957) [FLAC]\07 - Cool Bunny.wav

Peak level 95.8 %
Extraction speed 1.6 X
Track quality 100.0 %
Test CRC 0346054E
Copy CRC 0346054E
Track not present in AccurateRip database
Copy OK

Track 8

Filename D:\_EAC\Art Pepper - Modern Art - The Complete Art Pepper Aladdin Recordings, Vol. 2 (1957) [FLAC]\08 - Diane's Dilemma.wav

Peak level 95.8 %
Extraction speed 1.4 X
Track quality 99.9 %
Test CRC 74F0E1FA
Copy CRC 74F0E1FA
Track not present in AccurateRip database
Copy OK

Track 9

Filename D:\_EAC\Art Pepper - Modern Art - The Complete Art Pepper Aladdin Recordings, Vol. 2 (1957) [FLAC]\09 - Diane's Dilemma (alternate take).wav

Peak level 89.0 %
Extraction speed 1.5 X
Track quality 99.9 %
Test CRC ABE030F9
Copy CRC ABE030F9
Track not present in AccurateRip database
Copy OK

Track 10

Filename D:\_EAC\Art Pepper - Modern Art - The Complete Art Pepper Aladdin Recordings, Vol. 2 (1957) [FLAC]\10 - Summertime.wav

Peak level 95.8 %
Extraction speed 1.9 X
Track quality 100.0 %
Test CRC E4A34165
Copy CRC E4A34165
Track not present in AccurateRip database
Copy OK

Track 11

Filename D:\_EAC\Art Pepper - Modern Art - The Complete Art Pepper Aladdin Recordings, Vol. 2 (1957) [FLAC]\11 - Fascinating Rhythm (alternate take).wav

Peak level 95.8 %
Extraction speed 1.6 X
Track quality 99.9 %
Test CRC 8AF4D737
Copy CRC 8AF4D737
Track not present in AccurateRip database
Copy OK

Track 12

Filename D:\_EAC\Art Pepper - Modern Art - The Complete Art Pepper Aladdin Recordings, Vol. 2 (1957) [FLAC]\12 - Begin The Beguine (alternate take).wav

Peak level 89.6 %
Extraction speed 2.0 X
Track quality 100.0 %
Test CRC B0A2F83E
Copy CRC B0A2F83E
Track not present in AccurateRip database
Copy OK

Track 13

Filename D:\_EAC\Art Pepper - Modern Art - The Complete Art Pepper Aladdin Recordings, Vol. 2 (1957) [FLAC]\13 - Webb City (alternate take).wav

Peak level 95.8 %
Extraction speed 1.9 X
Track quality 100.0 %
Test CRC 6ACAC0A7
Copy CRC 6ACAC0A7
Track not present in AccurateRip database
Copy OK


None of the tracks are present in the AccurateRip database

No errors occurred

End of status report

==== Log checksum 73C6A2B75A168EDE16C66F2CF3C32654C0A0AE0C4B946BDF4ED926BF9CFD7C2A ====


Art Pepper - Modern Art - The Complete Art Pepper Aladdin Recordings, Vol. 2 (1957) { {Blue Note CDP 7 46848 2 rel 1988}

Art Pepper - Modern Art - The Complete Art Pepper Aladdin Recordings, Vol. 2 (1957) { {Blue Note CDP 7 46848 2 rel 1988}


the artwork -> thanks to Mal…

NEXT -> Art Pepper - The Art Of Pepper - The Complete Art Pepper Aladdin Recordings, Vol. 3 (1957)


see also:
Art Pepper - The Return Of Art Pepper - The Complete Art Pepper Aladdin Recordings, Vol. 1 (1957) {Blue Note 46863 rel 1988}


===