Tags
Language
Tags

Art Pepper - Unreleased Art, Vol. 3 - The Croydon Concert May 14, 1981 (2008) {2CD Set, Widow's Taste ‎APM08001}

Posted By: ruskaval
Art Pepper - Unreleased Art, Vol. 3 - The Croydon Concert May 14, 1981 (2008) {2CD Set, Widow's Taste ‎APM08001}

Art Pepper - Unreleased Art, Vol. 3 - The Croydon Concert May 14, 1981 (2008) {2CD Set, Widow's Taste ‎APM08001}
EAC rip (secure mode) | FLAC (tracks)+CUE+LOG -> 811 Mb | MP3 @320 -> 308 Mb
Full Artwork @ 300 dpi (jpg) -> 33 Mb | 5% repair rar
© 1981, 2008 Widow's Taste | APM08001
Jazz / Bebop / Cool / West Coast Jazz / Jazz Blues / Saxophone

In Unreleased Art, Vol. 3 of the Unreleased Art series, Laurie Pepper unearths yet another unreleased tape of a late-period Art Pepper performance – this time courtesy of an obsessive fan who had access to prime-sounding material. This double-CD set takes in a full concert from Pepper's working band of 1981, caught while on an exhausting tour of Europe and the U.K. – 18 dates in 21 days. By this time, after two years on the road, the team of Pepper, pianist Milcho Leviev – who from the testimony of Laurie Pepper's notes evidently had a tempestuous working relationship with the alto saxophonist – bassist Bob Magnusson and drummer Carl Burnett had the mutual ESP going good and hard.

Art the populist is in supreme jazz-funk form in Disc One, opening with an earthy blues for his pet cat, "Blues for Blanche," sounding like an alto Eddie Harris on "Ophelia," and working out the Latin soul groove in "Mambo de la Pinta." Disc Two spotlights Art the eclectic, jumping into the straight bebop with "Cherokee" at a runaway tempo, occasionally venturing on the outside. Collectors' alert: "Dedicated" appears to be a one-of-a-kind track – debuted by Pepper in Croydon but never played again – a thoughtful, Coltrane-esque, minor-key blues waltz. "Make a List (Make a Wish)" finishes the concert in a Les McCann-like groove that drives on for over 20 minutes and doesn't wear out its welcome. This set makes the case more extensively than most posthumous releases that Pepper was an underrated jazz funkster as well as a passionate Coltrane-influenced mainstreamer. The excellent sound quality – with an exceptionally good pickup of Magnusson's bass – leads one to speculate that this baby came off the soundboard.
Art Pepper - Unreleased Art, Vol. 3 - The Croydon Concert May 14, 1981 (2008) {2CD Set, Widow's Taste ‎APM08001}


Personnel
Art Pepper - alto saxophone
Milcho Leviev - piano
Bob Magnusson - bass
Carl Burnett - drums

Track Listing

CD1:

01. Blues for Blanche (Pepper)
02. talk, band intro
03. Ophelia (Pepper)
04. Mambo de la Pinta (Pepper)
05. Patricia (Pepper)

Art Pepper - Unreleased Art, Vol. 3 - The Croydon Concert May 14, 1981 (2008) {2CD Set, Widow's Taste ‎APM08001}


CD2:
01. Cherokee (Noble)
02. Goodbye (Jenkins)
03. Yours Is My Heart Alone (Lehar-Loehner-Herzer)
04. Dedicated (Pepper)
05. Make a List (Make a Wish) (Pepper)

Art Pepper - Unreleased Art, Vol. 3 - The Croydon Concert May 14, 1981 (2008) {2CD Set, Widow's Taste ‎APM08001}


Exact Audio Copy V0.99 prebeta 5 from 4. May 2009

EAC extraction logfile from 15. January 2011, 20:15

Art Pepper / Unreleased Art, Vol.3 : The Croydon Concert (May 14, 1981) CD1

Used drive : ATAPI iHAS120 6 Adapter: 1 ID: 0

Read mode : Secure
Utilize accurate stream : Yes
Defeat audio cache : Yes
Make use of C2 pointers : No

Read offset correction : 6
Overread into Lead-In and Lead-Out : No
Fill up missing offset samples with silence : Yes
Delete leading and trailing silent blocks : No
Null samples used in CRC calculations : Yes
Used interface : Native Win32 interface for Win NT & 2000
Gap handling : Appended to previous track

Used output format : User Defined Encoder
Selected bitrate : 128 kBit/s
Quality : High
Add ID3 tag : No
Command line compressor : C:\Program Files (x86)\Exact Audio Copy\flac.exe
Additional command line options : -8 -V -T "ARTIST=%a" -T "TITLE=%t" -T "ALBUM=%g" -T "DATE=%y" -T "TRACKNUMBER=%n" -T "GENRE=%m" -T "COMMENT=EAC FLAC -8" %s


TOC of the extracted CD

Track | Start | Length | Start sector | End sector
––––––––––––––––––––––––––––-
1 | 0:00.00 | 12:41.02 | 0 | 57076
2 | 12:41.02 | 4:34.06 | 57077 | 77632
3 | 17:15.08 | 11:36.69 | 77633 | 129901
4 | 28:52.02 | 14:50.01 | 129902 | 196652
5 | 43:42.03 | 19:42.34 | 196653 | 285336


Track 1

Filename G:\Lossless prepare\Art Pepper - Unreleased Art, Vol.3 - The Croydon Concert (May 14, 1981) CD1 (2007) [FLAC]\01 - Blues for Blanche.wav

Pre-gap length 0:00:02.00

Peak level 98.7 %
Track quality 100.0 %
Test CRC A8B2ED4B
Copy CRC A8B2ED4B
Track not present in AccurateRip database
Copy OK

Track 2

Filename G:\Lossless prepare\Art Pepper - Unreleased Art, Vol.3 - The Croydon Concert (May 14, 1981) CD1 (2007) [FLAC]\02 - Talk, band intro.wav

Peak level 99.0 %
Track quality 100.0 %
Test CRC D0A45402
Copy CRC D0A45402
Track not present in AccurateRip database
Copy OK

Track 3

Filename G:\Lossless prepare\Art Pepper - Unreleased Art, Vol.3 - The Croydon Concert (May 14, 1981) CD1 (2007) [FLAC]\03 - Ophelia.wav

Peak level 96.6 %
Track quality 100.0 %
Test CRC 78239D85
Copy CRC 78239D85
Track not present in AccurateRip database
Copy OK

Track 4

Filename G:\Lossless prepare\Art Pepper - Unreleased Art, Vol.3 - The Croydon Concert (May 14, 1981) CD1 (2007) [FLAC]\04 - Mambo de la Pinta.wav

Pre-gap length 0:00:01.00

Peak level 96.6 %
Track quality 100.0 %
Test CRC E32073B6
Copy CRC E32073B6
Track not present in AccurateRip database
Copy OK

Track 5

Filename G:\Lossless prepare\Art Pepper - Unreleased Art, Vol.3 - The Croydon Concert (May 14, 1981) CD1 (2007) [FLAC]\05 - Patricia.wav

Pre-gap length 0:00:02.00

Peak level 100.0 %
Track quality 100.0 %
Test CRC 1B92141E
Copy CRC 1B92141E
Track not present in AccurateRip database
Copy OK


None of the tracks are present in the AccurateRip database

No errors occurred

End of status report
Exact Audio Copy V0.99 prebeta 5 from 4. May 2009

EAC extraction logfile from 15. January 2011, 20:59

Art Pepper / Unreleased Art, Vol.3 : The Croydon Concert (May 14, 1981) CD2

Used drive : ATAPI iHAS120 6 Adapter: 1 ID: 0

Read mode : Secure
Utilize accurate stream : Yes
Defeat audio cache : Yes
Make use of C2 pointers : No

Read offset correction : 6
Overread into Lead-In and Lead-Out : No
Fill up missing offset samples with silence : Yes
Delete leading and trailing silent blocks : No
Null samples used in CRC calculations : Yes
Used interface : Native Win32 interface for Win NT & 2000
Gap handling : Appended to previous track

Used output format : User Defined Encoder
Selected bitrate : 128 kBit/s
Quality : High
Add ID3 tag : No
Command line compressor : C:\Program Files (x86)\Exact Audio Copy\flac.exe
Additional command line options : -8 -V -T "ARTIST=%a" -T "TITLE=%t" -T "ALBUM=%g" -T "DATE=%y" -T "TRACKNUMBER=%n" -T "GENRE=%m" -T "COMMENT=EAC FLAC -8" %s


TOC of the extracted CD

Track | Start | Length | Start sector | End sector
––––––––––––––––––––––––––––-
1 | 0:00.00 | 12:56.74 | 0 | 58273
2 | 12:56.74 | 12:00.08 | 58274 | 112281
3 | 24:57.07 | 9:40.29 | 112282 | 155810
4 | 34:37.36 | 9:45.54 | 155811 | 199739
5 | 44:23.15 | 20:51.50 | 199740 | 293614


Track 1

Filename G:\Lossless prepare\Art Pepper - Unreleased Art, Vol.3 - The Croydon Concert (May 14, 1981) CD2 (2007) [FLAC]\01 - Cherokee.wav

Pre-gap length 0:00:02.00

Peak level 96.6 %
Track quality 100.0 %
Test CRC F936E221
Copy CRC F936E221
Track not present in AccurateRip database
Copy OK

Track 2

Filename G:\Lossless prepare\Art Pepper - Unreleased Art, Vol.3 - The Croydon Concert (May 14, 1981) CD2 (2007) [FLAC]\02 - Goodbye.wav

Pre-gap length 0:00:02.00

Peak level 96.6 %
Track quality 100.0 %
Test CRC 531F2E01
Copy CRC 531F2E01
Track not present in AccurateRip database
Copy OK

Track 3

Filename G:\Lossless prepare\Art Pepper - Unreleased Art, Vol.3 - The Croydon Concert (May 14, 1981) CD2 (2007) [FLAC]\03 - Yours is My Heart Alone.wav

Pre-gap length 0:00:02.00

Peak level 96.6 %
Track quality 100.0 %
Test CRC 1F348A63
Copy CRC 1F348A63
Track not present in AccurateRip database
Copy OK

Track 4

Filename G:\Lossless prepare\Art Pepper - Unreleased Art, Vol.3 - The Croydon Concert (May 14, 1981) CD2 (2007) [FLAC]\04 - Dedicated.wav

Pre-gap length 0:00:02.00

Peak level 96.6 %
Track quality 100.0 %
Test CRC FF119D68
Copy CRC FF119D68
Track not present in AccurateRip database
Copy OK

Track 5

Filename G:\Lossless prepare\Art Pepper - Unreleased Art, Vol.3 - The Croydon Concert (May 14, 1981) CD2 (2007) [FLAC]\05 - Make a List (Make a Wish).wav

Pre-gap length 0:00:02.00

Peak level 96.6 %
Track quality 100.0 %
Test CRC 0801DAC5
Copy CRC 0801DAC5
Track not present in AccurateRip database
Copy OK


None of the tracks are present in the AccurateRip database

No errors occurred

End of status report


Art Pepper - Unreleased Art, Vol. 3 - The Croydon Concert May 14, 1981 (2008) {2CD Set, Widow's Taste ‎APM08001}


see more Art Pepper…

NEXT -> more Unreleased Art Series on the way…


===