Subcategories

Asa - Beautiful Imperfection

Posted By: jetset
Asa - Beautiful Imperfection

Asa - Beautiful Imperfection (2010)
EAC Rip | FLAC (Tracks)+CUE, LOG | No scans | MP3 320 CBR | 337 MB/118 MB
Pop, Soul | Label: Naïve | Fileserve + Filesonic

“Beyond all stereotypes: The new album of the Franco-Nigerian Aşa tells about Africa in the globalized language of pop.“

1. Why Can’t We
2. Maybe
3. Be My Man
4. Preacher Man
5. Bimpé
6. The Way I Feel
7. Ok Ok
8. Dreamer girl (Have you ever heard)
9. Oré
10. Baby Gone
11. Broda Olé (Brother Ole)
12. Questions
13. Bamidele (Bonus track)

Exact Audio Copy V0.99 prebeta 5 from 4. May 2009

EAC extraction logfile from 12. November 2010, 18:03

Asa / Beautiful Imperfections

Used drive : TSSTcorpCDDVDW SH-S223F Adapter: 1 ID: 1

Read mode : Secure
Utilize accurate stream : Yes
Defeat audio cache : Yes
Make use of C2 pointers : No

Read offset correction : 6
Overread into Lead-In and Lead-Out : No
Fill up missing offset samples with silence : Yes
Delete leading and trailing silent blocks : No
Null samples used in CRC calculations : Yes
Used interface : Native Win32 interface for Win NT & 2000
Gap handling : Appended to previous track

Used output format : User Defined Encoder
Selected bitrate : 1024 kBit/s
Quality : High
Add ID3 tag : No
Command line compressor : C:\Program Files\Exact Audio Copy\Flac\flac.exe
Additional command line options : -V -8 -T "artist=%a" -T "title=%t" -T "album=%g" -T "date=%y" -T "tracknumber=%n" -T "genre=%m" %s


TOC of the extracted CD

Track | Start | Length | Start sector | End sector
––––––––––––––––––––––––––––-
1 | 0:00.00 | 3:44.14 | 0 | 16813
2 | 3:44.14 | 4:15.64 | 16814 | 36002
3 | 8:00.03 | 3:43.36 | 36003 | 52763
4 | 11:43.39 | 4:44.69 | 52764 | 74132
5 | 16:28.33 | 3:27.20 | 74133 | 89677
6 | 19:55.53 | 5:01.58 | 89678 | 112310
7 | 24:57.36 | 3:51.66 | 112311 | 129701
8 | 28:49.27 | 3:40.02 | 129702 | 146203
9 | 32:29.29 | 4:39.56 | 146204 | 167184
10 | 37:09.10 | 4:33.38 | 167185 | 187697
11 | 41:42.48 | 3:54.74 | 187698 | 205321
12 | 45:37.47 | 4:04.66 | 205322 | 223687


Track 1

Filename C:\EAC\Asa - Beautiful Imperfections (2010) - FLAC\01 - Why Can't We.wav

Pre-gap length 0:00:02.00

Peak level 99.9 %
Track quality 100.0 %
Test CRC 8C5A1B24
Copy CRC 8C5A1B24
Track not present in AccurateRip database
Copy OK

Track 2

Filename C:\EAC\Asa - Beautiful Imperfections (2010) - FLAC\02 - Maybe.wav

Pre-gap length 0:00:01.96

Peak level 99.9 %
Track quality 100.0 %
Test CRC 557334B0
Copy CRC 557334B0
Track not present in AccurateRip database
Copy OK

Track 3

Filename C:\EAC\Asa - Beautiful Imperfections (2010) - FLAC\03 - Be My Man.wav

Pre-gap length 0:00:01.73

Peak level 94.3 %
Track quality 99.9 %
Test CRC 540A945D
Copy CRC 540A945D
Track not present in AccurateRip database
Copy OK

Track 4

Filename C:\EAC\Asa - Beautiful Imperfections (2010) - FLAC\04 - Preacher Man.wav

Pre-gap length 0:00:03.86

Peak level 99.9 %
Track quality 99.9 %
Test CRC 1EF36D7A
Copy CRC 1EF36D7A
Track not present in AccurateRip database
Copy OK

Track 5

Filename C:\EAC\Asa - Beautiful Imperfections (2010) - FLAC\05 - Bimpé.wav

Pre-gap length 0:00:01.73

Peak level 97.6 %
Track quality 100.0 %
Test CRC FFD6FB13
Copy CRC FFD6FB13
Track not present in AccurateRip database
Copy OK

Track 6

Filename C:\EAC\Asa - Beautiful Imperfections (2010) - FLAC\06 - The Way I Feel.wav

Pre-gap length 0:00:03.60

Peak level 99.9 %
Track quality 100.0 %
Test CRC A36E4797
Copy CRC A36E4797
Track not present in AccurateRip database
Copy OK

Track 7

Filename C:\EAC\Asa - Beautiful Imperfections (2010) - FLAC\07 - OK OK.wav

Pre-gap length 0:00:02.40

Peak level 99.9 %
Track quality 100.0 %
Test CRC B9B86FEA
Copy CRC B9B86FEA
Track not present in AccurateRip database
Copy OK

Track 8

Filename C:\EAC\Asa - Beautiful Imperfections (2010) - FLAC\08 - Dreamer Girl.wav

Pre-gap length 0:00:04.34

Peak level 99.9 %
Track quality 100.0 %
Test CRC 29CBC00E
Copy CRC 29CBC00E
Track not present in AccurateRip database
Copy OK

Track 9

Filename C:\EAC\Asa - Beautiful Imperfections (2010) - FLAC\09 - Oré.wav

Pre-gap length 0:00:02.45

Peak level 99.9 %
Track quality 100.0 %
Test CRC 54047639
Copy CRC 54047639
Track not present in AccurateRip database
Copy OK

Track 10

Filename C:\EAC\Asa - Beautiful Imperfections (2010) - FLAC\10 - Baby Gone.wav

Pre-gap length 0:00:04.33

Peak level 99.9 %
Track quality 100.0 %
Test CRC DDAED6E9
Copy CRC DDAED6E9
Track not present in AccurateRip database
Copy OK

Track 11

Filename C:\EAC\Asa - Beautiful Imperfections (2010) - FLAC\11 - Broda Olé.wav

Pre-gap length 0:00:01.50

Peak level 99.9 %
Track quality 100.0 %
Test CRC D5FD3F9C
Copy CRC D5FD3F9C
Track not present in AccurateRip database
Copy OK

Track 12

Filename C:\EAC\Asa - Beautiful Imperfections (2010) - FLAC\12 - Questions.wav

Pre-gap length 0:00:03.36

Peak level 99.9 %
Track quality 100.0 %
Test CRC B2EA4F22
Copy CRC B2EA4F22
Track not present in AccurateRip database
Copy OK


None of the tracks are present in the AccurateRip database

No errors occurred

End of status report


Asa blossomed on the international stage in 2007 with a self-titled soul-pop LP, highlighted by soon-to-become anthems "Jailer" and "Fire on the Mountain". An extended worldwide tour and 300 000 records later, the Nigerian artist is back with an album aiming straight to the heart: "Beautiful Imperfection". Sticking to her faithful values, Asa assembled the entourage she has worked with since her recording debuts. While new texts make room to a surprising and genuine display of inner emotions, Asa has intensely sharpened her musical tone as in infectious single "Be my man" rooted at the very core of trademark Stax and Motown productions. Asa is featuring Tiken Jah Fakoly on " Political war" song from his new album out September 20th. "Be my man" will be the first taster to "Beautiful Imperfection"

Download FREE


NO Mirror Please!