Subcategories

A Spell Inside - Discography (1995–2009)

Posted By: Notsaint
A Spell Inside - Discography (1995–2009)

A Spell Inside - Discography (1995–2009)
FLAC log+image+.cue | Total time : ~ 07:30:00 | 3.2Gb
Genre : Synth Pop

A Spell Inside was founded in 1989 by Michael Roeder (vocals, programming) and Peter Kirchmeyer (synths, samples). After some funny sessions the whole thing became bigger and bigger and one year later Klaus Rodewig joined the band as a guitar-player. A Spell Inside was born.

A Spell Inside - Visions From The Inside (1995)
Duration: 48:32.05 | Label: Phoenix (#PX001CD) | 350Mb | covers

A Spell Inside - Discography (1995–2009)

Tracklist
01. Intro [1:08]
02. Boundary [4:58]
03. Below Zero [5:02]
04. Days Of The Grace [5:34]
05. Metamorphosis [0:35]
06. Call Of The Slaves [5:09]
07. Sinnbild [5:06]
08. Rosen [4:15]
09. Tell Me [4:35]
10. The Victim [3:50]
11. Compromises [4:30]
12. White Cold [3:48]

Exact Audio Copy V0.99 prebeta 5 from 4. May 2009

Отчёт EAC об извлечении, выполненном 13. февраля 2010, 12:23

A Spell Inside / Visions From The Inside

Дисковод: Optiarc DVD RW AD-7173A Adapter: 0 ID: 0

Режим чтения : Достоверность
Использование точного потока : Да
Отключение кэша аудио : Да
Использование указателей C2 : Нет

Коррекция смещения при чтении : 48
Способность читать области Lead-in и Lead-out : Нет
Заполнение пропущенных сэмплов тишиной : Да
Удаление блоков с тишиной в начале и конце : Нет
При вычислениях CRC использовались нулевые сэмплы : Да
Интерфейс : Установленный внешний ASPI-интерфейс

Выходной формат : Пользовательский кодировщик
Выбранный битрейт : 1024 kBit/s
Качество : Высокий
Добавление ID3-тэга : Нет
Утилита сжатия : C:\Program Files\Exact Audio Copy\Flac\flac.exe
Дополнительные параметры : -6 -V -T "ARTIST=%a" -T "TITLE=%t" -T "ALBUM=%g" -T "DATE=%y" -T "TRACKNUMBER=%n" -T "GENRE=%m" -T "COMMENT=%e" %s -o %d

TOC извлечённого CD

Трек | Старт | Длительность | Начальный сектор | Конечный сектор
––––––––––––––––––––––––––––––––––-
1 | 0:00.30 | 1:08.02 | 30 | 5131
2 | 1:08.32 | 4:58.28 | 5132 | 27509
3 | 6:06.60 | 5:02.30 | 27510 | 50189
4 | 11:09.15 | 5:33.43 | 50190 | 75207
5 | 16:42.58 | 0:35.11 | 75208 | 77843
6 | 17:17.69 | 5:09.16 | 77844 | 101034
7 | 22:27.10 | 5:06.06 | 101035 | 123990
8 | 27:33.16 | 4:15.35 | 123991 | 143150
9 | 31:48.51 | 4:35.18 | 143151 | 163793
10 | 36:23.69 | 3:50.30 | 163794 | 181073
11 | 40:14.24 | 4:30.34 | 181074 | 201357
12 | 44:44.58 | 3:47.52 | 201358 | 218434

Характеристики диапазона извлечения и сообщения об ошибках

Выбранный диапазон

Имя файла H:\СКАЧКА\FLAC\1 TORRENT\A Spell Inside - Visions From The Inside.wav

Пиковый уровень 98.3 %
Качество диапазона 100.0 %
CRC теста 6CF04621
CRC копии 6CF04621
Копирование… OK

Ошибок не произошло

AccurateRip: сводка

Трек 1 точное извлечение (доверие 1) [66033E97]
Трек 2 точное извлечение (доверие 1) [0975DE7D]
Трек 3 точное извлечение (доверие 1) [9D164756]
Трек 4 точное извлечение (доверие 1) [2D945BC3]
Трек 5 точное извлечение (доверие 1) [1042CD27]
Трек 6 точное извлечение (доверие 1) [6C75A62B]
Трек 7 точное извлечение (доверие 1) [726F0C5D]
Трек 8 точное извлечение (доверие 1) [38009B7B]
Трек 9 точное извлечение (доверие 1) [AB462EA1]
Трек 10 точное извлечение (доверие 1) [38FFCB57]
Трек 11 точное извлечение (доверие 1) [C86248CF]
Трек 12 точное извлечение (доверие 1) [E3E9796F]

Все треки извлечены точно

Конец отчёта


**********


A Spell Inside - Return To Grey [EP] (1995)
Duration: 27:00.35 | Labbel: Discordia (#LC-7802) | 165Mb | covers

A Spell Inside - Discography (1995–2009)

Tracklist
1. We Turn To Grey [04:04.00]
2. Altitude Zero [05:16.27]
3. Fire [04:19.05]
4. The Horizon [04:29.28]
5. Down In The Valleys [03:59.47]
6. Master [04:52.03]

Exact Audio Copy V0.99 prebeta 4 from 23. January 2008

Отчёт EAC об извлечении, выполненном 18. декабря 2008, 9:28

A Spell Inside / Return To Grey [EP]

Дисковод: Optiarc DVD RW AD-7173A Adapter: 0 ID: 0

Режим чтения : Достоверность
Использование точного потока : Да
Отключение кэша аудио : Да
Использование указателей C2 : Нет

Коррекция смещения при чтении : 48
Способность читать области Lead-in и Lead-out : Нет
Заполнение пропущенных сэмплов тишиной : Да
Удаление блоков с тишиной в начале и конце : Нет
При вычислениях CRC использовались нулевые сэмплы : Да
Интерфейс : Встроенный Win32-интерфейс для Win NT/2000

Выходной формат : Пользовательский кодировщик
Выбранный битрейт : 1024 kBit/s
Качество : Высокий
Добавление ID3-тэга : Нет
Утилита сжатия : C:\Program Files\Exact Audio Copy\Flac\flac.exe
Дополнительные параметры : -6 -V -T "ARTIST=%a" -T "TITLE=%t" -T "ALBUM=%g" -T "DATE=%y" -T "TRACKNUMBER=%n" -T "GENRE=%m" -T "COMMENT=%e" %s -o %d

TOC извлечённого CD

Трек | Старт | Длительность | Начальный сектор | Конечный сектор
––––––––––––––––––––––––––––––––––-
1 | 0:00.00 | 4:04.00 | 0 | 18299
2 | 4:04.00 | 5:16.27 | 18300 | 42026
3 | 9:20.27 | 4:19.05 | 42027 | 61456
4 | 13:39.32 | 4:29.28 | 61457 | 81659
5 | 18:08.60 | 3:59.47 | 81660 | 99631
6 | 22:08.32 | 4:52.03 | 99632 | 121534

Характеристики диапазона извлечения и сообщения об ошибках

Выбранный диапазон

Имя файла G:\СКАЧКА\FLAC\A Spell Inside - Return To Grey [EP].wav

Пиковый уровень 100.0 %
Качество диапазона 99.9 %
CRC теста 58439C7B
CRC копии 58439C7B
Копирование… OK

Ошибок не произошло

AccurateRip: сводка

Трек 1 нет в базе данных
Трек 2 нет в базе данных
Трек 3 нет в базе данных
Трек 4 нет в базе данных
Трек 5 нет в базе данных
Трек 6 нет в базе данных

Ни одного трека нет в базе AccurateRip

Конец отчёта


**********


A Spell Inside - Brothers [Single] (1997)
Label: Discordia (#PX005CD) | Duration: 20:45.00 | 155Mb | covers

A Spell Inside - Discography (1995–2009)

Tracklist
1. Brothers [4:50]
2. Sinnbild '97 [5:36]
3. Signs Of Greed [5:31]
4. Brotherhood [4:48]

Exact Audio Copy V0.99 prebeta 5 from 4. May 2009

Отчёт EAC об извлечении, выполненном 15. июля 2010, 8:43

A Spell Inside / Brothers [Single]

Дисковод: Optiarc DVD RW AD-7173A Adapter: 0 ID: 0

Режим чтения : Достоверность
Использование точного потока : Да
Отключение кэша аудио : Да
Использование указателей C2 : Нет

Коррекция смещения при чтении : 48
Способность читать области Lead-in и Lead-out : Нет
Заполнение пропущенных сэмплов тишиной : Да
Удаление блоков с тишиной в начале и конце : Нет
При вычислениях CRC использовались нулевые сэмплы : Да
Интерфейс : Установленный внешний ASPI-интерфейс

Выходной формат : Пользовательский кодировщик
Выбранный битрейт : 1024 kBit/s
Качество : Высокий
Добавление ID3-тэга : Нет
Утилита сжатия : C:\Program Files\Exact Audio Copy\flac.exe
Дополнительные параметры : -6 -V -T "ARTIST=%a" -T "TITLE=%t" -T "ALBUM=%g" -T "DATE=%y" -T "TRACKNUMBER=%n" -T "GENRE=%m" -T "COMMENT=%e" %s -o %d

TOC извлечённого CD

Трек | Старт | Длительность | Начальный сектор | Конечный сектор
––––––––––––––––––––––––––––––––––-
1 | 0:00.00 | 4:50.00 | 0 | 21749
2 | 4:50.00 | 5:36.00 | 21750 | 46949
3 | 10:26.00 | 5:31.00 | 46950 | 71774
4 | 15:57.00 | 4:48.00 | 71775 | 93374

Характеристики диапазона извлечения и сообщения об ошибках

Выбранный диапазон

Имя файла H:\СКАЧКА\FLAC\1 TORRENT\A Spell Inside - Brothers [Single].wav

Пиковый уровень 100.0 %
Качество диапазона 99.9 %
CRC теста F0AFA758
CRC копии F0AFA758
Копирование… OK

Ошибок не произошло

AccurateRip: сводка

Трек 1 точное извлечение (доверие 1) [B2B922B5]
Трек 2 точное извлечение (доверие 1) [D6FB260F]
Трек 3 точное извлечение (доверие 1) [70779B48]
Трек 4 точное извлечение (доверие 1) [FBD4AEB3]

Все треки извлечены точно

Конец отчёта


**********


A Spell Inside - Stories From The Inside (2000)
Duration: 52:50.68 + 1:05:16.47 | Label: Triton (#033CD) | 860Mb

A Spell Inside - Discography (1995–2009)

Tracklist
CD 1
1. Träume [05:08.42]
2. Brothers [04:49.59]
3. Sinnbild 97 [05:35.30]
4. Signs Of Greed [05:30.09]
5. Brotherhood [04:50.00]
6. We Turn To Grey [04:02.29]
7. Altitude Zero [05:15.35]
8. Fire [04:18.14]
9. The Horizon [04:29.35]
10. Down In The Valleys [03:59.07]
11. Master [04:52.33]

CD 2
1. Intro [01:07.61]
2. Boundary [04:59.53]
3. Below Zero [05:02.34]
4. Days Of The Grace [05:33.31]
5. Metamorphosis [00:34.07]
6. Call Of The Slaves [05:09.36]
7. Sinnbild [05:06.45]
8. Rosen [04:16.62]
9. Tell Me [04:35.04]
10. The Victim [03:50.40]
11. Compromises [04:31.36]
12. White Cold [03:47.40]
Bonus
13. Rosen (Cleaner mix) [04:15.67]
14. Marian [05:21.68]
15. We Turn To Grey (Radio Edit) [03:08.15]
16. White Cold (Guitar mix) [03:55.48]

EAC log Disc 1
Exact Audio Copy V0.99 prebeta 4 from 23. January 2008

Отчёт EAC об извлечении, выполненном 16. ноября 2008, 15:57

A Spell Inside / Stories From The Inside (Disc 1)

Дисковод: Optiarc DVD RW AD-7173A Adapter: 0 ID: 0

Режим чтения : Достоверность
Использование точного потока : Да
Отключение кэша аудио : Да
Использование указателей C2 : Нет

Коррекция смещения при чтении : 48
Способность читать области Lead-in и Lead-out : Нет
Заполнение пропущенных сэмплов тишиной : Да
Удаление блоков с тишиной в начале и конце : Нет
При вычислениях CRC использовались нулевые сэмплы : Да
Интерфейс : Встроенный Win32-интерфейс для Win NT/2000

Выходной формат : Пользовательский кодировщик
Выбранный битрейт : 1024 kBit/s
Качество : Высокий
Добавление ID3-тэга : Нет
Утилита сжатия : C:\Program Files\Exact Audio Copy\Flac\flac.exe
Дополнительные параметры : -6 -V -T "ARTIST=%a" -T "TITLE=%t" -T "ALBUM=%g" -T "DATE=%y" -T "TRACKNUMBER=%n" -T "GENRE=%m" -T "COMMENT=%e" %s -o %d

TOC извлечённого CD

Трек | Старт | Длительность | Начальный сектор | Конечный сектор
––––––––––––––––––––––––––––––––––-
1 | 0:00.00 | 5:08.42 | 0 | 23141
2 | 5:08.42 | 4:49.59 | 23142 | 44875
3 | 9:58.26 | 5:35.30 | 44876 | 70030
4 | 15:33.56 | 5:30.09 | 70031 | 94789
5 | 21:03.65 | 4:50.00 | 94790 | 116539
6 | 25:53.65 | 4:02.29 | 116540 | 134718
7 | 29:56.19 | 5:15.35 | 134719 | 158378
8 | 35:11.54 | 4:18.14 | 158379 | 177742
9 | 39:29.68 | 4:29.35 | 177743 | 197952
10 | 43:59.28 | 3:59.07 | 197953 | 215884
11 | 47:58.35 | 4:52.33 | 215885 | 237817

Характеристики диапазона извлечения и сообщения об ошибках

Выбранный диапазон

Имя файла G:\СКАЧКА\FLAC\A Spell Inside - Stories From The Inside (Disc 1).wav

Пиковый уровень 100.0 %
Качество диапазона 99.9 %
CRC теста 04703DBA
CRC копии 04703DBA
Копирование… OK

Ошибок не произошло

Конец отчёта
[свернуть]
EAC log Disc 2
Exact Audio Copy V0.99 prebeta 4 from 23. January 2008

Отчёт EAC об извлечении, выполненном 16. ноября 2008, 16:31

A Spell Inside / Stories from The Inside (Disc 2)

Дисковод: Optiarc DVD RW AD-7173A Adapter: 0 ID: 0

Режим чтения : Достоверность
Использование точного потока : Да
Отключение кэша аудио : Да
Использование указателей C2 : Нет

Коррекция смещения при чтении : 48
Способность читать области Lead-in и Lead-out : Нет
Заполнение пропущенных сэмплов тишиной : Да
Удаление блоков с тишиной в начале и конце : Нет
При вычислениях CRC использовались нулевые сэмплы : Да
Интерфейс : Встроенный Win32-интерфейс для Win NT/2000

Выходной формат : Пользовательский кодировщик
Выбранный битрейт : 1024 kBit/s
Качество : Высокий
Добавление ID3-тэга : Нет
Утилита сжатия : C:\Program Files\Exact Audio Copy\Flac\flac.exe
Дополнительные параметры : -6 -V -T "ARTIST=%a" -T "TITLE=%t" -T "ALBUM=%g" -T "DATE=%y" -T "TRACKNUMBER=%n" -T "GENRE=%m" -T "COMMENT=%e" %s -o %d

TOC извлечённого CD

Трек | Старт | Длительность | Начальный сектор | Конечный сектор
––––––––––––––––––––––––––––––––––-
1 | 0:00.00 | 1:07.61 | 0 | 5085
2 | 1:07.61 | 4:59.53 | 5086 | 27563
3 | 6:07.39 | 5:02.34 | 27564 | 50247
4 | 11:09.73 | 5:33.31 | 50248 | 75253
5 | 16:43.29 | 0:34.07 | 75254 | 77810
6 | 17:17.36 | 5:09.36 | 77811 | 101021
7 | 22:26.72 | 5:06.45 | 101022 | 124016
8 | 27:33.42 | 4:16.62 | 124017 | 143278
9 | 31:50.29 | 4:35.04 | 143279 | 163907
10 | 36:25.33 | 3:50.40 | 163908 | 181197
11 | 40:15.73 | 4:31.36 | 181198 | 201558
12 | 44:47.34 | 3:47.40 | 201559 | 218623
13 | 48:34.74 | 4:15.67 | 218624 | 237815
14 | 52:50.66 | 5:21.68 | 237816 | 261958
15 | 58:12.59 | 3:08.15 | 261959 | 276073
16 | 61:20.74 | 3:55.48 | 276074 | 293746

Характеристики диапазона извлечения и сообщения об ошибках

Выбранный диапазон

Имя файла G:\СКАЧКА\FLAC\A Spell Inside - Stories from The Inside (Disc 2).wav

Пиковый уровень 99.1 %
Качество диапазона 100.0 %
CRC теста 855D0CAF
CRC копии 855D0CAF
Копирование… OK

Ошибок не произошло

Конец отчёта


**********


A Spell Inside - Hit (2002)
Duration: 52:15.52 | Label: Triton | 375Mb | covers

A Spell Inside - Discography (1995–2009)

Tracklist
01. Out Of Control [4:52]
02. Seconds [4:00]
03. Horizon [5:04]
04. The River [4:44]
05. 2nd Invasion [4:04]
06. Crags [4:10]
07. Change Of Heart [4:25]
08. Menschen [3:10]
09. Revenge [4:46]
10. Oneway [4:54]
11. Deep Silver [3:22]
12. Rage [4:45]

***********


A Spell Inside - Vitalizer (2004)
Duration: 57:29.05 | Label: Scanner (#SCAN 028) | 425Mb | covers

A Spell Inside - Discography (1995–2009)

Tracklist
01. Oxygen I.O [3:40]
02. Naked [4:56]
03. Pressure [5:58]
04. One Dream [4:08]
05. Fields [3:43]
06. 25th Hour [3:45]
07. Invalid [4:22]
08. Believe [4:01]
09. Let Go [5:13]
10. Regret (Here Comes The Rain) [4:00]
11. These Days [3:54]
12. Resist [5:28]
13. What If [4:21]

Exact Audio Copy V0.99 prebeta 5 from 4. May 2009

Отчёт EAC об извлечении, выполненном 22. октября 2010, 14:22

A Spell Inside / Vitalizer

Дисковод: Optiarc DVD RW AD-7173A Adapter: 0 ID: 0

Режим чтения : Достоверность
Использование точного потока : Да
Отключение кэша аудио : Да
Использование указателей C2 : Нет

Коррекция смещения при чтении : 48
Способность читать области Lead-in и Lead-out : Нет
Заполнение пропущенных сэмплов тишиной : Да
Удаление блоков с тишиной в начале и конце : Нет
При вычислениях CRC использовались нулевые сэмплы : Да
Интерфейс : Установленный внешний ASPI-интерфейс

Выходной формат : Пользовательский кодировщик
Выбранный битрейт : 1024 kBit/s
Качество : Высокий
Добавление ID3-тэга : Нет
Утилита сжатия : C:\Program Files\Exact Audio Copy\flac.exe
Дополнительные параметры : -6 -V -T "ARTIST=%a" -T "TITLE=%t" -T "ALBUM=%g" -T "DATE=%y" -T "TRACKNUMBER=%n" -T "GENRE=%m" -T "COMMENT=%e" %s -o %d

TOC извлечённого CD

Трек | Старт | Длительность | Начальный сектор | Конечный сектор
––––––––––––––––––––––––––––––––––-
1 | 0:00.00 | 3:40.14 | 0 | 16513
2 | 3:40.14 | 4:55.59 | 16514 | 38697
3 | 8:35.73 | 5:57.48 | 38698 | 65520
4 | 14:33.46 | 4:08.24 | 65521 | 84144
5 | 18:41.70 | 3:43.28 | 84145 | 100897
6 | 22:25.23 | 3:44.61 | 100898 | 117758
7 | 26:10.09 | 4:21.69 | 117759 | 137402
8 | 30:32.03 | 4:01.01 | 137403 | 155478
9 | 34:33.04 | 5:12.43 | 155479 | 178921
10 | 39:45.47 | 4:00.06 | 178922 | 196927
11 | 43:45.53 | 3:54.36 | 196928 | 214513
12 | 47:40.14 | 5:28.20 | 214514 | 239133
13 | 53:08.34 | 4:20.46 | 239134 | 258679

Характеристики диапазона извлечения и сообщения об ошибках

Выбранный диапазон

Имя файла H:\СКАЧКА\FLAC\A Spell Inside 2004-Vitalizer (synth pop) [flac]\new1\A Spell Inside - Vitalizer.wav

Пиковый уровень 98.8 %
Качество диапазона 99.9 %
CRC теста B5E4CDA9
CRC копии B5E4CDA9
Копирование… OK

Ошибок не произошло

AccurateRip: сводка

Трек 1 точное извлечение (доверие 4) [BAB114A2]
Трек 2 точное извлечение (доверие 4) [0C809193]
Трек 3 точное извлечение (доверие 4) [5B3A8417]
Трек 4 точное извлечение (доверие 4) [38D3C360]
Трек 5 точное извлечение (доверие 4) [E0BB4B5B]
Трек 6 точное извлечение (доверие 4) [4F9FC24C]
Трек 7 точное извлечение (доверие 4) [452F935A]
Трек 8 точное извлечение (доверие 4) [B32F64CD]
Трек 9 точное извлечение (доверие 4) [6591DF9D]
Трек 10 точное извлечение (доверие 4) [B9FD7535]
Трек 11 точное извлечение (доверие 4) [D70BB035]
Трек 12 точное извлечение (доверие 4) [61B0ED23]
Трек 13 точное извлечение (доверие 4) [CD706493]

Все треки извлечены точно

Конец отчёта


**********


A Spell Inside - Essential (2008)
Label: Scanner (#SCAN078) | Duration: 1:15:14.43 | 539Mb | covers

A Spell Inside - Discography (1995–2009)

Tracklist
1. Out Of Control [04:54.13]
2. Oneway [04:55.61]
3. Crags [04:11.61]
4. Brothers [04:52.00]
5. Sinnbild '97 [05:38.00]
6. Signs Of Greed [05:33.00]
7. Boundary [05:00.28]
8. Days Of The Grace [05:35.43]
9. Träume [05:10.42]
10. Naked [04:57.59]
11. Resist [05:30.20]
12. Oxygen 2.1 [04:24.00]
13. Believe (Believer mix) [04:54.02]
14. Keener [05:20.62]
15. I Will [04:16.27]

Exact Audio Copy V0.99 prebeta 4 from 23. January 2008

Отчёт EAC об извлечении, выполненном 24. ноября 2008, 19:05

A Spell Inside / Essential

Дисковод: Optiarc DVD RW AD-7173A Adapter: 0 ID: 0

Режим чтения : Достоверность
Использование точного потока : Да
Отключение кэша аудио : Да
Использование указателей C2 : Нет

Коррекция смещения при чтении : 48
Способность читать области Lead-in и Lead-out : Нет
Заполнение пропущенных сэмплов тишиной : Да
Удаление блоков с тишиной в начале и конце : Нет
При вычислениях CRC использовались нулевые сэмплы : Да
Интерфейс : Встроенный Win32-интерфейс для Win NT/2000

Выходной формат : Пользовательский кодировщик
Выбранный битрейт : 1024 kBit/s
Качество : Высокий
Добавление ID3-тэга : Нет
Утилита сжатия : C:\Program Files\Exact Audio Copy\Flac\flac.exe
Дополнительные параметры : -6 -V -T "ARTIST=%a" -T "TITLE=%t" -T "ALBUM=%g" -T "DATE=%y" -T "TRACKNUMBER=%n" -T "GENRE=%m" -T "COMMENT=%e" %s -o %d

TOC извлечённого CD

Трек | Старт | Длительность | Начальный сектор | Конечный сектор
––––––––––––––––––––––––––––––––––-
1 | 0:00.00 | 4:54.13 | 0 | 22062
2 | 4:54.13 | 4:55.61 | 22063 | 44248
3 | 9:49.74 | 4:11.61 | 44249 | 63134
4 | 14:01.60 | 4:52.00 | 63135 | 85034
5 | 18:53.60 | 5:38.00 | 85035 | 110384
6 | 24:31.60 | 5:33.00 | 110385 | 135359
7 | 30:04.60 | 5:00.28 | 135360 | 157887
8 | 35:05.13 | 5:35.43 | 157888 | 183055
9 | 40:40.56 | 5:10.42 | 183056 | 206347
10 | 45:51.23 | 4:57.59 | 206348 | 228681
11 | 50:49.07 | 5:30.20 | 228682 | 253451
12 | 56:19.27 | 4:24.00 | 253452 | 273251
13 | 60:43.27 | 4:54.02 | 273252 | 295303
14 | 65:37.29 | 5:20.62 | 295304 | 319365
15 | 70:58.16 | 4:16.27 | 319366 | 338592

Характеристики диапазона извлечения и сообщения об ошибках

Выбранный диапазон

Имя файла G:\СКАЧКА\FLAC\A Spell Inside - Essential.wav

Пиковый уровень 100.0 %
Качество диапазона 100.0 %
CRC теста 09206A30
CRC копии 09206A30
Копирование… OK

Ошибок не произошло

Конец отчёта


**********


A Spell Inside - Loginside (2009)
Duration: 57:31.02 | Label: Scanner (#SCAN075) | 430Mb | covers

A Spell Inside - Discography (1995–2009)

Tracklist
01. Keener [5:34]
02. Reveal [4:29]
03. Stärke 10 [4:56]
04. Your Eyes [4:44]
05. Secrets [5:14]
06. Reality [4:55]
07. Waiting [5:00]
08. Not Enough [3:55]
09. I will [4:18]
10. Chase [4:10]
11. Here To Stay [4:42]
12. Someone (Is Waiting) [5:34]

Exact Audio Copy V0.99 prebeta 4 from 23. January 2008

EAC extraction logfile from 4. July 2009, 12:13

A Spell Inside / Loginside

Used drive : Optiarc DVD RW AD-7173A Adapter: 0 ID: 0

Read mode : Secure
Utilize accurate stream : Yes
Defeat audio cache : Yes
Make use of C2 pointers : No

Read offset correction : 48
Overread into Lead-In and Lead-Out : No
Fill up missing offset samples with silence : Yes
Delete leading and trailing silent blocks : No
Null samples used in CRC calculations : Yes
Used interface : Native Win32 interface for Win NT & 2000

Used output format : User Defined Encoder
Selected bitrate : 1024 kBit/s
Quality : High
Add ID3 tag : No
Command line compressor : C:\Program Files\Exact Audio Copy\Flac\flac.exe
Additional command line options : -6 -V -T "ARTIST=%a" -T "TITLE=%t" -T "ALBUM=%g" -T "DATE=%y" -T "TRACKNUMBER=%n" -T "GENRE=%m" -T "COMMENT=%e" %s -o %d

TOC of the extracted CD

Track | Start | Length | Start sector | End sector
––––––––––––––––––––––––––––-
1 | 0:00.00 | 5:33.55 | 0 | 25029
2 | 5:33.55 | 4:28.57 | 25030 | 45186
3 | 10:02.37 | 4:56.14 | 45187 | 67400
4 | 14:58.51 | 4:44.00 | 67401 | 88700
5 | 19:42.51 | 5:14.00 | 88701 | 112250
6 | 24:56.51 | 4:54.74 | 112251 | 134374
7 | 29:51.50 | 5:00.27 | 134375 | 156901
8 | 34:52.02 | 3:55.00 | 156902 | 174526
9 | 38:47.02 | 4:18.00 | 174527 | 193876
10 | 43:05.02 | 4:10.00 | 193877 | 212626
11 | 47:15.02 | 4:42.00 | 212627 | 233776
12 | 51:57.02 | 5:34.00 | 233777 | 258826

Range status and errors

Selected range

Filename G:\СКАЧКА\FLAC\A Spell Inside - Loginside.wav

Peak level 97.1 %
Range quality 99.9 %
Test CRC 2A2C2DD2
Copy CRC 2A2C2DD2
Copy OK

No errors occurred

AccurateRip summary

Track 1 not present in database
Track 2 not present in database
Track 3 not present in database
Track 4 not present in database
Track 5 not present in database
Track 6 not present in database
Track 7 not present in database
Track 8 not present in database
Track 9 not present in database
Track 10 not present in database
Track 11 not present in database
Track 12 not present in database

None of the tracks are present in the AccurateRip database

End of status report



Thanks for original uploaders !

password asi & 3% restorte in all archives