Subcategories
Tags
Language
Tags

Atrium Musicae de Madrid - Musique de la Grèce Antique [Harmonia Mundi HMA 1901015] {France 2000, 1979}

Posted By: luckburz
Atrium Musicae de Madrid - Musique de la Grèce Antique [Harmonia Mundi HMA 1901015] {France 2000, 1979}

Atrium Musicae de Madrid - Musique de la Grèce Antique / Music Of Ancient Greece
FLAC, EAC, LOG & CUE | Full Artwork | Size: 241 MB + Recovery Info & PAR2
Label/Cat#: Harmonia Mundi HMA 1901015 | Country/Year: France 2000, 1979 (ReIssue)
Genre: Old Music, Classical | Hoster: Filepost/Filefactory

MD5 [X] CUE [X] LOG [X] INFO TEXT [X] ARTWORK [X]

webfind [] selfrip [X]

Atrium Musicae de Madrid - Musique de la Grèce Antique [Harmonia Mundi HMA 1901015] {France 2000, 1979}



Exact Audio Copy V1.0 beta 2 from 29. April 2011

EAC extraction logfile from 16. May 2012, 18:07

Atrium Musicae de Madrid - Gregorio Paniagua / Musique de la Grèce Antique

Used drive : PIONEER BD-RW BDR-206 Adapter: 2 ID: 3

Read mode : Secure
Utilize accurate stream : Yes
Defeat audio cache : Yes
Make use of C2 pointers : No

Read offset correction : 667
Overread into Lead-In and Lead-Out : No
Fill up missing offset samples with silence : Yes
Delete leading and trailing silent blocks : No
Null samples used in CRC calculations : Yes
Used interface : Native Win32 interface for Win NT & 2000

Used output format : User Defined Encoder
Selected bitrate : 896 kBit/s
Quality : High
Add ID3 tag : No
Command line compressor : C:\Program Files\FLAC\flac.exe
Additional command line options : -5 -T "Artist=%artist%" -T "Title=%title%" -T "Album=%albumtitle%" -T "Date=%year%" -T "Tracknumber=%tracknr%" -T "Genre=%genre%" %source% -o %dest%


TOC of the extracted CD

Track | Start | Length | Start sector | End sector
––––––––––––––––––––––––––––-
1 | 0:00.32 | 3:06.50 | 32 | 14031
2 | 3:07.07 | 1:01.50 | 14032 | 18656
3 | 4:08.57 | 4:54.25 | 18657 | 40731
4 | 9:03.07 | 1:17.43 | 40732 | 46549
5 | 10:20.50 | 5:00.45 | 46550 | 69094
6 | 15:21.20 | 1:57.45 | 69095 | 77914
7 | 17:18.65 | 1:00.05 | 77915 | 82419
8 | 18:18.70 | 1:37.50 | 82420 | 89744
9 | 19:56.45 | 4:07.50 | 89745 | 108319
10 | 24:04.20 | 1:27.50 | 108320 | 114894
11 | 25:31.70 | 1:53.50 | 114895 | 123419
12 | 27:25.45 | 1:48.37 | 123420 | 131556
13 | 29:14.07 | 4:13.00 | 131557 | 150531
14 | 33:27.07 | 1:35.00 | 150532 | 157656
15 | 35:02.07 | 1:12.13 | 157657 | 163069
16 | 36:14.20 | 1:31.62 | 163070 | 169956
17 | 37:46.07 | 0:30.00 | 169957 | 172206
18 | 38:16.07 | 0:51.05 | 172207 | 176036
19 | 39:07.12 | 0:27.08 | 176037 | 178069
20 | 39:34.20 | 0:39.32 | 178070 | 181026
21 | 40:13.52 | 7:14.60 | 181027 | 213636
22 | 47:28.37 | 5:06.20 | 213637 | 236606


Range status and errors

Selected range

Filename I:\=== VINYL RIPS ===\=== EAC===\X FRESH RIP\Atrium Musicae de Madrid - Gregorio Paniagua - Musique de la Grèce Antique.wav

Peak level 100.0 %
Extraction speed 7.3 X
Range quality 100.0 %
Test CRC C40DA039
Copy CRC C40DA039
Copy OK

No errors occurred


AccurateRip summary

Track 1 accurately ripped (confidence 2) [152A318E] (AR v2)
Track 2 accurately ripped (confidence 2) [BD6FFB30] (AR v2)
Track 3 accurately ripped (confidence 2) [E4921362] (AR v2)
Track 4 accurately ripped (confidence 2) [7064DAD1] (AR v2)
Track 5 accurately ripped (confidence 2) [B7398C5A] (AR v2)
Track 6 accurately ripped (confidence 2) [6221772B] (AR v2)
Track 7 accurately ripped (confidence 2) [8F048417] (AR v2)
Track 8 accurately ripped (confidence 2) [B6E2D3B7] (AR v2)
Track 9 accurately ripped (confidence 2) [3E90FDA3] (AR v2)
Track 10 accurately ripped (confidence 2) [2F5FC69B] (AR v2)
Track 11 accurately ripped (confidence 2) [064B5FDB] (AR v2)
Track 12 accurately ripped (confidence 2) [1DA35CB7] (AR v2)
Track 13 accurately ripped (confidence 2) [6AAA09A1] (AR v2)
Track 14 accurately ripped (confidence 2) [9FB21971] (AR v2)
Track 15 accurately ripped (confidence 2) [B032DE9D] (AR v2)
Track 16 accurately ripped (confidence 2) [E7347396] (AR v2)
Track 17 accurately ripped (confidence 2) [41131966] (AR v2)
Track 18 accurately ripped (confidence 2) [1C157825] (AR v2)
Track 19 accurately ripped (confidence 2) [8E851A6A] (AR v2)
Track 20 accurately ripped (confidence 2) [45F6CFBB] (AR v2)
Track 21 accurately ripped (confidence 2) [5E973AB5] (AR v2)
Track 22 accurately ripped (confidence 2) [953D150C] (AR v2)

All tracks accurately ripped

End of status report

==== Log checksum A11E3FBA4DF7D171D83F1AE6A893F3323A598E4315ED6FA5702323A53B12BCB3 ====


foobar2000 1.1.7 / Dynamic Range Meter 1.1.1
log date: 2012-05-23 13:42:24

––––––––––––––––––––––––––––––––––––––––
Analyzed: Atrium Musicae de Madrid - Gregorio Paniagua / Musique de la Grèce Antique
––––––––––––––––––––––––––––––––––––––––

DR Peak RMS Duration Track
––––––––––––––––––––––––––––––––––––––––
DR16 -2.25 dB -23.27 dB 3:07 01-Anakrousis (Gregorio Panagua)
DR18 -7.82 dB -32.94 dB 1:02 02-Orestes Stasimo - Fragments instrumentaux de Contrapollinopolis
DR13 0.00 dB -19.79 dB 4:54 03-1er Hymne Delphique à Apollon (compositeur Athénien)
DR9 -9.27 dB -24.98 dB 1:18 04-Flainte de Tecmessa
DR21 -1.79 dB -29.63 dB 5:01 05-Papyrus Wien 29825 - Papyrus Wien G 13763-1494
DR15 -2.59 dB -22.44 dB 1:58 06-Hymne au Soleil
DR13 -11.36 dB -31.01 dB 1:00 07-Hymne à la Muse (Mésomède de Crète)
DR18 -1.62 dB -20.56 dB 1:38 08-Hymne à Némésis
DR19 0.00 dB -25.11 dB 4:08 09-Papyrus Michigan
DR16 -0.21 dB -24.30 dB 1:28 10-Aenaoi Nefelai (Aristophane)
DR13 -16.62 dB -35.08 dB 1:54 11-Epitaphe de Seikilos (Seikilos, fils d'Euterpe)
DR16 -0.47 dB -20.90 dB 1:48 12-Pean. Papyrus Berlin 6870
DR14 -7.46 dB -30.13 dB 4:13 13-Anonymi Bellermann
DR12 -8.13 dB -25.80 dB 1:35 14-1er Ode Pythique (Pindare)
DR19 -1.23 dB -26.49 dB 1:12 15-Papyrus Oxyrhynchus 2436
DR14 -6.88 dB -26.72 dB 1:32 16-Hymne Chrétienne d'Oxyrhynchus
DR12 -4.27 dB -20.11 dB 0:30 17-Homero Hymnus (Homère ¿)
DR24 0.00 dB -30.76 dB 0:51 18-Papyrus Zenon. Cairon Fragment
DR13 -10.62 dB -31.06 dB 0:27 19-Terencio - Hecyra 861 (Terence)
DR10 -5.74 dB -22.96 dB 0:39 20-Poem Mor 1, 11f. Mighe 37,523 (Grigorios - Nazianzenos)
DR18 -0.08 dB -23.74 dB 7:15 21-2e Hymne Delphique à Apollon
DR19 0.00 dB -25.22 dB 5:06 22-Papyrus Oslo A/B. Epilogos-Katastrophe (Gregorio Panagua)
––––––––––––––––––––––––––––––––––––––––

Number of tracks: 22
Official DR value: DR16

Samplerate: 44100 Hz
Channels: 2
Bits per sample: 16
Bitrate: 562 kbps
Codec: FLAC
================================================================================



CD Info:

Atrium Musicæ De Madrid, Gregorio Paniagua – Musique De La Grèce Antique

Label: Harmonia Mundi
Catalog#: HMA 1901015
Series: Musique D'Abord
Format: CD, Album, Digipak, ReIssue
Country: France
Released: 2000, 1979
Genre: Folk, World, & Country

Tracklist:

1 Anakrousis. Orestes Stasimo 3:03
2 Fragments Instrumentaux De Contrapollinopolis 0:59
3 1er Hymne Delphique À Apollon 4:50
4 Plainte De Tecmessa 1:16
5 Papyrus Wien 29825 4:58
6 Hymne Au Soleil 1:55
7 Hymne À La Muse 0:57
8 Hymne À La Némésis 1:34
9 Papyrus Michigan 4:05
10 Aenaoi Nefelai 1:25
11 Epitaphe De Saikilos 1:51
12 Pean. Papyrus Berlin 6870 1:46
13 Anonymi Bellermann 4:11
14 1re Ode Pythique 1:32
15 Papyrus Oxyrhynchus 2436 1:09
16 Hymne Chrétienne D'Oxyrhynchus 1:30
17 Homero Hymnus 0:27
18 Papyrus Zenon. Cairo Fragment 0:48
19 Terencio. Hecyra 861 0:24
20 Poem. Mor 1, 11f. Migne 37,523 0:37
21 2e Hymne Delphique À Apollon 7:14
22 Papyrus Oslo A/B Epilogos-Katastrophe 5:09

Credits:

Directed By, Performer – Gregorio Paniagua
Ensemble – Atrium Musicae De Madrid
Performer – Beatriz Amo, Carlos Paniagua, Eduardo Paniagua, Luis Paniagua, Maximo Pradera, Pablo Cano

Notes:

Recorded 1978.

Atrium Musicae de Madrid - Musique de la Grèce Antique [Harmonia Mundi HMA 1901015] {France 2000, 1979}


Review

by Eugene Chadbourne

Considerably more remains of ancient Greek architecture than the music of this advanced and inspirational civilization. And although works explaining Greek music theory have survived, the actual existence of composed pieces from these times comes down to only a few scraps that survived on papyrus, marble columns, and other written sources. This Spanish ensemble under the leadership of Gregorio Paniagua pieced together these remains and performed them with reconstructions of instruments from ancient Greek sources, some of which, such as the bagpipe, remain in use today. Portions of the music included may remind listeners of very early classical music such as Gregorian chant, whereas other pieces will certainly cause an astonished reaction as they sound unlike any other music recorded. Some is sparse, floating, the melodic ideas developing very slowly. A few of the old-world Greek percussion instruments wind up sounding quite a bit like new-world electronic music. allmusicguide

Atrium Musicae was an early music ensemble from Madrid, Spain, founded in 1964 by Gregorio Paniagua, a Spanish monk.
Perhaps the group's most famous recording is Musique de la Grèce Antique (Music of Ancient Greece), in which they performed ancient Greek music carefully taken down off scattered fragments of still existing papyrus. Performing the ancient compositions also meant the reconstruction of an arsenal of ancient instruments. This certainly was a fascinating aspect of the group's live performances during a series of acclaimed international tours. The success of this 1978 recording is not the only feather in the group's collective cap. The 1976 Musique Arabo-Andalouse delves into Hispanic-Moslem music, and is credited with creating a whole new interest in this fascinating genre of southern Spain. From the late 1970s into the early 1980s the group began a series of recordings dealing with 15th and 16th century popular Spanish songs, then sailed to the New World for the fascinating Las Indias de Espana, a recording of Pre-Columbian music collected from archives. The decision to dissolve the group was no doubt based on some of the younger brothers' interest in beginning solo careers. wikipedia


// all of my uploads //

// classical music //

Password:

finest-hq-audio

PAR2 information is for recovery purposes only. You do not have to load it, if everything extracts fine!