Subcategories

A-Austr - Musics From Holyground (1970)

Posted By: L@ter
A-Austr - Musics From Holyground (1970)

A-Austr - Musics From Holyground (1970)
EAC Rip | FLAC, IMG+CUE, LOG | 288 MB | 60,01 min | Covers
Label: Kissing Spell (2005) | Rock, Pop, Other Style | RAR 3% Rec.

One of the denizens of Holyground Records, the combination studio and label that helped give Bill Nelson his start, A-Austr (who took their name from the first volume of an encyclopedia) ranged far and wide as far as musical influences went. The initial release of their single self-titled album was limited to 99 copies, with elaborate packaging, with copies eventually changing hands for a great deal of money. The album was eventually reissued, once again as a limited edition, once again attracting collectors. The music is intriguing, but the greatest interest, for many people, is perhaps the Nelson connection. Answers.com
Exact Audio Copy V0.99 prebeta 5 from 4. May 2009

EAC extraction logfile from 26. December 2009, 13:43

A-Austr / Musics From Holyground

Used drive : TSSTcorpCDDVDW SH-S202J Adapter: 0 ID: 0

Read mode : Secure
Utilize accurate stream : Yes
Defeat audio cache : Yes
Make use of C2 pointers : No

Read offset correction : 6
Overread into Lead-In and Lead-Out : No
Fill up missing offset samples with silence : Yes
Delete leading and trailing silent blocks : No
Null samples used in CRC calculations : Yes
Used interface : Native Win32 interface for Win NT & 2000

Used output format : User Defined Encoder
Selected bitrate : 768 kBit/s
Quality : High
Add ID3 tag : No
Command line compressor : C:\Program Files\Exact Audio Copy\FLAC\FLAC.EXE
Additional command line options : -6 -V -T "ARTIST=%a" -T "TITLE=%t" -T "ALBUM=%g" -T "DATE=%y" -T "TRACKNUMBER=%n" -T "GENRE=%m" -T "COMMENT=%e" %s -o %d


TOC of the extracted CD

Track | Start | Length | Start sector | End sector
––––––––––––––––––––––––––––-
1 | 0:00.00 | 2:45.45 | 0 | 12419
2 | 2:45.45 | 2:16.60 | 12420 | 22679
3 | 5:02.30 | 2:51.62 | 22680 | 35566
4 | 7:54.17 | 0:10.44 | 35567 | 36360
5 | 8:04.61 | 2:47.27 | 36361 | 48912
6 | 10:52.13 | 0:39.70 | 48913 | 51907
7 | 11:32.08 | 2:30.69 | 51908 | 63226
8 | 14:03.02 | 1:12.68 | 63227 | 68694
9 | 15:15.70 | 6:45.10 | 68695 | 99079
10 | 22:01.05 | 0:20.39 | 99080 | 100618
11 | 22:21.44 | 3:08.40 | 100619 | 114758
12 | 25:30.09 | 1:01.01 | 114759 | 119334
13 | 26:31.10 | 3:18.01 | 119335 | 134185
14 | 29:49.11 | 7:56.63 | 134186 | 169948
15 | 37:45.74 | 4:28.66 | 169949 | 190114
16 | 42:14.65 | 2:46.46 | 190115 | 202610
17 | 45:01.36 | 3:36.37 | 202611 | 218847
18 | 48:37.73 | 0:48.22 | 218848 | 222469
19 | 49:26.20 | 6:42.33 | 222470 | 252652
20 | 56:08.53 | 3:59.68 | 252653 | 270645


Range status and errors

Selected range

Filename C:\A-Austr - Musics From Holyground.wav

Peak level 99.6 %
Range quality 100.0 %
Copy CRC 2F9DE17B
Copy OK

No errors occurred

End of status report


AUDIOCHECKER v2.0 beta (build 457) - by Dester - opdester@freemail.hu
~~~~~~~~~~~~~~~~~~~~~~~~~~~~~~~~~~
-=== DO NOT EDIT THIS FILE! ===-

Path: …\A-Austr - Musics From Holyground (1970)

1 -=- A-Austr - Musics From Holyground.flac -=- CDDA (100%)

150558196


Tracklist

01. Bird
02. Judy
03. Mini
04. Prelude to Change for Arthur
05. Thumbquake & Earthscrew
06. Change for Arthur
07. Between the Road
08. Hawaiian War Chant
09. It's Alright
10. Reprise of part of Bird
11. Essex Queen (She Dances)
12. D Minor Minuet
13. A Curse on You
14. What Did You Go?
15. Grail Search
16. Essex Queen (first version)
17. Grail Search (first version)
18. Judy (fragment of first version)
19. It's Alright (later version, remixed)
20. Aren't You Glad You Stayed (early vocal version)