Tags
Language
Tags

Bach - Sonates & Partitas Pour Violon Seul,Le Petit Livre D'anna-Magdalena Bach,Suites Pour Violoncelle Seul (1996) (5CD)

Posted By: shamanicus
Bach - Sonates & Partitas Pour Violon Seul,Le Petit Livre D'anna-Magdalena Bach,Suites Pour Violoncelle Seul (1996) (5CD)

Bach - Sonates & Partitas Pour Violon Seul, Le Petit Livre D'anna-Magdalena Bach, Suites Pour Violoncelle Seul (1996) (5CD Box set)
XLD Rip | FLAC (tracks+.cue, log) | Artwork | 1402 mb | MP3 CBR 320kbps | RAR | 783 mb
Classical, Cello, Violin | Label: EMI Classical - 7243 4 89179 2 8

This set includes two of the rarest and hardest to find of all recordings: the 1958-59 version of the Bach Cello Suites by Janos Starker – the one everyone says his later recordings cannot match – and the extremely beautiful performance of Bach's unaccompanied violin sonatas and partitas – the one that Japanese collectors pay 3-digit dollar prices for – in outstanding EMI Digital Re-Masterings.
Stephen Grabow


Bach - Sonates & Partitas Pour Violon Seul,Le Petit Livre D'anna-Magdalena Bach,Suites Pour Violoncelle Seul (1996) (5CD)


Bach - Sonates & Partitas Pour Violon Seul,Le Petit Livre D'anna-Magdalena Bach,Suites Pour Violoncelle Seul (1996) (5CD)



Tracklist:

CD 1 and 2 are Johanna Martzy's 1954-55 recordings of Bach's Sonatas & Partitas for solo violin, BWV 1001-1006.

CD 3 is Edith Mathis & Theo Altmeyer's 1966 recordings of Bach's Notebook for Anna Magdalena Bach (various BWV numbers)

CD 4 and 5 are Janos Starker's 1957-59 recordings of Bach's Suites for solo cello, BWV 1007-1012

For decades, Martzy's renditions of the Sonatas & Partitas were considered the standard. Tastes change, but these recordings still hold up as magnificent.

The same can more or less be said for the Starker cello Suites.

The Edith Mathis/Theo Altmeyer recording is also highly sought-after in classical collector's circles.


Performer: Janos Starker, Johanna Martzy
Composer: Johann Sebastian Bach



CD1 Johanna Martzy: Bach : Sonates & Partitas pour violon seul
01 - I - Adagio, Sonate nº1 en sol minieur, BWV 1001
02 - II - Fugue, Sonate nº1 en sol minieur, BWV 1001
03 - III - Siciliano, Sonate nº1 en sol minieur, BWV 1001
04 - II - Presto, Sonate nº1 en sol minieur, BWV 1001
05 - I - Allemande, Partita nº1 en si minieur, BWV 1002
06 - II - Double, Partita nº1 en si minieur, BWV 1002
07 - III - Courante, Partita nº1 en si minieur, BWV 1002
08 - II - Double, Partita nº1 en si minieur, BWV 1002
09 - I - Sarabande, Partita nº1 en si minieur, BWV 1002
10 - VI - Double, Partita nº1 en si minieur, BWV 1002
11 - VII - Bourrée, Partita nº1 en si minieur, BWV 1002
12 - VIII - Double, Partita nº1 en si minieur, BWV 1002
13 - I - Grave, Sonate nº2 en la minieur, BWV 1003
14 - II - Fugue, Sonate nº2 en la minieur, BWV 1003
15 - III - Andante, Sonate nº2 en la minieur, BWV 1003
16 - II - Allegro, Sonate nº2 en la minieur, BWV 1003

CD2 Johanna Martzy: Bach : Sonates & Partitas pour violon seul
01 - I - Allemande, partita nº 2 en ré mineur, BWV 1004
02 - II - Courante, partita nº 2 en ré mineur, BWV 1004
03 - III - Sarabande, partita nº 2 en ré mineur, BWV 1004
04 - II - Gigue, partita nº 2 en ré mineur, BWV 1004
05 - I - Chaconne, partita nº 2 en ré mineur, BWV 1004
06 - I - Adagio, Sonate nº 3 en ut majeur, BWV 1005
07 - II - Fuga, Sonate nº 3 en ut majeur, BWV 1005
08 - III - Largo, Sonate nº 3 en ut majeur, BWV 1005
09 - II - Allegro assai, Sonate nº 3 en ut majeur, BWV 1005
10 - I - Preludio, Partita nº 3 en mi majeaur, BWV 1006
11 - II - Louré, Partita nº 3 en mi majeaur, BWV 1006
12 - III - Gavotte en rondeau, Partita nº 3 en mi majeaur, BWV 1006
13 - II - Menuets I & II, Partita nº 3 en mi majeaur, BWV 1006
14 - I - Bourrée, Partita nº 3 en mi majeaur, BWV 1006
15 - VI - Gigue, Partita nº 3 en mi majeaur, BWV 1006

CD3 Edith Mathis, Theo Altmeyer: Bach: Le Petit Livre d'Anna-Magdalena Bach
01 - Praeludium en ut majeur BWV 846
02 - Choral 'Dir, dir, Jehova will ich singen' BWV 299
03 - Polonaise en fa majeur BWV Anh.117b
04 - Menuet en re mineur BWV Anh.132
05 - Polonaise en re mineur BWV Anh.128
06 - Musette en re majeur BWV Anh.126
07 - Aria 'So oft ich meine Tabakpfeife' BWV 515a
08 - Marche en re majeur BWV Anh.122
09 - Polonaise en sol mineur BWV Anh.125
10 - Marche en sol majeur BWV Anh.124
11 - Menuet en ut mineur BWV Anh.121
12 - Aria en sol majeur BWV 988
13 - Choral 'Gib dir zufrieden' BWV 510
14 - Choral 'Wer nur den lieben Gott laesst walten' BWV 691
15 - Choral 'Schaffs mit mir, Gott' BWV 514
16 - Choral 'Wohl mir, ich bitt' in Jesu Namen' BWV 299
17 - Les Bergeries, rondeau en si majeur BWV Anh.183
18 - Marche en mi bemol majeur BWV Anh.127
19 - Menuet en si bemol majeur BWV Anh.118
20 - Menuet en fa majeur BWV Anh.113
21 - Polonaise en sol mineur BWV Anh.119
22 - Aria de Giovanini 'Willst du dein Herz mir schenken' BWV 518
23 - Menuet en sol majeur BWV Anh.116
24 - Polonaise en sol majeur BWV Anh.130
25 - Menuets en sol majeur & en sol mineur BWV Anh.114,115
26 - Solo per il cembalo en mi bemol majeur BWV Anh.129
27 - Aria 'Gedenke doch, mein Geist zurueck' BWV 509
28 - Aria 'Bist du bei mir' BWV 508
29 - Choral 'O Ewigkeit, du Donnerwort' BWV 513
30 - Aria 'Warum betruebst du dich' BWV 516
31 - Choral 'Wie wohl ist mir, o Freund der Seelen' BWV 517

CD4 Jonas Starker: Bach : Suites pour violoncelle seul
01 - I - Prelude, Suite nº 1 en sol majeur, BWV 1007
02 - II - Allemande, Suite nº 1 en sol majeur, BWV 1007
03 - III - Courante, Suite nº 1 en sol majeur, BWV 1007
04 - IV - Sarabande, Suite nº 1 en sol majeur, BWV 1007
05 - V - Menuets I & II, Suite nº 1 en sol majeur, BWV 1007
06 - VI - Gigue, Suite nº 1 en sol majeur, BWV 1007
07 - I - Prelude, Suite n) 2 en ré mineur, BWV 1009
08 - II - Allemande, Suite n) 2 en ré mineur, BWV 1009
09 - III - Courante, Suite n) 2 en ré mineur, BWV 1009
10 - IV - Sarabande, Suite n) 2 en ré mineur, BWV 1009
11 - V - Menuets I & II, Suite n) 2 en ré mineur, BWV 1009
12 - VI - Gigue, Suite n) 2 en ré mineur, BWV 1009
13 - I - Praeludium, Suite nº 3 en ut majeur, BWV 1009
14 - II - Allemande, Suite nº 3 en ut majeur, BWV 1009
15 - III - Courante, Suite nº 3 en ut majeur, BWV 1009
16 - IV - Sarabande, Suite nº 3 en ut majeur, BWV 1009
17 - V - Bourrees I & II, Suite nº 3 en ut majeur, BWV 1009
18 - VI - Gigue, Suite nº 3 en ut majeur, BWV 1009

CD5 Jonas Starker: Bach : Suites pour violoncelle seul
01 - I - Prelude, Suite nº 4 en mi bémoi majeur, BWV 1007
02 - II - Allemande, Suite nº 4 en mi bémoi majeur, BWV 1007
03 - III - Courante, Suite nº 4 en mi bémoi majeur, BWV 1007
04 - IV - Sarabande, Suite nº 4 en mi bémoi majeur, BWV 1007
05 - V - Bourrees I & II, Suite nº 4 en mi bémoi majeur, BWV 1007
06 - VI - Gigue, Suite nº 4 en mi bémoi majeur, BWV 1007
07 - I - Prelude, Suite nº 5 en ut mineur, BWV 1011
08 - II - Allemande, Suite nº 5 en ut mineur, BWV 1011
09 - III - Courante, Suite nº 5 en ut mineur, BWV 1011
10 - IV - Sarabande, Suite nº 5 en ut mineur, BWV 1011
11 - V - Gavottes I & II, Suite nº 5 en ut mineur, BWV 1011
12 - VI - Gigue, Suite nº 5 en ut mineur, BWV 1011
13 - I - Prelude, Suite nº 6 en ré majeur, BWV 1012
14 - II - Allemande, Suite nº 6 en ré majeur, BWV 1012
15 - III - Courante, Suite nº 6 en ré majeur, BWV 1012
16 - IV - Sarabande, Suite nº 6 en ré majeur, BWV 1012
17 - V - Gavottes I & II, Suite nº 6 en ré majeur, BWV 1012
18 - VI - Gigue, Suite nº 6 en ré majeur, BWV 1012


X Lossless Decoder version 20161007 (149.3)

XLD extraction logfile from 2017-02-01 22:00:05 -0500

Johanna Martzy/Janos Starker / Sonates & Partitas pour violon seul

Used Drive : HL-DT-ST DVDRW GS23N (revision SB10) (not found in database)
Media type : Pressed CD

Ripper mode : XLD Secure Ripper
Disable audio cache : OK for the drive with a cache less than 1375KiB
Make use of C2 pointers : NO
Read offset correction : 96
Max retry count : 100
Gap status : Analyzed, Appended (except HTOA)

TOC of the extracted CD
Track | Start | Length | Start sector | End sector
––––––––––––––––––––––––––––-
1 | 00:00:00 | 04:59:62 | 0 | 22486
2 | 04:59:62 | 06:01:70 | 22487 | 49631
3 | 11:01:57 | 04:13:05 | 49632 | 68611
4 | 15:14:62 | 02:44:43 | 68612 | 80954
5 | 17:59:30 | 06:17:67 | 80955 | 109296
6 | 24:17:22 | 03:19:30 | 109297 | 124251
7 | 27:36:52 | 03:21:65 | 124252 | 139391
8 | 30:58:42 | 02:45:33 | 139392 | 151799
9 | 33:44:00 | 02:13:20 | 151800 | 161794
10 | 35:57:20 | 01:38:55 | 161795 | 169199
11 | 37:36:00 | 02:35:10 | 169200 | 180834
12 | 40:11:10 | 02:45:62 | 180835 | 193271
13 | 42:56:72 | 05:08:33 | 193272 | 216404
14 | 48:05:30 | 08:40:30 | 216405 | 255434
15 | 56:45:60 | 04:52:65 | 255435 | 277399
16 | 61:38:50 | 04:26:30 | 277400 | 297379

List of alternate offset correction values
# | Absolute | Relative | Confidence
–––––––––––––––––––––
1 | 667 | 571 | 12
2 | -83 | -179 | 2
3 | -661 | -757 | 2
4 | 3 | -93 | 2


AccurateRip Summary (DiscID: 00261e65-01c08f01-e20f7d10)
Track 01 : OK (v1+v2, confidence 12/16, with different offset)
Track 02 : OK (v1+v2, confidence 12/18, with different offset)
Track 03 : OK (v1+v2, confidence 12/18, with different offset)
Track 04 : OK (v1+v2, confidence 12/18, with different offset)
Track 05 : OK (v1+v2, confidence 12/18, with different offset)
Track 06 : OK (v1+v2, confidence 12/18, with different offset)
Track 07 : OK (v1+v2, confidence 12/16, with different offset)
Track 08 : OK (v1+v2, confidence 12/18, with different offset)
Track 09 : OK (v1+v2, confidence 12/18, with different offset)
Track 10 : OK (v1+v2, confidence 12/18, with different offset)
Track 11 : OK (v1+v2, confidence 12/18, with different offset)
Track 12 : OK (v1+v2, confidence 12/18, with different offset)
Track 13 : OK (v1+v2, confidence 12/16, with different offset)
Track 14 : OK (v1+v2, confidence 12/18, with different offset)
Track 15 : OK (v1+v2, confidence 12/18, with different offset)
Track 16 : OK (v1+v2, confidence 12/18, with different offset)
->All tracks accurately ripped.

All Tracks
Album gain : -1.62 dB
Peak : 0.867676
Statistics
Read error : 0
Jitter error (maybe fixed) : 0
Retry sector count : 0
Damaged sector count : 0

Track 01
Filename : /XLD/Sonates & Partitas pour violon seul [MP3 V0]/CD01/01 Johanna Martzy - I-Adagio.mp3
/XLD/Sonates & Partitas pour violon seul [FLAC]/CD01/01 Johanna Martzy - I-Adagio.flac
Pre-gap length : 00:02:00

Track gain : 1.00 dB
Peak : 0.530304
CRC32 hash (test run) : 5880F3D4
CRC32 hash : 5880F3D4
CRC32 hash (skip zero) : D3EB6BE3
AccurateRip v1 signature : 735E7EBD (0A461548 w/correction)
AccurateRip v2 signature : 413BF35D (1291DF62 w/correction)
->Accurately ripped with different offset (v1+v2, confidence 7+5/16, offset +571)
Statistics
Read error : 0
Jitter error (maybe fixed) : 0
Retry sector count : 0
Damaged sector count : 0

Track 02
Filename : /XLD/Sonates & Partitas pour violon seul [MP3 V0]/CD01/02 Johanna Martzy - II-Fugue.mp3
/XLD/Sonates & Partitas pour violon seul [FLAC]/CD01/02 Johanna Martzy - II-Fugue.flac
Pre-gap length : 00:01:47

Track gain : -2.90 dB
Peak : 0.810211
CRC32 hash (test run) : 83518231
CRC32 hash : 83518231
CRC32 hash (skip zero) : ED24F274
AccurateRip v1 signature : 907BD47A (481AF5C9 w/correction)
AccurateRip v2 signature : CA55432A (5799CC6D w/correction)
->Accurately ripped with different offset (v1+v2, confidence 7+5/18, offset +571)
Statistics
Read error : 0
Jitter error (maybe fixed) : 0
Retry sector count : 0
Damaged sector count : 0

Track 03
Filename : /XLD/Sonates & Partitas pour violon seul [MP3 V0]/CD01/03 Johanna Martzy - III-Siciliano.mp3
/XLD/Sonates & Partitas pour violon seul [FLAC]/CD01/03 Johanna Martzy - III-Siciliano.flac
Pre-gap length : 00:03:70

Track gain : 0.11 dB
Peak : 0.585022
CRC32 hash (test run) : FADF2909
CRC32 hash : FADF2909
CRC32 hash (skip zero) : ACC7F3FE
AccurateRip v1 signature : 048F4B26 (13D3E45B w/correction)
AccurateRip v2 signature : 12A10061 (5FE3077A w/correction)
->Accurately ripped with different offset (v1+v2, confidence 7+5/18, offset +571)
Statistics
Read error : 0
Jitter error (maybe fixed) : 0
Retry sector count : 0
Damaged sector count : 0

Track 04
Filename : /XLD/Sonates & Partitas pour violon seul [MP3 V0]/CD01/04 Johanna Martzy - IV-Presto.mp3
/XLD/Sonates & Partitas pour violon seul [FLAC]/CD01/04 Johanna Martzy - IV-Presto.flac
Pre-gap length : 00:02:57

Track gain : -2.77 dB
Peak : 0.867676
CRC32 hash (test run) : 53451FDB
CRC32 hash : 53451FDB
CRC32 hash (skip zero) : 7CCC129C
AccurateRip v1 signature : 83561000 (F0053931 w/correction)
AccurateRip v2 signature : 4DE7928A (446567D6 w/correction)
->Accurately ripped with different offset (v1+v2, confidence 7+5/18, offset +571)
Statistics
Read error : 0
Jitter error (maybe fixed) : 0
Retry sector count : 0
Damaged sector count : 0

Track 05
Filename : /XLD/Sonates & Partitas pour violon seul [MP3 V0]/CD01/05 Johanna Martzy - I-Allemande.mp3
/XLD/Sonates & Partitas pour violon seul [FLAC]/CD01/05 Johanna Martzy - I-Allemande.flac
Pre-gap length : 00:08:25

Track gain : -0.62 dB
Peak : 0.569641
CRC32 hash (test run) : C8FE651A
CRC32 hash : C8FE651A
CRC32 hash (skip zero) : 0692886A
AccurateRip v1 signature : 66CB864C (0AAA941D w/correction)
AccurateRip v2 signature : 7AFB550C (067B8638 w/correction)
->Accurately ripped with different offset (v1+v2, confidence 7+5/18, offset +571)
Statistics
Read error : 0
Jitter error (maybe fixed) : 0
Retry sector count : 0
Damaged sector count : 0

Track 06
Filename : /XLD/Sonates & Partitas pour violon seul [MP3 V0]/CD01/06 Johanna Martzy - II-Double.mp3
/XLD/Sonates & Partitas pour violon seul [FLAC]/CD01/06 Johanna Martzy - II-Double.flac
Pre-gap length : 00:01:50

Track gain : -1.52 dB
Peak : 0.590881
CRC32 hash (test run) : 96D8217D
CRC32 hash : 96D8217D
CRC32 hash (skip zero) : 8079AD5B
AccurateRip v1 signature : 2704C332 (C8C0FF52 w/correction)
AccurateRip v2 signature : 89107ABB (2653E41E w/correction)
->Accurately ripped with different offset (v1+v2, confidence 7+5/18, offset +571)
Statistics
Read error : 0
Jitter error (maybe fixed) : 0
Retry sector count : 0
Damaged sector count : 0

Track 07
Filename : /XLD/Sonates & Partitas pour violon seul [MP3 V0]/CD01/07 Johanna Martzy - III-Courante.mp3
/XLD/Sonates & Partitas pour violon seul [FLAC]/CD01/07 Johanna Martzy - III-Courante.flac
Pre-gap length : 00:02:25

Track gain : -1.47 dB
Peak : 0.567261
CRC32 hash (test run) : ED6E44B8
CRC32 hash : ED6E44B8
CRC32 hash (skip zero) : CB9EEA6E
AccurateRip v1 signature : F78C8CEF (44C19CB0 w/correction)
AccurateRip v2 signature : A96EC5BE (E511DF33 w/correction)
->Accurately ripped with different offset (v1+v2, confidence 7+5/16, offset +571)
Statistics
Read error : 0
Jitter error (maybe fixed) : 0
Retry sector count : 0
Damaged sector count : 0

Track 08
Filename : /XLD/Sonates & Partitas pour violon seul [MP3 V0]/CD01/08 Johanna Martzy - IV-Double.mp3
/XLD/Sonates & Partitas pour violon seul [FLAC]/CD01/08 Johanna Martzy - IV-Double.flac
Pre-gap length : 00:02:07

Track gain : 1.34 dB
Peak : 0.367676
CRC32 hash (test run) : 3AE9EB45
CRC32 hash : 3AE9EB45
CRC32 hash (skip zero) : AEA989C6
AccurateRip v1 signature : E76F8F9B (436C1909 w/correction)
AccurateRip v2 signature : AE813096 (EF9AFD6B w/correction)
->Accurately ripped with different offset (v1+v2, confidence 7+5/18, offset +571)
Statistics
Read error : 0
Jitter error (maybe fixed) : 0
Retry sector count : 0
Damaged sector count : 0

Track 09
Filename : /XLD/Sonates & Partitas pour violon seul [MP3 V0]/CD01/09 Johanna Martzy - V-Sarabande.mp3
/XLD/Sonates & Partitas pour violon seul [FLAC]/CD01/09 Johanna Martzy - V-Sarabande.flac
Pre-gap length : 00:02:05

Track gain : 1.11 dB
Peak : 0.522888
CRC32 hash (test run) : 101597EB
CRC32 hash : 101597EB
CRC32 hash (skip zero) : D16592E2
AccurateRip v1 signature : C929B50F (56A48B10 w/correction)
AccurateRip v2 signature : BD02C74D (717E38F9 w/correction)
->Accurately ripped with different offset (v1+v2, confidence 7+5/18, offset +571)
Statistics
Read error : 0
Jitter error (maybe fixed) : 0
Retry sector count : 0
Damaged sector count : 0

Track 10
Filename : /XLD/Sonates & Partitas pour violon seul [MP3 V0]/CD01/10 Johanna Martzy - VI-Double.mp3
/XLD/Sonates & Partitas pour violon seul [FLAC]/CD01/10 Johanna Martzy - VI-Double.flac
Pre-gap length : 00:02:63

Track gain : -1.80 dB
Peak : 0.473083
CRC32 hash (test run) : D865D691
CRC32 hash : D865D691
CRC32 hash (skip zero) : B9EC934F
AccurateRip v1 signature : E20CE861 (87D2AD84 w/correction)
AccurateRip v2 signature : 7E6CB958 (15C15CCB w/correction)
->Accurately ripped with different offset (v1+v2, confidence 7+5/18, offset +571)
Statistics
Read error : 0
Jitter error (maybe fixed) : 0
Retry sector count : 0
Damaged sector count : 0

Track 11
Filename : /XLD/Sonates & Partitas pour violon seul [MP3 V0]/CD01/11 Johanna Martzy - VII-Bourrée.mp3
/XLD/Sonates & Partitas pour violon seul [FLAC]/CD01/11 Johanna Martzy - VII-Bourrée.flac
Pre-gap length : 00:02:35

Track gain : -3.91 dB
Peak : 0.682770
CRC32 hash (test run) : 04AE7B9D
CRC32 hash : 04AE7B9D
CRC32 hash (skip zero) : A0A9A772
AccurateRip v1 signature : 4126CB81 (A3A73236 w/correction)
AccurateRip v2 signature : B2BA1062 (08232FD1 w/correction)
->Accurately ripped with different offset (v1+v2, confidence 7+5/18, offset +571)
Statistics
Read error : 0
Jitter error (maybe fixed) : 0
Retry sector count : 0
Damaged sector count : 0

Track 12
Filename : /XLD/Sonates & Partitas pour violon seul [MP3 V0]/CD01/12 Johanna Martzy - VIII-Double.mp3
/XLD/Sonates & Partitas pour violon seul [FLAC]/CD01/12 Johanna Martzy - VIII-Double.flac
Pre-gap length : 00:02:03

Track gain : -3.38 dB
Peak : 0.665497
CRC32 hash (test run) : 2253DB77
CRC32 hash : 2253DB77
CRC32 hash (skip zero) : 93EE5481
AccurateRip v1 signature : 4CEA8A34 (362C6795 w/correction)
AccurateRip v2 signature : D3C82EF1 (45A6F7FC w/correction)
->Accurately ripped with different offset (v1+v2, confidence 7+5/18, offset +571)
Statistics
Read error : 0
Jitter error (maybe fixed) : 0
Retry sector count : 0
Damaged sector count : 0

Track 13
Filename : /XLD/Sonates & Partitas pour violon seul [MP3 V0]/CD01/13 Johanna Martzy - I-Grave.mp3
/XLD/Sonates & Partitas pour violon seul [FLAC]/CD01/13 Johanna Martzy - I-Grave.flac
Pre-gap length : 00:07:07

Track gain : 1.30 dB
Peak : 0.712891
CRC32 hash (test run) : B081DFFB
CRC32 hash : B081DFFB
CRC32 hash (skip zero) : 2FF5B6CC
AccurateRip v1 signature : 66682C49 (1DCCD43C w/correction)
AccurateRip v2 signature : 99DDDD1B (5F6BC79D w/correction)
->Accurately ripped with different offset (v1+v2, confidence 7+5/16, offset +571)
Statistics
Read error : 0
Jitter error (maybe fixed) : 0
Retry sector count : 0
Damaged sector count : 0

Track 14
Filename : /XLD/Sonates & Partitas pour violon seul [MP3 V0]/CD01/14 Johanna Martzy - II-Fugue.mp3
/XLD/Sonates & Partitas pour violon seul [FLAC]/CD01/14 Johanna Martzy - II-Fugue.flac
Pre-gap length : 00:01:38

Track gain : -1.08 dB
Peak : 0.623322
CRC32 hash (test run) : 09F676AF
CRC32 hash : 09F676AF
CRC32 hash (skip zero) : 691AE754
AccurateRip v1 signature : F28A6A23 (6D67A6A0 w/correction)
AccurateRip v2 signature : 8B70F4ED (89E55D04 w/correction)
->Accurately ripped with different offset (v1+v2, confidence 7+5/18, offset +571)
Statistics
Read error : 0
Jitter error (maybe fixed) : 0
Retry sector count : 0
Damaged sector count : 0

Track 15
Filename : /XLD/Sonates & Partitas pour violon seul [MP3 V0]/CD01/15 Johanna Martzy - III-Andante.mp3
/XLD/Sonates & Partitas pour violon seul [FLAC]/CD01/15 Johanna Martzy - III-Andante.flac
Pre-gap length : 00:03:08

Track gain : 5.74 dB
Peak : 0.300873
CRC32 hash (test run) : BF3A3302
CRC32 hash : BF3A3302
CRC32 hash (skip zero) : 30B06B73
AccurateRip v1 signature : 31C8EA88 (6276C4B6 w/correction)
AccurateRip v2 signature : 62A42DF6 (BB480B3C w/correction)
->Accurately ripped with different offset (v1+v2, confidence 7+5/18, offset +571)
Statistics
Read error : 0
Jitter error (maybe fixed) : 0
Retry sector count : 0
Damaged sector count : 0

Track 16
Filename : /XLD/Sonates & Partitas pour violon seul [MP3 V0]/CD01/16 Johanna Martzy - IV-Allegro.mp3
/XLD/Sonates & Partitas pour violon seul [FLAC]/CD01/16 Johanna Martzy - IV-Allegro.flac
Pre-gap length : 00:02:03

Track gain : -3.52 dB
Peak : 0.709412
CRC32 hash (test run) : 6355149F
CRC32 hash : 6355149F
CRC32 hash (skip zero) : 60E29B2C
AccurateRip v1 signature : A825178E (0216AA6E w/correction)
AccurateRip v2 signature : D4D8F2EF (FBFCD10D w/correction)
->Accurately ripped with different offset (v1+v2, confidence 7+5/18, offset +571)
Statistics
Read error : 0
Jitter error (maybe fixed) : 0
Retry sector count : 0
Damaged sector count : 0

No errors occurred

End of status report

––-BEGIN XLD SIGNATURE––-
fQsijUh6FJ7ftZZlITunLbZFAlgtDHk06dI6UhIrG6VPFxnTtzv1ia0COCpLF8a2XScAZhdKjGaON852c2ZgQOLB4l5YjkzkacuQnRu
––-END XLD SIGNATURE––-

X Lossless Decoder version 20161007 (149.3)

XLD extraction logfile from 2017-02-02 11:42:56 -0500

Johanna Martzy/Janos Starker / Sonates & Partitas pour violon seul [FLAC]

Used Drive : HL-DT-ST DVDRW GS23N (revision SB10) (not found in database)
Media type : Pressed CD

Ripper mode : XLD Secure Ripper
Disable audio cache : OK for the drive with a cache less than 1375KiB
Make use of C2 pointers : NO
Read offset correction : 667
Max retry count : 100
Gap status : Analyzed, Appended (except HTOA)

TOC of the extracted CD
Track | Start | Length | Start sector | End sector
––––––––––––––––––––––––––––-
1 | 00:00:00 | 04:20:17 | 0 | 19516
2 | 04:20:17 | 02:53:63 | 19517 | 32554
3 | 07:14:05 | 02:53:57 | 32555 | 45586
4 | 10:07:62 | 03:18:25 | 45587 | 60461
5 | 13:26:12 | 15:23:60 | 60462 | 129746
6 | 28:49:72 | 05:44:33 | 129747 | 155579
7 | 34:34:30 | 11:16:70 | 155580 | 206349
8 | 45:51:25 | 03:59:70 | 206350 | 224344
9 | 49:51:20 | 04:13:02 | 224345 | 243321
10 | 54:04:22 | 03:48:53 | 243322 | 260474
11 | 57:53:00 | 04:22:25 | 260475 | 280149
12 | 62:15:25 | 03:11:42 | 280150 | 294516
13 | 65:26:67 | 04:27:05 | 294517 | 314546
14 | 69:53:72 | 01:40:48 | 314547 | 322094
15 | 71:34:45 | 01:47:25 | 322095 | 330144

List of alternate offset correction values
# | Absolute | Relative | Confidence
–––––––––––––––––––––
1 | -83 | -750 | 2
2 | -661 | -1328 | 2
3 | 3 | -664 | 2


AccurateRip Summary (DiscID: 002c8be2-01fa0f76-ef11310f)
Track 01 : OK (v1+v2, confidence 12/18)
Track 02 : OK (v1+v2, confidence 12/18)
Track 03 : OK (v1+v2, confidence 12/18)
Track 04 : OK (v1+v2, confidence 12/18)
Track 05 : OK (v1+v2, confidence 12/18)
Track 06 : OK (v1+v2, confidence 12/18)
Track 07 : OK (v1+v2, confidence 12/18)
Track 08 : OK (v1+v2, confidence 12/18)
Track 09 : OK (v1+v2, confidence 12/18)
Track 10 : OK (v1+v2, confidence 12/18)
Track 11 : OK (v1+v2, confidence 12/18)
Track 12 : OK (v1+v2, confidence 12/16)
Track 13 : OK (v1+v2, confidence 12/18)
Track 14 : OK (v1+v2, confidence 12/18)
Track 15 : OK (v1+v2, confidence 12/18)
->All tracks accurately ripped.

All Tracks
Album gain : -0.99 dB
Peak : 0.846863
Statistics
Read error : 0
Jitter error (maybe fixed) : 0
Retry sector count : 0
Damaged sector count : 0

Track 01
Filename : /XLD/Sonates & Partitas pour violon seul [FLAC] [MP3 V0]/CD02/01 Johanna Martzy - I-Allemande.mp3
/XLD/Sonates & Partitas pour violon seul [FLAC] [FLAC]/CD02/01 Johanna Martzy - I-Allemande.flac
Pre-gap length : 00:02:00

Track gain : 1.96 dB
Peak : 0.554871
CRC32 hash (test run) : 48BE3BA4
CRC32 hash : 48BE3BA4
CRC32 hash (skip zero) : BDA080E6
AccurateRip v1 signature : B13A56E4
AccurateRip v2 signature : 84E9B4B6
->Accurately ripped (v1+v2, confidence 7+5/18)
Statistics
Read error : 0
Jitter error (maybe fixed) : 0
Retry sector count : 0
Damaged sector count : 0

Track 02
Filename : /XLD/Sonates & Partitas pour violon seul [FLAC] [MP3 V0]/CD02/02 Johanna Martzy - II-Courante.mp3
/XLD/Sonates & Partitas pour violon seul [FLAC] [FLAC]/CD02/02 Johanna Martzy - II-Courante.flac
Pre-gap length : 00:02:30

Track gain : 1.69 dB
Peak : 0.570038
CRC32 hash (test run) : 261BE28B
CRC32 hash : 261BE28B
CRC32 hash (skip zero) : B37BE5CF
AccurateRip v1 signature : B7B0DFDA
AccurateRip v2 signature : 0956DD08
->Accurately ripped (v1+v2, confidence 7+5/18)
Statistics
Read error : 0
Jitter error (maybe fixed) : 0
Retry sector count : 0
Damaged sector count : 0

Track 03
Filename : /XLD/Sonates & Partitas pour violon seul [FLAC] [MP3 V0]/CD02/03 Johanna Martzy - III-Sarabande.mp3
/XLD/Sonates & Partitas pour violon seul [FLAC] [FLAC]/CD02/03 Johanna Martzy - III-Sarabande.flac
Pre-gap length : 00:03:18

Track gain : 3.61 dB
Peak : 0.461761
CRC32 hash (test run) : 334F3C9A
CRC32 hash : 334F3C9A
CRC32 hash (skip zero) : 1DDE6099
AccurateRip v1 signature : 429CCBC9
AccurateRip v2 signature : 6C732D76
->Accurately ripped (v1+v2, confidence 7+5/18)
Statistics
Read error : 0
Jitter error (maybe fixed) : 0
Retry sector count : 0
Damaged sector count : 0

Track 04
Filename : /XLD/Sonates & Partitas pour violon seul [FLAC] [MP3 V0]/CD02/04 Johanna Martzy - IV-Gigue.mp3
/XLD/Sonates & Partitas pour violon seul [FLAC] [FLAC]/CD02/04 Johanna Martzy - IV-Gigue.flac
Pre-gap length : 00:02:67

Track gain : 2.04 dB
Peak : 0.402008
CRC32 hash (test run) : A250AD09
CRC32 hash : A250AD09
CRC32 hash (skip zero) : D165E8A4
AccurateRip v1 signature : 68298B61
AccurateRip v2 signature : C61A3894
->Accurately ripped (v1+v2, confidence 7+5/18)
Statistics
Read error : 0
Jitter error (maybe fixed) : 0
Retry sector count : 0
Damaged sector count : 0

Track 05
Filename : /XLD/Sonates & Partitas pour violon seul [FLAC] [MP3 V0]/CD02/05 Johanna Martzy - V-Chaconne.mp3
/XLD/Sonates & Partitas pour violon seul [FLAC] [FLAC]/CD02/05 Johanna Martzy - V-Chaconne.flac
Pre-gap length : 00:03:10

Track gain : -1.00 dB
Peak : 0.749542
CRC32 hash (test run) : A519ED1B
CRC32 hash : A519ED1B
CRC32 hash (skip zero) : 7F418CF8
AccurateRip v1 signature : 8758228F
AccurateRip v2 signature : 92A47650
->Accurately ripped (v1+v2, confidence 7+5/18)
Statistics
Read error : 0
Jitter error (maybe fixed) : 0
Retry sector count : 0
Damaged sector count : 0

Track 06
Filename : /XLD/Sonates & Partitas pour violon seul [FLAC] [MP3 V0]/CD02/06 Johanna Martzy - I-Adagio.mp3
/XLD/Sonates & Partitas pour violon seul [FLAC] [FLAC]/CD02/06 Johanna Martzy - I-Adagio.flac
Pre-gap length : 00:07:30

Track gain : 4.90 dB
Peak : 0.435791
CRC32 hash (test run) : 6BA3BC8A
CRC32 hash : 6BA3BC8A
CRC32 hash (skip zero) : CDFCBD0A
AccurateRip v1 signature : 0C89C11B
AccurateRip v2 signature : D7EA7A2A
->Accurately ripped (v1+v2, confidence 7+5/18)
Statistics
Read error : 0
Jitter error (maybe fixed) : 0
Retry sector count : 0
Damaged sector count : 0

Track 07
Filename : /XLD/Sonates & Partitas pour violon seul [FLAC] [MP3 V0]/CD02/07 Johanna Martzy - II-Fuga.mp3
/XLD/Sonates & Partitas pour violon seul [FLAC] [FLAC]/CD02/07 Johanna Martzy - II-Fuga.flac
Pre-gap length : 00:02:23

Track gain : -2.64 dB
Peak : 0.846863
CRC32 hash (test run) : 8DB8E1F6
CRC32 hash : 8DB8E1F6
CRC32 hash (skip zero) : 882EDE07
AccurateRip v1 signature : 7AE5C5CA
AccurateRip v2 signature : 0C138901
->Accurately ripped (v1+v2, confidence 7+5/18)
Statistics
Read error : 0
Jitter error (maybe fixed) : 0
Retry sector count : 0
Damaged sector count : 0

Track 08
Filename : /XLD/Sonates & Partitas pour violon seul [FLAC] [MP3 V0]/CD02/08 Johanna Martzy - III-Largo.mp3
/XLD/Sonates & Partitas pour violon seul [FLAC] [FLAC]/CD02/08 Johanna Martzy - III-Largo.flac
Pre-gap length : 00:04:40

Track gain : 4.64 dB
Peak : 0.396118
CRC32 hash (test run) : F2DBF99A
CRC32 hash : F2DBF99A
CRC32 hash (skip zero) : 61C05AD2
AccurateRip v1 signature : FF3CC675
AccurateRip v2 signature : 673DA210
->Accurately ripped (v1+v2, confidence 7+5/18)
Statistics
Read error : 0
Jitter error (maybe fixed) : 0
Retry sector count : 0
Damaged sector count : 0

Track 09
Filename : /XLD/Sonates & Partitas pour violon seul [FLAC] [MP3 V0]/CD02/09 Johanna Martzy - IV-Allegro assai.mp3
/XLD/Sonates & Partitas pour violon seul [FLAC] [FLAC]/CD02/09 Johanna Martzy - IV-Allegro assai.flac
Pre-gap length : 00:02:58

Track gain : -0.28 dB
Peak : 0.567444
CRC32 hash (test run) : AC95CEFD
CRC32 hash : AC95CEFD
CRC32 hash (skip zero) : 7FB9AACF
AccurateRip v1 signature : C7BC9EAB
AccurateRip v2 signature : 918440FF
->Accurately ripped (v1+v2, confidence 7+5/18)
Statistics
Read error : 0
Jitter error (maybe fixed) : 0
Retry sector count : 0
Damaged sector count : 0

Track 10
Filename : /XLD/Sonates & Partitas pour violon seul [FLAC] [MP3 V0]/CD02/10 Johanna Martzy - I-Preludio.mp3
/XLD/Sonates & Partitas pour violon seul [FLAC] [FLAC]/CD02/10 Johanna Martzy - I-Preludio.flac
Pre-gap length : 00:07:47

Track gain : -3.09 dB
Peak : 0.640381
CRC32 hash (test run) : E251294D
CRC32 hash : E251294D
CRC32 hash (skip zero) : 0B317C65
AccurateRip v1 signature : 3716C577
AccurateRip v2 signature : 897F4A15
->Accurately ripped (v1+v2, confidence 7+5/18)
Statistics
Read error : 0
Jitter error (maybe fixed) : 0
Retry sector count : 0
Damaged sector count : 0

Track 11
Filename : /XLD/Sonates & Partitas pour violon seul [FLAC] [MP3 V0]/CD02/11 Johanna Martzy - II-Louré.mp3
/XLD/Sonates & Partitas pour violon seul [FLAC] [FLAC]/CD02/11 Johanna Martzy - II-Louré.flac
Pre-gap length : 00:02:40

Track gain : 2.28 dB
Peak : 0.380188
CRC32 hash (test run) : A6584F06
CRC32 hash : A6584F06
CRC32 hash (skip zero) : 80A267A2
AccurateRip v1 signature : 198AADDC
AccurateRip v2 signature : 67F6D77C
->Accurately ripped (v1+v2, confidence 7+5/18)
Statistics
Read error : 0
Jitter error (maybe fixed) : 0
Retry sector count : 0
Damaged sector count : 0

Track 12
Filename : /XLD/Sonates & Partitas pour violon seul [FLAC] [MP3 V0]/CD02/12 Johanna Martzy - III-Gavotte en rondeau.mp3
/XLD/Sonates & Partitas pour violon seul [FLAC] [FLAC]/CD02/12 Johanna Martzy - III-Gavotte en rondeau.flac
Pre-gap length : 00:02:60

Track gain : -1.23 dB
Peak : 0.683258
CRC32 hash (test run) : 1887E22B
CRC32 hash : 1887E22B
CRC32 hash (skip zero) : 6984688F
AccurateRip v1 signature : 02F74353
AccurateRip v2 signature : 0429317B
->Accurately ripped (v1+v2, confidence 7+5/16)
Statistics
Read error : 0
Jitter error (maybe fixed) : 0
Retry sector count : 0
Damaged sector count : 0

Track 13
Filename : /XLD/Sonates & Partitas pour violon seul [FLAC] [MP3 V0]/CD02/13 Johanna Martzy - IV-Menuets I & II.mp3
/XLD/Sonates & Partitas pour violon seul [FLAC] [FLAC]/CD02/13 Johanna Martzy - IV-Menuets I & II.flac
Pre-gap length : 00:03:45

Track gain : -2.50 dB
Peak : 0.712524
CRC32 hash (test run) : 0BFF4D3C
CRC32 hash : 0BFF4D3C
CRC32 hash (skip zero) : F20B817B
AccurateRip v1 signature : 7B92110C
AccurateRip v2 signature : BE2150EA
->Accurately ripped (v1+v2, confidence 7+5/18)
Statistics
Read error : 0
Jitter error (maybe fixed) : 0
Retry sector count : 0
Damaged sector count : 0

Track 14
Filename : /XLD/Sonates & Partitas pour violon seul [FLAC] [MP3 V0]/CD02/14 Johanna Martzy - V-Bourrée.mp3
/XLD/Sonates & Partitas pour violon seul [FLAC] [FLAC]/CD02/14 Johanna Martzy - V-Bourrée.flac
Pre-gap length : 00:02:02

Track gain : -1.32 dB
Peak : 0.494568
CRC32 hash (test run) : 6C4B24B4
CRC32 hash : 6C4B24B4
CRC32 hash (skip zero) : 4B0284DD
AccurateRip v1 signature : B52626F7
AccurateRip v2 signature : 9F2F534D
->Accurately ripped (v1+v2, confidence 7+5/18)
Statistics
Read error : 0
Jitter error (maybe fixed) : 0
Retry sector count : 0
Damaged sector count : 0

Track 15
Filename : /XLD/Sonates & Partitas pour violon seul [FLAC] [MP3 V0]/CD02/15 Johanna Martzy - VI-Gigue.mp3
/XLD/Sonates & Partitas pour violon seul [FLAC] [FLAC]/CD02/15 Johanna Martzy - VI-Gigue.flac
Pre-gap length : 00:01:40

Track gain : -1.38 dB
Peak : 0.546967
CRC32 hash (test run) : C8CA3C44
CRC32 hash : C8CA3C44
CRC32 hash (skip zero) : 70EE4C9B
AccurateRip v1 signature : B23E82B8
AccurateRip v2 signature : C1E044E0
->Accurately ripped (v1+v2, confidence 7+5/18)
Statistics
Read error : 0
Jitter error (maybe fixed) : 0
Retry sector count : 0
Damaged sector count : 0

No errors occurred

End of status report

––-BEGIN XLD SIGNATURE––-
K5AM_kFexmdKXsZ_9yWR4QKpreOxn_EW9pQhll1Li23BYmh80ApBwQyMWM3WqVGXxn8NuFARcNTGdZBxXB4ntDKEyMK7S5WJgbr4RWm
––-END XLD SIGNATURE––-

X Lossless Decoder version 20161007 (149.3)

XLD extraction logfile from 2017-02-02 13:28:22 -0500

Edith Mathis, Theo Altmeyer, Alfred Lessing, Walter Thoene, Christfried Bickenbach / Bach: Le Petit Livre d'Anna-Magdalena Bach

Used Drive : HL-DT-ST DVDRW GS23N (revision SB10) (not found in database)
Media type : Pressed CD

Ripper mode : XLD Secure Ripper
Disable audio cache : OK for the drive with a cache less than 1375KiB
Make use of C2 pointers : NO
Read offset correction : 667
Max retry count : 100
Gap status : Analyzed, Appended (except HTOA)

TOC of the extracted CD
Track | Start | Length | Start sector | End sector
––––––––––––––––––––––––––––-
1 | 00:00:32 | 02:03:28 | 32 | 9284
2 | 02:03:60 | 01:29:07 | 9285 | 15966
3 | 03:32:67 | 01:03:43 | 15967 | 20734
4 | 04:36:35 | 00:47:25 | 20735 | 24284
5 | 05:23:60 | 01:08:02 | 24285 | 29386
6 | 06:31:62 | 00:47:00 | 29387 | 32911
7 | 07:18:62 | 05:17:45 | 32912 | 56731
8 | 12:36:32 | 01:06:63 | 56732 | 61744
9 | 13:43:20 | 01:32:37 | 61745 | 68681
10 | 15:15:57 | 01:15:05 | 68682 | 74311
11 | 16:30:62 | 01:00:18 | 74312 | 78829
12 | 17:31:05 | 04:35:25 | 78830 | 99479
13 | 22:06:30 | 01:03:25 | 99480 | 104229
14 | 23:09:55 | 01:21:60 | 104230 | 110364
15 | 24:31:40 | 00:48:62 | 110365 | 114026
16 | 25:20:27 | 00:46:63 | 114027 | 117539
17 | 26:07:15 | 04:24:57 | 117540 | 137396
18 | 30:31:72 | 01:25:70 | 137397 | 143841
19 | 31:57:67 | 01:13:50 | 143842 | 149366
20 | 33:11:42 | 01:34:38 | 149367 | 156454
21 | 34:46:05 | 00:56:72 | 156455 | 160726
22 | 35:43:02 | 02:33:45 | 160727 | 172246
23 | 38:16:47 | 01:42:43 | 172247 | 179939
24 | 39:59:15 | 01:44:62 | 179940 | 187801
25 | 41:44:02 | 02:01:20 | 187802 | 196896
26 | 43:45:22 | 02:05:08 | 196897 | 206279
27 | 45:50:30 | 01:10:15 | 206280 | 211544
28 | 47:00:45 | 02:10:10 | 211545 | 221304
29 | 49:10:55 | 01:08:17 | 221305 | 226421
30 | 50:18:72 | 01:40:48 | 226422 | 233969
31 | 51:59:45 | 01:19:67 | 233970 | 239961

List of alternate offset correction values
# | Absolute | Relative | Confidence
–––––––––––––––––––––
1 | 3 | -664 | 3
2 | -83 | -750 | 2


AccurateRip Summary (DiscID: 003aa290-0512b78f-ac0c7f1f)
Track 01 : OK (v1+v2, confidence 10/15)
Track 02 : OK (v1+v2, confidence 10/15)
Track 03 : OK (v1+v2, confidence 10/15)
Track 04 : OK (v1+v2, confidence 10/15)
Track 05 : OK (v1+v2, confidence 10/15)
Track 06 : OK (v1+v2, confidence 10/15)
Track 07 : OK (v1+v2, confidence 10/15)
Track 08 : OK (v1+v2, confidence 10/15)
Track 09 : OK (v1+v2, confidence 10/15)
Track 10 : OK (v1+v2, confidence 10/15)
Track 11 : OK (v1+v2, confidence 10/15)
Track 12 : OK (v1+v2, confidence 10/15)
Track 13 : OK (v1+v2, confidence 10/15)
Track 14 : OK (v1+v2, confidence 10/15)
Track 15 : OK (v1+v2, confidence 10/15)
Track 16 : OK (v1+v2, confidence 10/15)
Track 17 : OK (v1+v2, confidence 10/15)
Track 18 : OK (v1+v2, confidence 10/15)
Track 19 : OK (v1+v2, confidence 10/15)
Track 20 : OK (v1+v2, confidence 10/15)
Track 21 : OK (v1+v2, confidence 10/15)
Track 22 : OK (v1+v2, confidence 10/15)
Track 23 : OK (v1+v2, confidence 10/15)
Track 24 : OK (v1+v2, confidence 10/15)
Track 25 : OK (v1+v2, confidence 10/15)
Track 26 : OK (v1+v2, confidence 10/15)
Track 27 : OK (v1+v2, confidence 10/15)
Track 28 : OK (v1+v2, confidence 10/15)
Track 29 : OK (v1+v2, confidence 10/15)
Track 30 : OK (v1+v2, confidence 10/15)
Track 31 : OK (v1+v2, confidence 10/15)
->All tracks accurately ripped.

All Tracks
Album gain : 1.22 dB
Peak : 0.972961
Statistics
Read error : 0
Jitter error (maybe fixed) : 0
Retry sector count : 0
Damaged sector count : 0

Track 01
Filename : /XLD/Bach: Le Petit Livre d'Anna-Magdalena Bach [MP3 V0]/CD03/01 Edith Mathis, Theo Altmeyer, Alfred Lessing, Walter Thoene, Christfried Bickenbach - Praeludium en ut majeur BWV 846.mp3
/XLD/Bach: Le Petit Livre d'Anna-Magdalena Bach [FLAC]/CD03/01 Edith Mathis, Theo Altmeyer, Alfred Lessing, Walter Thoene, Christfried Bickenbach - Praeludium en ut majeur BWV 846.flac
Pre-gap length : 00:02:32

Track gain : 11.04 dB
Peak : 0.199280
CRC32 hash (test run) : 8187D27E
CRC32 hash : 8187D27E
CRC32 hash (skip zero) : 564695A4
AccurateRip v1 signature : 470870ED
AccurateRip v2 signature : B785271E
->Accurately ripped (v1+v2, confidence 5+5/15)
Statistics
Read error : 0
Jitter error (maybe fixed) : 0
Retry sector count : 0
Damaged sector count : 0

Track 02
Filename : /XLD/Bach: Le Petit Livre d'Anna-Magdalena Bach [MP3 V0]/CD03/02 Edith Mathis, Theo Altmeyer, Alfred Lessing, Walter Thoene, Christfried Bickenbach - Choral 'Dir, dir, Jehova will ich singen' BWV 299.mp3
/XLD/Bach: Le Petit Livre d'Anna-Magdalena Bach [FLAC]/CD03/02 Edith Mathis, Theo Altmeyer, Alfred Lessing, Walter Thoene, Christfried Bickenbach - Choral 'Dir, dir, Jehova will ich singen' BWV 299.flac
Pre-gap length : 00:02:55

Track gain : -5.22 dB
Peak : 0.972931
CRC32 hash (test run) : B5BA6A6B
CRC32 hash : B5BA6A6B
CRC32 hash (skip zero) : D9A2055D
AccurateRip v1 signature : A5692F5C
AccurateRip v2 signature : 14E76F34
->Accurately ripped (v1+v2, confidence 5+5/15)
Statistics
Read error : 0
Jitter error (maybe fixed) : 0
Retry sector count : 0
Damaged sector count : 0

Track 03
Filename : /XLD/Bach: Le Petit Livre d'Anna-Magdalena Bach [MP3 V0]/CD03/03 Edith Mathis, Theo Altmeyer, Alfred Lessing, Walter Thoene, Christfried Bickenbach - Polonaise en fa majeur BWV Anh.117b.mp3
/XLD/Bach: Le Petit Livre d'Anna-Magdalena Bach [FLAC]/CD03/03 Edith Mathis, Theo Altmeyer, Alfred Lessing, Walter Thoene, Christfried Bickenbach - Polonaise en fa majeur BWV Anh.117b.flac
Pre-gap length : 00:03:00

Track gain : 4.77 dB
Peak : 0.319214
CRC32 hash (test run) : CA21B448
CRC32 hash : CA21B448
CRC32 hash (skip zero) : DA08CC63
AccurateRip v1 signature : 0C22E76B
AccurateRip v2 signature : 3C956A28
->Accurately ripped (v1+v2, confidence 5+5/15)
Statistics
Read error : 0
Jitter error (maybe fixed) : 0
Retry sector count : 0
Damaged sector count : 0

Track 04
Filename : /XLD/Bach: Le Petit Livre d'Anna-Magdalena Bach [MP3 V0]/CD03/04 Edith Mathis, Theo Altmeyer, Alfred Lessing, Walter Thoene, Christfried Bickenbach - Menuet en re mineur BWV Anh.132.mp3
/XLD/Bach: Le Petit Livre d'Anna-Magdalena Bach [FLAC]/CD03/04 Edith Mathis, Theo Altmeyer, Alfred Lessing, Walter Thoene, Christfried Bickenbach - Menuet en re mineur BWV Anh.132.flac
Pre-gap length : 00:00:50

Track gain : 15.80 dB
Peak : 0.088989
CRC32 hash (test run) : 40EBDE7A
CRC32 hash : 40EBDE7A
CRC32 hash (skip zero) : E210F635
AccurateRip v1 signature : E751842B
AccurateRip v2 signature : 2B1DA980
->Accurately ripped (v1+v2, confidence 5+5/15)
Statistics
Read error : 0
Jitter error (maybe fixed) : 0
Retry sector count : 0
Damaged sector count : 0

Track 05
Filename : /XLD/Bach: Le Petit Livre d'Anna-Magdalena Bach [MP3 V0]/CD03/05 Edith Mathis, Theo Altmeyer, Alfred Lessing, Walter Thoene, Christfried Bickenbach - Polonaise en re mineur BWV Anh.128.mp3
/XLD/Bach: Le Petit Livre d'Anna-Magdalena Bach [FLAC]/CD03/05 Edith Mathis, Theo Altmeyer, Alfred Lessing, Walter Thoene, Christfried Bickenbach - Polonaise en re mineur BWV Anh.128.flac
Pre-gap length : 00:01:33

Track gain : 10.03 dB
Peak : 0.190582
CRC32 hash (test run) : 075693FE
CRC32 hash : 075693FE
CRC32 hash (skip zero) : 323F819C
AccurateRip v1 signature : 85A9839E
AccurateRip v2 signature : 7305EB36
->Accurately ripped (v1+v2, confidence 5+5/15)
Statistics
Read error : 0
Jitter error (maybe fixed) : 0
Retry sector count : 0
Damaged sector count : 0

Track 06
Filename : /XLD/Bach: Le Petit Livre d'Anna-Magdalena Bach [MP3 V0]/CD03/06 Edith Mathis, Theo Altmeyer, Alfred Lessing, Walter Thoene, Christfried Bickenbach - Musette en re majeur BWV Anh.126.mp3
/XLD/Bach: Le Petit Livre d'Anna-Magdalena Bach [FLAC]/CD03/06 Edith Mathis, Theo Altmeyer, Alfred Lessing, Walter Thoene, Christfried Bickenbach - Musette en re majeur BWV Anh.126.flac

Track gain : 7.46 dB
Peak : 0.247681
CRC32 hash (test run) : C6514292
CRC32 hash : C6514292
CRC32 hash (skip zero) : 49DBD9D3
AccurateRip v1 signature : 3DA0A4C5
AccurateRip v2 signature : 367E69B1
->Accurately ripped (v1+v2, confidence 5+5/15)
Statistics
Read error : 0
Jitter error (maybe fixed) : 0
Retry sector count : 0
Damaged sector count : 0

Track 07
Filename : /XLD/Bach: Le Petit Livre d'Anna-Magdalena Bach [MP3 V0]/CD03/07 Edith Mathis, Theo Altmeyer, Alfred Lessing, Walter Thoene, Christfried Bickenbach - Aria 'So oft ich meine Tabakpfeife' BWV 515a.mp3
/XLD/Bach: Le Petit Livre d'Anna-Magdalena Bach [FLAC]/CD03/07 Edith Mathis, Theo Altmeyer, Alfred Lessing, Walter Thoene, Christfried Bickenbach - Aria 'So oft ich meine Tabakpfeife' BWV 515a.flac
Pre-gap length : 00:00:57

Track gain : -0.68 dB
Peak : 0.972260
CRC32 hash (test run) : C7926D45
CRC32 hash : C7926D45
CRC32 hash (skip zero) : A065D639
AccurateRip v1 signature : 3D3D6563
AccurateRip v2 signature : 48076D5C
->Accurately ripped (v1+v2, confidence 5+5/15)
Statistics
Read error : 0
Jitter error (maybe fixed) : 0
Retry sector count : 0
Damaged sector count : 0

Track 08
Filename : /XLD/Bach: Le Petit Livre d'Anna-Magdalena Bach [MP3 V0]/CD03/08 Edith Mathis, Theo Altmeyer, Alfred Lessing, Walter Thoene, Christfried Bickenbach - Marche en re majeur BWV Anh.122.mp3
/XLD/Bach: Le Petit Livre d'Anna-Magdalena Bach [FLAC]/CD03/08 Edith Mathis, Theo Altmeyer, Alfred Lessing, Walter Thoene, Christfried Bickenbach - Marche en re majeur BWV Anh.122.flac
Pre-gap length : 00:02:07

Track gain : 10.58 dB
Peak : 0.186401
CRC32 hash (test run) : 60405E27
CRC32 hash : 60405E27
CRC32 hash (skip zero) : 30286CE1
AccurateRip v1 signature : F4EAE919
AccurateRip v2 signature : BCBD4E42
->Accurately ripped (v1+v2, confidence 5+5/15)
Statistics
Read error : 0
Jitter error (maybe fixed) : 0
Retry sector count : 0
Damaged sector count : 0

Track 09
Filename : /XLD/Bach: Le Petit Livre d'Anna-Magdalena Bach [MP3 V0]/CD03/09 Edith Mathis, Theo Altmeyer, Alfred Lessing, Walter Thoene, Christfried Bickenbach - Polonaise en sol mineur BWV Anh.125.mp3
/XLD/Bach: Le Petit Livre d'Anna-Magdalena Bach [FLAC]/CD03/09 Edith Mathis, Theo Altmeyer, Alfred Lessing, Walter Thoene, Christfried Bickenbach - Polonaise en sol mineur BWV Anh.125.flac

Track gain : 8.78 dB
Peak : 0.217896
CRC32 hash (test run) : 13993E0C
CRC32 hash : 13993E0C
CRC32 hash (skip zero) : 12358D7F
AccurateRip v1 signature : F59B1E40
AccurateRip v2 signature : 3C494845
->Accurately ripped (v1+v2, confidence 5+5/15)
Statistics
Read error : 0
Jitter error (maybe fixed) : 0
Retry sector count : 0
Damaged sector count : 0

Track 10
Filename : /XLD/Bach: Le Petit Livre d'Anna-Magdalena Bach [MP3 V0]/CD03/10 Edith Mathis, Theo Altmeyer, Alfred Lessing, Walter Thoene, Christfried Bickenbach - Marche en sol majeur BWV Anh.124.mp3
/XLD/Bach: Le Petit Livre d'Anna-Magdalena Bach [FLAC]/CD03/10 Edith Mathis, Theo Altmeyer, Alfred Lessing, Walter Thoene, Christfried Bickenbach - Marche en sol majeur BWV Anh.124.flac

Track gain : 4.14 dB
Peak : 0.346863
CRC32 hash (test run) : 3B99E435
CRC32 hash : 3B99E435
CRC32 hash (skip zero) : FB3ED529
AccurateRip v1 signature : BC790BF4
AccurateRip v2 signature : EA1A449D
->Accurately ripped (v1+v2, confidence 5+5/15)
Statistics
Read error : 0
Jitter error (maybe fixed) : 0
Retry sector count : 0
Damaged sector count : 0

Track 11
Filename : /XLD/Bach: Le Petit Livre d'Anna-Magdalena Bach [MP3 V0]/CD03/11 Edith Mathis, Theo Altmeyer, Alfred Lessing, Walter Thoene, Christfried Bickenbach - Menuet en ut mineur BWV Anh.121.mp3
/XLD/Bach: Le Petit Livre d'Anna-Magdalena Bach [FLAC]/CD03/11 Edith Mathis, Theo Altmeyer, Alfred Lessing, Walter Thoene, Christfried Bickenbach - Menuet en ut mineur BWV Anh.121.flac
Pre-gap length : 00:00:60

Track gain : 10.55 dB
Peak : 0.180267
CRC32 hash (test run) : 011C5785
CRC32 hash : 011C5785
CRC32 hash (skip zero) : 494DB4AA
AccurateRip v1 signature : E69DF390
AccurateRip v2 signature : 3E58C292
->Accurately ripped (v1+v2, confidence 5+5/15)
Statistics
Read error : 0
Jitter error (maybe fixed) : 0
Retry sector count : 0
Damaged sector count : 0

Track 12
Filename : /XLD/Bach: Le Petit Livre d'Anna-Magdalena Bach [MP3 V0]/CD03/12 Edith Mathis, Theo Altmeyer, Alfred Lessing, Walter Thoene, Christfried Bickenbach - Aria en sol majeur BWV 988.mp3
/XLD/Bach: Le Petit Livre d'Anna-Magdalena Bach [FLAC]/CD03/12 Edith Mathis, Theo Altmeyer, Alfred Lessing, Walter Thoene, Christfried Bickenbach - Aria en sol majeur BWV 988.flac
Pre-gap length : 00:00:58

Track gain : 8.93 dB
Peak : 0.257935
CRC32 hash (test run) : B6223EA4
CRC32 hash : B6223EA4
CRC32 hash (skip zero) : C5AFAD49
AccurateRip v1 signature : 5EAD8739
AccurateRip v2 signature : BD5E1BC2
->Accurately ripped (v1+v2, confidence 5+5/15)
Statistics
Read error : 0
Jitter error (maybe fixed) : 0
Retry sector count : 0
Damaged sector count : 0

Track 13
Filename : /XLD/Bach: Le Petit Livre d'Anna-Magdalena Bach [MP3 V0]/CD03/13 Edith Mathis, Theo Altmeyer, Alfred Lessing, Walter Thoene, Christfried Bickenbach - Choral 'Gib dir zufrieden' BWV 510.mp3
/XLD/Bach: Le Petit Livre d'Anna-Magdalena Bach [FLAC]/CD03/13 Edith Mathis, Theo Altmeyer, Alfred Lessing, Walter Thoene, Christfried Bickenbach - Choral 'Gib dir zufrieden' BWV 510.flac
Pre-gap length : 00:03:38

Track gain : -0.34 dB
Peak : 0.758209
CRC32 hash (test run) : C67C7BB2
CRC32 hash : C67C7BB2
CRC32 hash (skip zero) : CBB034C4
AccurateRip v1 signature : 98D487D8
AccurateRip v2 signature : E84525DE
->Accurately ripped (v1+v2, confidence 5+5/15)
Statistics
Read error : 0
Jitter error (maybe fixed) : 0
Retry sector count : 0
Damaged sector count : 0

Track 14
Filename : /XLD/Bach: Le Petit Livre d'Anna-Magdalena Bach [MP3 V0]/CD03/14 Edith Mathis, Theo Altmeyer, Alfred Lessing, Walter Thoene, Christfried Bickenbach - Choral 'Wer nur den lieben Gott laesst walten' BWV 691.mp3
/XLD/Bach: Le Petit Livre d'Anna-Magdalena Bach [FLAC]/CD03/14 Edith Mathis, Theo Altmeyer, Alfred Lessing, Walter Thoene, Christfried Bickenbach - Choral 'Wer nur den lieben Gott laesst walten' BWV 691.flac
Pre-gap length : 00:01:55

Track gain : 10.44 dB
Peak : 0.181671
CRC32 hash (test run) : 328E034B
CRC32 hash : 328E034B
CRC32 hash (skip zero) : 1EFCC4FC
AccurateRip v1 signature : 23C27358
AccurateRip v2 signature : B8E8FD70
->Accurately ripped (v1+v2, confidence 5+5/15)
Statistics
Read error : 0
Jitter error (maybe fixed) : 0
Retry sector count : 0
Damaged sector count : 0

Track 15
Filename : /XLD/Bach: Le Petit Livre d'Anna-Magdalena Bach [MP3 V0]/CD03/15 Edith Mathis, Theo Altmeyer, Alfred Lessing, Walter Thoene, Christfried Bickenbach - Choral 'Schaffs mit mir, Gott' BWV 514.mp3
/XLD/Bach: Le Petit Livre d'Anna-Magdalena Bach [FLAC]/CD03/15 Edith Mathis, Theo Altmeyer, Alfred Lessing, Walter Thoene, Christfried Bickenbach - Choral 'Schaffs mit mir, Gott' BWV 514.flac
Pre-gap length : 00:01:18

Track gain : -1.15 dB
Peak : 0.788361
CRC32 hash (test run) : 529177AF
CRC32 hash : 529177AF
CRC32 hash (skip zero) : 6E42174E
AccurateRip v1 signature : E4D9E1A6
AccurateRip v2 signature : E2248062
->Accurately ripped (v1+v2, confidence 5+5/15)
Statistics
Read error : 0
Jitter error (maybe fixed) : 0
Retry sector count : 0
Damaged sector count : 0

Track 16
Filename : /XLD/Bach: Le Petit Livre d'Anna-Magdalena Bach [MP3 V0]/CD03/16 Edith Mathis, Theo Altmeyer, Alfred Lessing, Walter Thoene, Christfried Bickenbach - Choral 'Wohl mir, ich bitt' in Jesu Namen' BWV 299.mp3
/XLD/Bach: Le Petit Livre d'Anna-Magdalena Bach [FLAC]/CD03/16 Edith Mathis, Theo Altmeyer, Alfred Lessing, Walter Thoene, Christfried Bickenbach - Choral 'Wohl mir, ich bitt' in Jesu Namen' BWV 299.flac
Pre-gap length : 00:00:70

Track gain : -5.60 dB
Peak : 0.972687
CRC32 hash (test run) : D3949CC2
CRC32 hash : D3949CC2
CRC32 hash (skip zero) : D9E32C05
AccurateRip v1 signature : 0A5361D7
AccurateRip v2 signature : 405BCBBE
->Accurately ripped (v1+v2, confidence 5+5/15)
Statistics
Read error : 0
Jitter error (maybe fixed) : 0
Retry sector count : 0
Damaged sector count : 0

Track 17
Filename : /XLD/Bach: Le Petit Livre d'Anna-Magdalena Bach [MP3 V0]/CD03/17 Edith Mathis, Theo Altmeyer, Alfred Lessing, Walter Thoene, Christfried Bickenbach - Les Bergeries, rondeau en si majeur BWV Anh.183.mp3
/XLD/Bach: Le Petit Livre d'Anna-Magdalena Bach [FLAC]/CD03/17 Edith Mathis, Theo Altmeyer, Alfred Lessing, Walter Thoene, Christfried Bickenbach - Les Bergeries, rondeau en si majeur BWV Anh.183.flac
Pre-gap length : 00:02:40

Track gain : 9.83 dB
Peak : 0.195068
CRC32 hash (test run) : 8F42EE13
CRC32 hash : 8F42EE13
CRC32 hash (skip zero) : AF6D5F23
AccurateRip v1 signature : CFB1FDA1
AccurateRip v2 signature : D3D1421B
->Accurately ripped (v1+v2, confidence 5+5/15)
Statistics
Read error : 0
Jitter error (maybe fixed) : 0
Retry sector count : 0
Damaged sector count : 0

Track 18
Filename : /XLD/Bach: Le Petit Livre d'Anna-Magdalena Bach [MP3 V0]/CD03/18 Edith Mathis, Theo Altmeyer, Alfred Lessing, Walter Thoene, Christfried Bickenbach - Marche en mi bemol majeur BWV Anh.127.mp3
/XLD/Bach: Le Petit Livre d'Anna-Magdalena Bach [FLAC]/CD03/18 Edith Mathis, Theo Altmeyer, Alfred Lessing, Walter Thoene, Christfried Bickenbach - Marche en mi bemol majeur BWV Anh.127.flac
Pre-gap length : 00:01:02

Track gain : 5.37 dB
Peak : 0.322693
CRC32 hash (test run) : C8FB0D29
CRC32 hash : C8FB0D29
CRC32 hash (skip zero) : C682D190
AccurateRip v1 signature : 80080CE5
AccurateRip v2 signature : 70B971D0
->Accurately ripped (v1+v2, confidence 5+5/15)
Statistics
Read error : 0
Jitter error (maybe fixed) : 0
Retry sector count : 0
Damaged sector count : 0

Track 19
Filename : /XLD/Bach: Le Petit Livre d'Anna-Magdalena Bach [MP3 V0]/CD03/19 Edith Mathis, Theo Altmeyer, Alfred Lessing, Walter Thoene, Christfried Bickenbach - Menuet en si bemol majeur BWV Anh.118.mp3
/XLD/Bach: Le Petit Livre d'Anna-Magdalena Bach [FLAC]/CD03/19 Edith Mathis, Theo Altmeyer, Alfred Lessing, Walter Thoene, Christfried Bickenbach - Menuet en si bemol majeur BWV Anh.118.flac
Pre-gap length : 00:00:55

Track gain : 15.04 dB
Peak : 0.118988
CRC32 hash (test run) : C36608D0
CRC32 hash : C36608D0
CRC32 hash (skip zero) : 070D4F06
AccurateRip v1 signature : DCAB39B4
AccurateRip v2 signature : 1D950F59
->Accurately ripped (v1+v2, confidence 5+5/15)
Statistics
Read error : 0
Jitter error (maybe fixed) : 0
Retry sector count : 0
Damaged sector count : 0

Track 20
Filename : /XLD/Bach: Le Petit Livre d'Anna-Magdalena Bach [MP3 V0]/CD03/20 Edith Mathis, Theo Altmeyer, Alfred Lessing, Walter Thoene, Christfried Bickenbach - Menuet en fa majeur BWV Anh.113.mp3
/XLD/Bach: Le Petit Livre d'Anna-Magdalena Bach [FLAC]/CD03/20 Edith Mathis, Theo Altmeyer, Alfred Lessing, Walter Thoene, Christfried Bickenbach - Menuet en fa majeur BWV Anh.113.flac
Pre-gap length : 00:01:00

Track gain : 15.54 dB
Peak : 0.121155
CRC32 hash (test run) : 660EF7E1
CRC32 hash : 660EF7E1
CRC32 hash (skip zero) : 1253DA61
AccurateRip v1 signature : 18CB76C5
AccurateRip v2 signature : F532EEED
->Accurately ripped (v1+v2, confidence 5+5/15)
Statistics
Read error : 0
Jitter error (maybe fixed) : 0
Retry sector count : 0
Damaged sector count : 0

Track 21
Filename : /XLD/Bach: Le Petit Livre d'Anna-Magdalena Bach [MP3 V0]/CD03/21 Edith Mathis, Theo Altmeyer, Alfred Lessing, Walter Thoene, Christfried Bickenbach - Polonaise en sol mineur BWV Anh.119.mp3
/XLD/Bach: Le Petit Livre d'Anna-Magdalena Bach [FLAC]/CD03/21 Edith Mathis, Theo Altmeyer, Alfred Lessing, Walter Thoene, Christfried Bickenbach - Polonaise en sol mineur BWV Anh.119.flac
Pre-gap length : 00:01:38

Track gain : 14.60 dB
Peak : 0.107697
CRC32 hash (test run) : 80C28B1D
CRC32 hash : 80C28B1D
CRC32 hash (skip zero) : 67747EBD
AccurateRip v1 signature : 1334A46B
AccurateRip v2 signature : 4D0AEF7F
->Accurately ripped (v1+v2, confidence 5+5/15)
Statistics
Read error : 0
Jitter error (maybe fixed) : 0
Retry sector count : 0
Damaged sector count : 0

Track 22
Filename : /XLD/Bach: Le Petit Livre d'Anna-Magdalena Bach [MP3 V0]/CD03/22 Edith Mathis, Theo Altmeyer, Alfred Lessing, Walter Thoene, Christfried Bickenbach - Aria de Giovanini 'Willst du dein Herz mir schenken' BWV 518.mp3
/XLD/Bach: Le Petit Livre d'Anna-Magdalena Bach [FLAC]/CD03/22 Edith Mathis, Theo Altmeyer, Alfred Lessing, Walter Thoene, Christfried Bickenbach - Aria de Giovanini 'Willst du dein Herz mir schenken' BWV 518.flac
Pre-gap length : 00:03:05

Track gain : 1.21 dB
Peak : 0.616882
CRC32 hash (test run) : 3B6A3ACF
CRC32 hash : 3B6A3ACF
CRC32 hash (skip zero) : E8BA8D2B
AccurateRip v1 signature : B27765CC
AccurateRip v2 signature : DF59E0F6
->Accurately ripped (v1+v2, confidence 5+5/15)
Statistics
Read error : 0
Jitter error (maybe fixed) : 0
Retry sector count : 0
Damaged sector count : 0

Track 23
Filename : /XLD/Bach: Le Petit Livre d'Anna-Magdalena Bach [MP3 V0]/CD03/23 Edith Mathis, Theo Altmeyer, Alfred Lessing, Walter Thoene, Christfried Bickenbach - Menuet en sol majeur BWV Anh.116.mp3
/XLD/Bach: Le Petit Livre d'Anna-Magdalena Bach [FLAC]/CD03/23 Edith Mathis, Theo Altmeyer, Alfred Lessing, Walter Thoene, Christfried Bickenbach - Menuet en sol majeur BWV Anh.116.flac
Pre-gap length : 00:02:00

Track gain : 8.13 dB
Peak : 0.268219
CRC32 hash (test run) : 3B13B9FB
CRC32 hash : 3B13B9FB
CRC32 hash (skip zero) : 3AAE06D9
AccurateRip v1 signature : FDE1A81D
AccurateRip v2 signature : E2BB2F64
->Accurately ripped (v1+v2, confidence 5+5/15)
Statistics
Read error : 0
Jitter error (maybe fixed) : 0
Retry sector count : 0
Damaged sector count : 0

Track 24
Filename : /XLD/Bach: Le Petit Livre d'Anna-Magdalena Bach [MP3 V0]/CD03/24 Edith Mathis, Theo Altmeyer, Alfred Lessing, Walter Thoene, Christfried Bickenbach - Polonaise en sol majeur BWV Anh.130.mp3
/XLD/Bach: Le Petit Livre d'Anna-Magdalena Bach [FLAC]/CD03/24 Edith Mathis, Theo Altmeyer, Alfred Lessing, Walter Thoene, Christfried Bickenbach - Polonaise en sol majeur BWV Anh.130.flac
Pre-gap length : 00:01:03

Track gain : 8.60 dB
Peak : 0.263824
CRC32 hash (test run) : 81CCC44E
CRC32 hash : 81CCC44E
CRC32 hash (skip zero) : CF3238F7
AccurateRip v1 signature : B51C3492
AccurateRip v2 signature : 0785A16A
->Accurately ripped (v1+v2, confidence 5+5/15)
Statistics
Read error : 0
Jitter error (maybe fixed) : 0
Retry sector count : 0
Damaged sector count : 0

Track 25
Filename : /XLD/Bach: Le Petit Livre d'Anna-Magdalena Bach [MP3 V0]/CD03/25 Edith Mathis, Theo Altmeyer, Alfred Lessing, Walter Thoene, Christfried Bickenbach - Menuets en sol majeur & en sol mineur BWV Anh.114,115.mp3
/XLD/Bach: Le Petit Livre d'Anna-Magdalena Bach [FLAC]/CD03/25 Edith Mathis, Theo Altmeyer, Alfred Lessing, Walter Thoene, Christfried Bickenbach - Menuets en sol majeur & en sol mineur BWV Anh.114,115.flac
Pre-gap length : 00:01:42

Track gain : 11.52 dB
Peak : 0.240326
CRC32 hash (test run) : 4A5B8A7F
CRC32 hash : 4A5B8A7F
CRC32 hash (skip zero) : BB9FAF5E
AccurateRip v1 signature : D4D26A0A
AccurateRip v2 signature : 7C64526D
->Accurately ripped (v1+v2, confidence 5+5/15)
Statistics
Read error : 0
Jitter error (maybe fixed) : 0
Retry sector count : 0
Damaged sector count : 0

Track 26
Filename : /XLD/Bach: Le Petit Livre d'Anna-Magdalena Bach [MP3 V0]/CD03/26 Edith Mathis, Theo Altmeyer, Alfred Lessing, Walter Thoene, Christfried Bickenbach - Solo per il cembalo en mi bemol majeur BWV Anh.129.mp3
/XLD/Bach: Le Petit Livre d'Anna-Magdalena Bach [FLAC]/CD03/26 Edith Mathis, Theo Altmeyer, Alfred Lessing, Walter Thoene, Christfried Bickenbach - Solo per il cembalo en mi bemol majeur BWV Anh.129.flac
Pre-gap length : 00:02:67

Track gain : 7.97 dB
Peak : 0.275238
CRC32 hash (test run) : F2E5F47B
CRC32 hash : F2E5F47B
CRC32 hash (skip zero) : 1871A0E1
AccurateRip v1 signature : 84951E95
AccurateRip v2 signature : 014E6E9E
->Accurately ripped (v1+v2, confidence 5+5/15)
Statistics
Read error : 0
Jitter error (maybe fixed) : 0
Retry sector count : 0
Damaged sector count : 0

Track 27
Filename : /XLD/Bach: Le Petit Livre d'Anna-Magdalena Bach [MP3 V0]/CD03/27 Edith Mathis, Theo Altmeyer, Alfred Lessing, Walter Thoene, Christfried Bickenbach - Aria 'Gedenke doch, mein Geist zurueck' BWV 509.mp3
/XLD/Bach: Le Petit Livre d'Anna-Magdalena Bach [FLAC]/CD03/27 Edith Mathis, Theo Altmeyer, Alfred Lessing, Walter Thoene, Christfried Bickenbach - Aria 'Gedenke doch, mein Geist zurueck' BWV 509.flac
Pre-gap length : 00:02:15

Track gain : -1.20 dB
Peak : 0.899323
CRC32 hash (test run) : BD502DFB
CRC32 hash : BD502DFB
CRC32 hash (skip zero) : F02AA549
AccurateRip v1 signature : 77C8779B
AccurateRip v2 signature : E5B65846
->Accurately ripped (v1+v2, confidence 5+5/15)
Statistics
Read error : 0
Jitter error (maybe fixed) : 0
Retry sector count : 0
Damaged sector count : 0

Track 28
Filename : /XLD/Bach: Le Petit Livre d'Anna-Magdalena Bach [MP3 V0]/CD03/28 Edith Mathis, Theo Altmeyer, Alfred Lessing, Walter Thoene, Christfried Bickenbach - Aria 'Bist du bei mir' BWV 508.mp3
/XLD/Bach: Le Petit Livre d'Anna-Magdalena Bach [FLAC]/CD03/28 Edith Mathis, Theo Altmeyer, Alfred Lessing, Walter Thoene, Christfried Bickenbach - Aria 'Bist du bei mir' BWV 508.flac
Pre-gap length : 00:01:15

Track gain : -4.41 dB
Peak : 0.972961
CRC32 hash (test run) : E370EB7F
CRC32 hash : E370EB7F
CRC32 hash (skip zero) : BF64C302
AccurateRip v1 signature : BD7CA0D0
AccurateRip v2 signature : 72013CF9
->Accurately ripped (v1+v2, confidence 5+5/15)
Statistics
Read error : 0
Jitter error (maybe fixed) : 0
Retry sector count : 0
Damaged sector count : 0

Track 29
Filename : /XLD/Bach: Le Petit Livre d'Anna-Magdalena Bach [MP3 V0]/CD03/29 Edith Mathis, Theo Altmeyer, Alfred Lessing, Walter Thoene, Christfried Bickenbach - Choral 'O Ewigkeit, du Donnerwort' BWV 513.mp3
/XLD/Bach: Le Petit Livre d'Anna-Magdalena Bach [FLAC]/CD03/29 Edith Mathis, Theo Altmeyer, Alfred Lessing, Walter Thoene, Christfried Bickenbach - Choral 'O Ewigkeit, du Donnerwort' BWV 513.flac
Pre-gap length : 00:03:43

Track gain : -0.69 dB
Peak : 0.807526
CRC32 hash (test run) : 8E6E291F
CRC32 hash : 8E6E291F
CRC32 hash (skip zero) : B0EC423C
AccurateRip v1 signature : D3E83453
AccurateRip v2 signature : 1DF7428E
->Accurately ripped (v1+v2, confidence 5+5/15)
Statistics
Read error : 0
Jitter error (maybe fixed) : 0
Retry sector count : 0
Damaged sector count : 0

Track 30
Filename : /XLD/Bach: Le Petit Livre d'Anna-Magdalena Bach [MP3 V0]/CD03/30 Edith Mathis, Theo Altmeyer, Alfred Lessing, Walter Thoene, Christfried Bickenbach - Aria 'Warum betruebst du dich' BWV 516.mp3
/XLD/Bach: Le Petit Livre d'Anna-Magdalena Bach [FLAC]/CD03/30 Edith Mathis, Theo Altmeyer, Alfred Lessing, Walter Thoene, Christfried Bickenbach - Aria 'Warum betruebst du dich' BWV 516.flac
Pre-gap length : 00:01:70

Track gain : 1.95 dB
Peak : 0.481873
CRC32 hash (test run) : E409445C
CRC32 hash : E409445C
CRC32 hash (skip zero) : F6EA0131
AccurateRip v1 signature : 6AF94B90
AccurateRip v2 signature : E9D7C72E
->Accurately ripped (v1+v2, confidence 5+5/15)
Statistics
Read error : 0
Jitter error (maybe fixed) : 0
Retry sector count : 0
Damaged sector count : 0

Track 31
Filename : /XLD/Bach: Le Petit Livre d'Anna-Magdalena Bach [MP3 V0]/CD03/31 Edith Mathis, Theo Altmeyer, Alfred Lessing, Walter Thoene, Christfried Bickenbach - Choral 'Wie wohl ist mir, o Freund der Seelen' BWV 517.mp3
/XLD/Bach: Le Petit Livre d'Anna-Magdalena Bach [FLAC]/CD03/31 Edith Mathis, Theo Altmeyer, Alfred Lessing, Walter Thoene, Christfried Bickenbach - Choral 'Wie wohl ist mir, o Freund der Seelen' BWV 517.flac
Pre-gap length : 00:02:63

Track gain : -4.30 dB
Peak : 0.886414
CRC32 hash (test run) : 23DB4C25
CRC32 hash : 23DB4C25
CRC32 hash (skip zero) : 27371CB9
AccurateRip v1 signature : 9C7F0FAD
AccurateRip v2 signature : 5D0F2B0C
->Accurately ripped (v1+v2, confidence 5+5/15)
Statistics
Read error : 0
Jitter error (maybe fixed) : 0
Retry sector count : 0
Damaged sector count : 0

No errors occurred

End of status report

––-BEGIN XLD SIGNATURE––-
BK4Qnp1HzMY8lCnJvyWLgHSBeMNtupdw98Zu1VmwsyupqIUyhrp2baGMlo6JfyBHHAitKRSpD6uEHWAjExjo5ORZVDo9lBRHS3mS_oW
––-END XLD SIGNATURE––-

X Lossless Decoder version 20161007 (149.3)

XLD extraction logfile from 2017-02-02 14:22:13 -0500

Johanna Martzy/Janos Starker / Bach : Suites pour violoncelle seul

Used Drive : HL-DT-ST DVDRW GS23N (revision SB10) (not found in database)
Media type : Pressed CD

Ripper mode : XLD Secure Ripper
Disable audio cache : OK for the drive with a cache less than 1375KiB
Make use of C2 pointers : NO
Read offset correction : 667
Max retry count : 100
Gap status : Analyzed, Appended (except HTOA)

TOC of the extracted CD
Track | Start | Length | Start sector | End sector
––––––––––––––––––––––––––––-
1 | 00:00:32 | 02:12:35 | 32 | 9966
2 | 02:12:67 | 04:40:25 | 9967 | 30991
3 | 06:53:17 | 02:20:30 | 30992 | 41521
4 | 09:13:47 | 03:22:18 | 41522 | 56689
5 | 12:35:65 | 02:53:67 | 56690 | 69731
6 | 15:29:57 | 01:30:60 | 69732 | 76541
7 | 17:00:42 | 03:48:45 | 76542 | 93686
8 | 20:49:12 | 03:47:43 | 93687 | 110754
9 | 24:36:55 | 01:39:15 | 110755 | 118194
10 | 26:15:70 | 03:54:52 | 118195 | 135796
11 | 30:10:47 | 02:38:08 | 135797 | 147654
12 | 32:48:55 | 01:44:35 | 147655 | 155489
13 | 34:33:15 | 04:12:00 | 155490 | 174389
14 | 38:45:15 | 03:15:32 | 174390 | 189046
15 | 42:00:47 | 02:16:35 | 189047 | 199281
16 | 44:17:07 | 03:09:68 | 199282 | 213524
17 | 47:27:00 | 03:28:37 | 213525 | 229161
18 | 50:55:37 | 02:02:23 | 229162 | 238334

List of alternate offset correction values
# | Absolute | Relative | Confidence
–––––––––––––––––––––
1 | -83 | -750 | 4
2 | 3 | -664 | 4


AccurateRip Summary (DiscID: 0022f46d-01d11993-f90c6912)
Track 01 : OK (v1+v2, confidence 10/16)
Track 02 : OK (v1+v2, confidence 10/18)
Track 03 : OK (v1+v2, confidence 10/18)
Track 04 : OK (v1+v2, confidence 10/18)
Track 05 : OK (v1+v2, confidence 10/18)
Track 06 : OK (v1+v2, confidence 10/18)
Track 07 : OK (v1+v2, confidence 10/18)
Track 08 : OK (v1+v2, confidence 10/18)
Track 09 : OK (v1+v2, confidence 10/18)
Track 10 : OK (v1+v2, confidence 10/18)
Track 11 : OK (v1+v2, confidence 10/18)
Track 12 : OK (v1+v2, confidence 10/18)
Track 13 : OK (v1+v2, confidence 10/18)
Track 14 : OK (v1+v2, confidence 10/18)
Track 15 : OK (v1+v2, confidence 10/18)
Track 16 : OK (v1+v2, confidence 10/18)
Track 17 : OK (v1+v2, confidence 9/17)
Track 18 : OK (v1+v2, confidence 10/18)
->All tracks accurately ripped.

All Tracks
Album gain : 2.43 dB
Peak : 0.614105
Statistics
Read error : 0
Jitter error (maybe fixed) : 0
Retry sector count : 0
Damaged sector count : 0

Track 01
Filename : /XLD/Bach : Suites pour violoncelle seul [MP3 V0]/CD04/01 Janos Starker - I - Prelude.mp3
/XLD/Bach : Suites pour violoncelle seul [FLAC]/CD04/01 Janos Starker - I - Prelude.flac
Pre-gap length : 00:02:32

Track gain : 3.33 dB
Peak : 0.516541
CRC32 hash (test run) : 248259FD
CRC32 hash : 248259FD
CRC32 hash (skip zero) : 60BC340B
AccurateRip v1 signature : 1723B807
AccurateRip v2 signature : 4DDB8254
->Accurately ripped (v1+v2, confidence 4+6/16)
Statistics
Read error : 0
Jitter error (maybe fixed) : 0
Retry sector count : 0
Damaged sector count : 0

Track 02
Filename : /XLD/Bach : Suites pour violoncelle seul [MP3 V0]/CD04/02 Janos Starker - II - Allemande.mp3
/XLD/Bach : Suites pour violoncelle seul [FLAC]/CD04/02 Janos Starker - II - Allemande.flac
Pre-gap length : 00:02:02

Track gain : 7.37 dB
Peak : 0.363647
CRC32 hash (test run) : 3B4FD4CF
CRC32 hash : 3B4FD4CF
CRC32 hash (skip zero) : B1E34E6F
AccurateRip v1 signature : B3D54E78
AccurateRip v2 signature : 95C8726E
->Accurately ripped (v1+v2, confidence 4+6/18)
Statistics
Read error : 0
Jitter error (maybe fixed) : 0
Retry sector count : 0
Damaged sector count : 0

Track 03
Filename : /XLD/Bach : Suites pour violoncelle seul [MP3 V0]/CD04/03 Janos Starker - III - Courante.mp3
/XLD/Bach : Suites pour violoncelle seul [FLAC]/CD04/03 Janos Starker - III - Courante.flac
Pre-gap length : 00:01:72

Track gain : 3.16 dB
Peak : 0.547577
CRC32 hash (test run) : 7B39ED44
CRC32 hash : 7B39ED44
CRC32 hash (skip zero) : 9088FB37
AccurateRip v1 signature : BEA44538
AccurateRip v2 signature : 78D498BB
->Accurately ripped (v1+v2, confidence 4+6/18)
Statistics
Read error : 0
Jitter error (maybe fixed) : 0
Retry sector count : 0
Damaged sector count : 0

Track 04
Filename : /XLD/Bach : Suites pour violoncelle seul [MP3 V0]/CD04/04 Janos Starker - IV - Sarabande.mp3
/XLD/Bach : Suites pour violoncelle seul [FLAC]/CD04/04 Janos Starker - IV - Sarabande.flac
Pre-gap length : 00:02:02

Track gain : 7.07 dB
Peak : 0.359985
CRC32 hash (test run) : CC5EBDD7
CRC32 hash : CC5EBDD7
CRC32 hash (skip zero) : 97DABB21
AccurateRip v1 signature : FB24A386
AccurateRip v2 signature : 4A8661D1
->Accurately ripped (v1+v2, confidence 4+6/18)
Statistics
Read error : 0
Jitter error (maybe fixed) : 0
Retry sector count : 0
Damaged sector count : 0

Track 05
Filename : /XLD/Bach : Suites pour violoncelle seul [MP3 V0]/CD04/05 Janos Starker - V - Menuets I & II.mp3
/XLD/Bach : Suites pour violoncelle seul [FLAC]/CD04/05 Janos Starker - V - Menuets I & II.flac
Pre-gap length : 00:02:15

Track gain : 5.00 dB
Peak : 0.336060
CRC32 hash (test run) : D1F5AA98
CRC32 hash : D1F5AA98
CRC32 hash (skip zero) : E466CC2E
AccurateRip v1 signature : 5140404B
AccurateRip v2 signature : 59BF4CDD
->Accurately ripped (v1+v2, confidence 4+6/18)
Statistics
Read error : 0
Jitter error (maybe fixed) : 0
Retry sector count : 0
Damaged sector count : 0

Track 06
Filename : /XLD/Bach : Suites pour violoncelle seul [MP3 V0]/CD04/06 Janos Starker - VI - Gigue.mp3
/XLD/Bach : Suites pour violoncelle seul [FLAC]/CD04/06 Janos Starker - VI - Gigue.flac
Pre-gap length : 00:01:60

Track gain : 2.76 dB
Peak : 0.415802
CRC32 hash (test run) : FCCE2DB4
CRC32 hash : FCCE2DB4
CRC32 hash (skip zero) : 26A39270
AccurateRip v1 signature : 28C57F10
AccurateRip v2 signature : 31BEF63C
->Accurately ripped (v1+v2, confidence 4+6/18)
Statistics
Read error : 0
Jitter error (maybe fixed) : 0
Retry sector count : 0
Damaged sector count : 0

Track 07
Filename : /XLD/Bach : Suites pour violoncelle seul [MP3 V0]/CD04/07 Janos Starker - I - Prelude.mp3
/XLD/Bach : Suites pour violoncelle seul [FLAC]/CD04/07 Janos Starker - I - Prelude.flac
Pre-gap length : 00:05:70

Track gain : 0.36 dB
Peak : 0.614105
CRC32 hash (test run) : 49EC8C11
CRC32 hash : 49EC8C11
CRC32 hash (skip zero) : 8E3972ED
AccurateRip v1 signature : E21FEDD9
AccurateRip v2 signature : 9EFFB51B
->Accurately ripped (v1+v2, confidence 4+6/18)
Statistics
Read error : 0
Jitter error (maybe fixed) : 0
Retry sector count : 0
Damaged sector count : 0

Track 08
Filename : /XLD/Bach : Suites pour violoncelle seul [MP3 V0]/CD04/08 Janos Starker - II - Allemande.mp3
/XLD/Bach : Suites pour violoncelle seul [FLAC]/CD04/08 Janos Starker - II - Allemande.flac
Pre-gap length : 00:03:50

Track gain : 3.24 dB
Peak : 0.494263
CRC32 hash (test run) : 8B23A9BA
CRC32 hash : 8B23A9BA
CRC32 hash (skip zero) : 4C4F43C7
AccurateRip v1 signature : 02BE8B5D
AccurateRip v2 signature : 331362F4
->Accurately ripped (v1+v2, confidence 4+6/18)
Statistics
Read error : 0
Jitter error (maybe fixed) : 0
Retry sector count : 0
Damaged sector count : 0

Track 09
Filename : /XLD/Bach : Suites pour violoncelle seul [MP3 V0]/CD04/09 Janos Starker - III - Courante.mp3
/XLD/Bach : Suites pour violoncelle seul [FLAC]/CD04/09 Janos Starker - III - Courante.flac
Pre-gap length : 00:05:08

Track gain : 2.43 dB
Peak : 0.501984
CRC32 hash (test run) : 404FF069
CRC32 hash : 404FF069
CRC32 hash (skip zero) : 13242958
AccurateRip v1 signature : 7DACFEDC
AccurateRip v2 signature : 9685D3D4
->Accurately ripped (v1+v2, confidence 4+6/18)
Statistics
Read error : 0
Jitter error (maybe fixed) : 0
Retry sector count : 0
Damaged sector count : 0

Track 10
Filename : /XLD/Bach : Suites pour violoncelle seul [MP3 V0]/CD04/10 Janos Starker - IV - Sarabande.mp3
/XLD/Bach : Suites pour violoncelle seul [FLAC]/CD04/10 Janos Starker - IV - Sarabande.flac
Pre-gap length : 00:05:00

Track gain : 2.71 dB
Peak : 0.467072
CRC32 hash (test run) : 7FE71636
CRC32 hash : 7FE71636
CRC32 hash (skip zero) : 19718DF2
AccurateRip v1 signature : 923A50A4
AccurateRip v2 signature : E7160DAB
->Accurately ripped (v1+v2, confidence 4+6/18)
Statistics
Read error : 0
Jitter error (maybe fixed) : 0
Retry sector count : 0
Damaged sector count : 0

Track 11
Filename : /XLD/Bach : Suites pour violoncelle seul [MP3 V0]/CD04/11 Janos Starker - V - Menuets I & II.mp3
/XLD/Bach : Suites pour violoncelle seul [FLAC]/CD04/11 Janos Starker - V - Menuets I & II.flac
Pre-gap length : 00:04:45

Track gain : 2.50 dB
Peak : 0.462189
CRC32 hash (test run) : 2EF5BFD3
CRC32 hash : 2EF5BFD3
CRC32 hash (skip zero) : C1AE977E
AccurateRip v1 signature : 7992D855
AccurateRip v2 signature : 9775FE9D
->Accurately ripped (v1+v2, confidence 4+6/18)
Statistics
Read error : 0
Jitter error (maybe fixed) : 0
Retry sector count : 0
Damaged sector count : 0

Track 12
Filename : /XLD/Bach : Suites pour violoncelle seul [MP3 V0]/CD04/12 Janos Starker - VI - Gigue.mp3
/XLD/Bach : Suites pour violoncelle seul [FLAC]/CD04/12 Janos Starker - VI - Gigue.flac
Pre-gap length : 00:04:50

Track gain : -0.94 dB
Peak : 0.613800
CRC32 hash (test run) : FBE37A85
CRC32 hash : FBE37A85
CRC32 hash (skip zero) : E372C519
AccurateRip v1 signature : 9B2A270C
AccurateRip v2 signature : 31DD1AFE
->Accurately ripped (v1+v2, confidence 4+6/18)
Statistics
Read error : 0
Jitter error (maybe fixed) : 0
Retry sector count : 0
Damaged sector count : 0

Track 13
Filename : /XLD/Bach : Suites pour violoncelle seul [MP3 V0]/CD04/13 Janos Starker - I - Praeludium.mp3
/XLD/Bach : Suites pour violoncelle seul [FLAC]/CD04/13 Janos Starker - I - Praeludium.flac
Pre-gap length : 00:05:73

Track gain : 1.54 dB
Peak : 0.510559
CRC32 hash (test run) : C499DE1B
CRC32 hash : C499DE1B
CRC32 hash (skip zero) : 07B0466A
AccurateRip v1 signature : 9B8CA841
AccurateRip v2 signature : 861E4658
->Accurately ripped (v1+v2, confidence 4+6/18)
Statistics
Read error : 0
Jitter error (maybe fixed) : 0
Retry sector count : 0
Damaged sector count : 0

Track 14
Filename : /XLD/Bach : Suites pour violoncelle seul [MP3 V0]/CD04/14 Janos Starker - II - Allemande.mp3
/XLD/Bach : Suites pour violoncelle seul [FLAC]/CD04/14 Janos Starker - II - Allemande.flac
Pre-gap length : 00:01:73

Track gain : 3.87 dB
Peak : 0.404999
CRC32 hash (test run) : B0951767
CRC32 hash : B0951767
CRC32 hash (skip zero) : 8931E5AD
AccurateRip v1 signature : A3F7EEA2
AccurateRip v2 signature : FBCC2C2A
->Accurately ripped (v1+v2, confidence 4+6/18)
Statistics
Read error : 0
Jitter error (maybe fixed) : 0
Retry sector count : 0
Damaged sector count : 0

Track 15
Filename : /XLD/Bach : Suites pour violoncelle seul [MP3 V0]/CD04/15 Janos Starker - III - Courante.mp3
/XLD/Bach : Suites pour violoncelle seul [FLAC]/CD04/15 Janos Starker - III - Courante.flac
Pre-gap length : 00:01:35

Track gain : 2.87 dB
Peak : 0.557678
CRC32 hash (test run) : 3856E015
CRC32 hash : 3856E015
CRC32 hash (skip zero) : 393C370D
AccurateRip v1 signature : 8C339963
AccurateRip v2 signature : 263FCD13
->Accurately ripped (v1+v2, confidence 4+6/18)
Statistics
Read error : 0
Jitter error (maybe fixed) : 0
Retry sector count : 0
Damaged sector count : 0

Track 16
Filename : /XLD/Bach : Suites pour violoncelle seul [MP3 V0]/CD04/16 Janos Starker - IV - Sarabande.mp3
/XLD/Bach : Suites pour violoncelle seul [FLAC]/CD04/16 Janos Starker - IV - Sarabande.flac
Pre-gap length : 00:02:22

Track gain : 6.29 dB
Peak : 0.409790
CRC32 hash (test run) : 2C709DE1
CRC32 hash : 2C709DE1
CRC32 hash (skip zero) : 717BEF7C
AccurateRip v1 signature : 55EBA4CD
AccurateRip v2 signature : EECC00C1
->Accurately ripped (v1+v2, confidence 4+6/18)
Statistics
Read error : 0
Jitter error (maybe fixed) : 0
Retry sector count : 0
Damaged sector count : 0

Track 17
Filename : /XLD/Bach : Suites pour violoncelle seul [MP3 V0]/CD04/17 Janos Starker - V - Bourrees I & II.mp3
/XLD/Bach : Suites pour violoncelle seul [FLAC]/CD04/17 Janos Starker - V - Bourrees I & II.flac
Pre-gap length : 00:02:18

Track gain : 2.74 dB
Peak : 0.514069
CRC32 hash (test run) : 5281BCB7
CRC32 hash : 5281BCB7
CRC32 hash (skip zero) : 1539D151
AccurateRip v1 signature : 9618CFF6
AccurateRip v2 signature : 4B9D466B
->Accurately ripped (v1+v2, confidence 4+5/17)
Statistics
Read error : 0
Jitter error (maybe fixed) : 0
Retry sector count : 0
Damaged sector count : 0

Track 18
Filename : /XLD/Bach : Suites pour violoncelle seul [MP3 V0]/CD04/18 Janos Starker - VI - Gigue.mp3
/XLD/Bach : Suites pour violoncelle seul [FLAC]/CD04/18 Janos Starker - VI - Gigue.flac
Pre-gap length : 00:00:70

Track gain : 0.19 dB
Peak : 0.574982
CRC32 hash (test run) : 97923C86
CRC32 hash : 97923C86
CRC32 hash (skip zero) : A7041F0C
AccurateRip v1 signature : 83AB4429
AccurateRip v2 signature : 751955B4
->Accurately ripped (v1+v2, confidence 4+6/18)
Statistics
Read error : 0
Jitter error (maybe fixed) : 0
Retry sector count : 0
Damaged sector count : 0

No errors occurred

End of status report

––-BEGIN XLD SIGNATURE––-
ERJm1DdbJhNEJGADRGnZNci7DFaj47MBjsVv6UOXrBa8DRtGEgJ7nTRLE9LLr_m5ThWCeItZNggftma6oQsEnk4Qd3CbY7rH.2Q.LsS
––-END XLD SIGNATURE––-

X Lossless Decoder version 20161007 (149.3)

XLD extraction logfile from 2017-02-02 15:14:59 -0500

Johanna Martzy/Janos Starker / Bach : Suites pour violoncelle seul

Used Drive : HL-DT-ST DVDRW GS23N (revision SB10) (not found in database)
Media type : Pressed CD

Ripper mode : XLD Secure Ripper
Disable audio cache : OK for the drive with a cache less than 1375KiB
Make use of C2 pointers : NO
Read offset correction : 667
Max retry count : 100
Gap status : Analyzed, Appended (except HTOA)

TOC of the extracted CD
Track | Start | Length | Start sector | End sector
––––––––––––––––––––––––––––-
1 | 00:00:32 | 03:49:03 | 32 | 17209
2 | 03:49:35 | 03:13:57 | 17210 | 31741
3 | 07:03:17 | 02:22:18 | 31742 | 42409
4 | 09:25:35 | 03:19:72 | 42410 | 57406
5 | 12:45:32 | 03:53:03 | 57407 | 74884
6 | 16:38:35 | 01:29:30 | 74885 | 81589
7 | 18:07:65 | 06:56:42 | 81590 | 112831
8 | 25:04:32 | 04:49:65 | 112832 | 134571
9 | 29:54:22 | 02:12:38 | 134572 | 144509
10 | 32:06:60 | 02:48:72 | 144510 | 157181
11 | 34:55:57 | 04:07:65 | 157182 | 175771
12 | 39:03:47 | 01:34:45 | 175772 | 182866
13 | 40:38:17 | 04:25:48 | 182867 | 202789
14 | 45:03:65 | 04:54:40 | 202790 | 224879
15 | 49:58:30 | 02:29:47 | 224880 | 236101
16 | 52:28:02 | 03:26:48 | 236102 | 251599
17 | 55:54:50 | 03:44:40 | 251600 | 268439
18 | 59:39:15 | 02:33:65 | 268440 | 279979

List of alternate offset correction values
# | Absolute | Relative | Confidence
–––––––––––––––––––––
1 | 3 | -664 | 4
2 | -83 | -750 | 2


AccurateRip Summary (DiscID: 0028d843-0222433a-e90e9512)
Track 01 : OK (v1+v2, confidence 9/15)
Track 02 : OK (v1+v2, confidence 10/16)
Track 03 : OK (v1+v2, confidence 10/16)
Track 04 : OK (v1+v2, confidence 10/16)
Track 05 : OK (v1+v2, confidence 10/16)
Track 06 : OK (v1+v2, confidence 10/16)
Track 07 : OK (v1+v2, confidence 10/16)
Track 08 : OK (v1+v2, confidence 9/15)
Track 09 : OK (v1+v2, confidence 10/16)
Track 10 : OK (v1+v2, confidence 10/16)
Track 11 : OK (v1+v2, confidence 10/16)
Track 12 : OK (v1+v2, confidence 10/16)
Track 13 : OK (v1+v2, confidence 10/16)
Track 14 : OK (v1+v2, confidence 10/16)
Track 15 : OK (v1+v2, confidence 10/16)
Track 16 : OK (v1+v2, confidence 10/16)
Track 17 : OK (v1+v2, confidence 10/16)
Track 18 : OK (v1+v2, confidence 10/16)
->All tracks accurately ripped.

All Tracks
Album gain : 2.87 dB
Peak : 0.616028
Statistics
Read error : 0
Jitter error (maybe fixed) : 0
Retry sector count : 0
Damaged sector count : 0

Track 01
Filename : /XLD/Bach : Suites pour violoncelle seul [MP3 V0]/CD05/01 Janos Starker - I - Prelude.mp3
/XLD/Bach : Suites pour violoncelle seul [FLAC]/CD05/01 Janos Starker - I - Prelude.flac
Pre-gap length : 00:02:32

Track gain : 0.42 dB
Peak : 0.522888
CRC32 hash (test run) : 5B8AF7EF
CRC32 hash : 5B8AF7EF
CRC32 hash (skip zero) : E10E3ECB
AccurateRip v1 signature : 57B414FE
AccurateRip v2 signature : FA8E1DD5
->Accurately ripped (v1+v2, confidence 4+5/15)
Statistics
Read error : 0
Jitter error (maybe fixed) : 0
Retry sector count : 0
Damaged sector count : 0

Track 02
Filename : /XLD/Bach : Suites pour violoncelle seul [MP3 V0]/CD05/02 Janos Starker - II - Allemande.mp3
/XLD/Bach : Suites pour violoncelle seul [FLAC]/CD05/02 Janos Starker - II - Allemande.flac
Pre-gap length : 00:04:48

Track gain : 5.92 dB
Peak : 0.294464
CRC32 hash (test run) : CB93E535
CRC32 hash : CB93E535
CRC32 hash (skip zero) : ADE5C94D
AccurateRip v1 signature : 18CC622C
AccurateRip v2 signature : A88A86DC
->Accurately ripped (v1+v2, confidence 4+6/16)
Statistics
Read error : 0
Jitter error (maybe fixed) : 0
Retry sector count : 0
Damaged sector count : 0

Track 03
Filename : /XLD/Bach : Suites pour violoncelle seul [MP3 V0]/CD05/03 Janos Starker - III - Courante.mp3
/XLD/Bach : Suites pour violoncelle seul [FLAC]/CD05/03 Janos Starker - III - Courante.flac
Pre-gap length : 00:04:70

Track gain : 0.51 dB
Peak : 0.531281
CRC32 hash (test run) : DAA7AF5A
CRC32 hash : DAA7AF5A
CRC32 hash (skip zero) : C3719D95
AccurateRip v1 signature : 9D4264C7
AccurateRip v2 signature : 3B8F98B8
->Accurately ripped (v1+v2, confidence 4+6/16)
Statistics
Read error : 0
Jitter error (maybe fixed) : 0
Retry sector count : 0
Damaged sector count : 0

Track 04
Filename : /XLD/Bach : Suites pour violoncelle seul [MP3 V0]/CD05/04 Janos Starker - IV - Sarabande.mp3
/XLD/Bach : Suites pour violoncelle seul [FLAC]/CD05/04 Janos Starker - IV - Sarabande.flac
Pre-gap length : 00:04:68

Track gain : 4.88 dB
Peak : 0.437805
CRC32 hash (test run) : A7AB1F17
CRC32 hash : A7AB1F17
CRC32 hash (skip zero) : 91DF8502
AccurateRip v1 signature : A13E75EC
AccurateRip v2 signature : E6132C82
->Accurately ripped (v1+v2, confidence 4+6/16)
Statistics
Read error : 0
Jitter error (maybe fixed) : 0
Retry sector count : 0
Damaged sector count : 0

Track 05
Filename : /XLD/Bach : Suites pour violoncelle seul [MP3 V0]/CD05/05 Janos Starker - V - Bourrees I & II.mp3
/XLD/Bach : Suites pour violoncelle seul [FLAC]/CD05/05 Janos Starker - V - Bourrees I & II.flac
Pre-gap length : 00:05:25

Track gain : 1.71 dB
Peak : 0.560791
CRC32 hash (test run) : BA9D3329
CRC32 hash : BA9D3329
CRC32 hash (skip zero) : E4681E4A
AccurateRip v1 signature : DBB94CC4
AccurateRip v2 signature : A32507CD
->Accurately ripped (v1+v2, confidence 4+6/16)
Statistics
Read error : 0
Jitter error (maybe fixed) : 0
Retry sector count : 0
Damaged sector count : 0

Track 06
Filename : /XLD/Bach : Suites pour violoncelle seul [MP3 V0]/CD05/06 Janos Starker - VI - Gigue.mp3
/XLD/Bach : Suites pour violoncelle seul [FLAC]/CD05/06 Janos Starker - VI - Gigue.flac
Pre-gap length : 00:04:03

Track gain : 4.10 dB
Peak : 0.425781
CRC32 hash (test run) : 0ACAFD2D
CRC32 hash : 0ACAFD2D
CRC32 hash (skip zero) : 8CAC3EB4
AccurateRip v1 signature : D1157B7C
AccurateRip v2 signature : 60EE0ADD
->Accurately ripped (v1+v2, confidence 4+6/16)
Statistics
Read error : 0
Jitter error (maybe fixed) : 0
Retry sector count : 0
Damaged sector count : 0

Track 07
Filename : /XLD/Bach : Suites pour violoncelle seul [MP3 V0]/CD05/07 Janos Starker - I - Prelude.mp3
/XLD/Bach : Suites pour violoncelle seul [FLAC]/CD05/07 Janos Starker - I - Prelude.flac
Pre-gap length : 00:06:05

Track gain : 3.78 dB
Peak : 0.585205
CRC32 hash (test run) : DCC7FEC8
CRC32 hash : DCC7FEC8
CRC32 hash (skip zero) : DDB7C68F
AccurateRip v1 signature : B7BA929A
AccurateRip v2 signature : ADAA09FF
->Accurately ripped (v1+v2, confidence 4+6/16)
Statistics
Read error : 0
Jitter error (maybe fixed) : 0
Retry sector count : 0
Damaged sector count : 0

Track 08
Filename : /XLD/Bach : Suites pour violoncelle seul [MP3 V0]/CD05/08 Janos Starker - II - Allemande.mp3
/XLD/Bach : Suites pour violoncelle seul [FLAC]/CD05/08 Janos Starker - II - Allemande.flac
Pre-gap length : 00:05:12

Track gain : 6.30 dB
Peak : 0.351776
CRC32 hash (test run) : 01BD3E64
CRC32 hash : 01BD3E64
CRC32 hash (skip zero) : 623C64F5
AccurateRip v1 signature : 48F0C43F
AccurateRip v2 signature : 650EC0E6
->Accurately ripped (v1+v2, confidence 4+5/15)
Statistics
Read error : 0
Jitter error (maybe fixed) : 0
Retry sector count : 0
Damaged sector count : 0

Track 09
Filename : /XLD/Bach : Suites pour violoncelle seul [MP3 V0]/CD05/09 Janos Starker - III - Courante.mp3
/XLD/Bach : Suites pour violoncelle seul [FLAC]/CD05/09 Janos Starker - III - Courante.flac
Pre-gap length : 00:04:65

Track gain : 4.33 dB
Peak : 0.368958
CRC32 hash (test run) : EDEAC42F
CRC32 hash : EDEAC42F
CRC32 hash (skip zero) : B44159D0
AccurateRip v1 signature : 56B652D6
AccurateRip v2 signature : F9F7081D
->Accurately ripped (v1+v2, confidence 4+6/16)
Statistics
Read error : 0
Jitter error (maybe fixed) : 0
Retry sector count : 0
Damaged sector count : 0

Track 10
Filename : /XLD/Bach : Suites pour violoncelle seul [MP3 V0]/CD05/10 Janos Starker - IV - Sarabande.mp3
/XLD/Bach : Suites pour violoncelle seul [FLAC]/CD05/10 Janos Starker - IV - Sarabande.flac
Pre-gap length : 00:05:63

Track gain : 9.61 dB
Peak : 0.233337
CRC32 hash (test run) : 2A1BD818
CRC32 hash : 2A1BD818
CRC32 hash (skip zero) : D5E8900C
AccurateRip v1 signature : A1383A36
AccurateRip v2 signature : E21E5405
->Accurately ripped (v1+v2, confidence 4+6/16)
Statistics
Read error : 0
Jitter error (maybe fixed) : 0
Retry sector count : 0
Damaged sector count : 0

Track 11
Filename : /XLD/Bach : Suites pour violoncelle seul [MP3 V0]/CD05/11 Janos Starker - V - Gavottes I & II.mp3
/XLD/Bach : Suites pour violoncelle seul [FLAC]/CD05/11 Janos Starker - V - Gavottes I & II.flac
Pre-gap length : 00:03:70

Track gain : 2.82 dB
Peak : 0.500885
CRC32 hash (test run) : C4B837D5
CRC32 hash : C4B837D5
CRC32 hash (skip zero) : 5D911790
AccurateRip v1 signature : 3F417005
AccurateRip v2 signature : 0E62C8B2
->Accurately ripped (v1+v2, confidence 4+6/16)
Statistics
Read error : 0
Jitter error (maybe fixed) : 0
Retry sector count : 0
Damaged sector count : 0

Track 12
Filename : /XLD/Bach : Suites pour violoncelle seul [MP3 V0]/CD05/12 Janos Starker - VI - Gigue.mp3
/XLD/Bach : Suites pour violoncelle seul [FLAC]/CD05/12 Janos Starker - VI - Gigue.flac
Pre-gap length : 00:03:42

Track gain : 5.11 dB
Peak : 0.311218
CRC32 hash (test run) : 1E76D4F8
CRC32 hash : 1E76D4F8
CRC32 hash (skip zero) : 956C87DF
AccurateRip v1 signature : 052189AD
AccurateRip v2 signature : 23EABA91
->Accurately ripped (v1+v2, confidence 4+6/16)
Statistics
Read error : 0
Jitter error (maybe fixed) : 0
Retry sector count : 0
Damaged sector count : 0

Track 13
Filename : /XLD/Bach : Suites pour violoncelle seul [MP3 V0]/CD05/13 Janos Starker - I - Prelude.mp3
/XLD/Bach : Suites pour violoncelle seul [FLAC]/CD05/13 Janos Starker - I - Prelude.flac
Pre-gap length : 00:08:07

Track gain : 2.73 dB
Peak : 0.498474
CRC32 hash (test run) : 5A38B50D
CRC32 hash : 5A38B50D
CRC32 hash (skip zero) : 7B2E881C
AccurateRip v1 signature : D7DABB83
AccurateRip v2 signature : A1908638
->Accurately ripped (v1+v2, confidence 4+6/16)
Statistics
Read error : 0
Jitter error (maybe fixed) : 0
Retry sector count : 0
Damaged sector count : 0

Track 14
Filename : /XLD/Bach : Suites pour violoncelle seul [MP3 V0]/CD05/14 Janos Starker - II - Allemande.mp3
/XLD/Bach : Suites pour violoncelle seul [FLAC]/CD05/14 Janos Starker - II - Allemande.flac
Pre-gap length : 00:02:43

Track gain : 10.21 dB
Peak : 0.295776
CRC32 hash (test run) : AE02BD7A
CRC32 hash : AE02BD7A
CRC32 hash (skip zero) : 16A3D07D
AccurateRip v1 signature : 0D49532A
AccurateRip v2 signature : CA69E4FD
->Accurately ripped (v1+v2, confidence 4+6/16)
Statistics
Read error : 0
Jitter error (maybe fixed) : 0
Retry sector count : 0
Damaged sector count : 0

Track 15
Filename : /XLD/Bach : Suites pour violoncelle seul [MP3 V0]/CD05/15 Janos Starker - III - Courante.mp3
/XLD/Bach : Suites pour violoncelle seul [FLAC]/CD05/15 Janos Starker - III - Courante.flac
Pre-gap length : 00:00:13

Track gain : 3.11 dB
Peak : 0.444946
CRC32 hash (test run) : 8DB0B28F
CRC32 hash : 8DB0B28F
CRC32 hash (skip zero) : 2ACF759B
AccurateRip v1 signature : 7170C2D9
AccurateRip v2 signature : 79505427
->Accurately ripped (v1+v2, confidence 4+6/16)
Statistics
Read error : 0
Jitter error (maybe fixed) : 0
Retry sector count : 0
Damaged sector count : 0

Track 16
Filename : /XLD/Bach : Suites pour violoncelle seul [MP3 V0]/CD05/16 Janos Starker - IV - Sarabande.mp3
/XLD/Bach : Suites pour violoncelle seul [FLAC]/CD05/16 Janos Starker - IV - Sarabande.flac
Pre-gap length : 00:02:40

Track gain : 5.58 dB
Peak : 0.397156
CRC32 hash (test run) : D254D813
CRC32 hash : D254D813
CRC32 hash (skip zero) : 0AF1291C
AccurateRip v1 signature : 3DBAADBF
AccurateRip v2 signature : 8A48008A
->Accurately ripped (v1+v2, confidence 4+6/16)
Statistics
Read error : 0
Jitter error (maybe fixed) : 0
Retry sector count : 0
Damaged sector count : 0

Track 17
Filename : /XLD/Bach : Suites pour violoncelle seul [MP3 V0]/CD05/17 Janos Starker - V - Gavottes I & II.mp3
/XLD/Bach : Suites pour violoncelle seul [FLAC]/CD05/17 Janos Starker - V - Gavottes I & II.flac
Pre-gap length : 00:00:35

Track gain : 0.48 dB
Peak : 0.616028
CRC32 hash (test run) : B153B949
CRC32 hash : B153B949
CRC32 hash (skip zero) : F167A0B2
AccurateRip v1 signature : 6A82AC36
AccurateRip v2 signature : A291F656
->Accurately ripped (v1+v2, confidence 4+6/16)
Statistics
Read error : 0
Jitter error (maybe fixed) : 0
Retry sector count : 0
Damaged sector count : 0

Track 18
Filename : /XLD/Bach : Suites pour violoncelle seul [MP3 V0]/CD05/18 Janos Starker - VI - Gigue.mp3
/XLD/Bach : Suites pour violoncelle seul [FLAC]/CD05/18 Janos Starker - VI - Gigue.flac
Pre-gap length : 00:02:70

Track gain : 2.82 dB
Peak : 0.542084
CRC32 hash (test run) : 074F056C
CRC32 hash : 074F056C
CRC32 hash (skip zero) : 08571349
AccurateRip v1 signature : 788EC9E1
AccurateRip v2 signature : 79554194
->Accurately ripped (v1+v2, confidence 4+6/16)
Statistics
Read error : 0
Jitter error (maybe fixed) : 0
Retry sector count : 0
Damaged sector count : 0

No errors occurred

End of status report

––-BEGIN XLD SIGNATURE––-
M5BO8eBIghKHdA6cT1WVvZOMLstiQdHOmbjgu.n9_ACXS0KCZQyq28jCk1uolK7FomZej8ragYIxa22Oo5QuVI_1pdvfcfQ1Ks8S9We
––-END XLD SIGNATURE––-



Thanks to the Original customer.