Beth Hart - Fire on the Floor (US Edition) (2016/2017)

Posted By: delpotro
Beth Hart - Fire on the Floor (US Edition) (2016/2017)

Beth Hart - Fire on the Floor (US Edition) (2016)
EAC Rip | FLAC (tracks+log+.cue) | 00:52:38 | 311 Mb
Blues Rock, Female Vocal | Label: Provogue Records, Mascot Records

Fire on the Floor is the eighth solo studio album by American singer-songwriter Beth Hart. It was released on October 14, 2016 in Europe, Australia, and New Zealand, and February 3, 2017 in the rest of the world.

Hart wrote and recorded the songs for Fire on the Floor before the songs for her previous album Better Than Home was mixed. Hart recorded with some musicians she had not performed with before, such as Michael Landau and Waddy Wachtel on electric guitar, and they recorded sixteen songs in three days, although the mixing took much longer. Other artists performing on the album are Jim Cox on piano, Dean Parks on acoustic guitar, Brian Allen on bass, Rick Marotta on drums, and Ivan Neville on the Hammond B3.

Produced by Oliver Leiber Recorded by Niko Bolas

Tracklist:
01. Jazz Man
02. Love Gangster
03. Coca Cola
04. Let's Get Together
05. Love Is A Lie
06. Fat Man
07. Fire On The Floor
08. Woman You've Been Dreaming Of
09. Baby Shot Me Down
10. Good Day To Cry
11. Picture In A Frame
12. No Place Like Home
13. Tell Her You Belong to Me (featuring Jeff Beck) [US Bonus Track]

Exact Audio Copy V1.3 from 2. September 2016

EAC extraction logfile from 15. September 2017, 23:49

Beth Hart / Fire On The Floor

Used drive : PLDS DVD-RW DA8AESH Adapter: 1 ID: 0

Read mode : Secure
Utilize accurate stream : Yes
Defeat audio cache : Yes
Make use of C2 pointers : No

Read offset correction : 6
Overread into Lead-In and Lead-Out : No
Fill up missing offset samples with silence : Yes
Delete leading and trailing silent blocks : No
Null samples used in CRC calculations : Yes
Used interface : Native Win32 interface for Win NT & 2000
Gap handling : Appended to previous track

Used output format : User Defined Encoder
Selected bitrate : 1024 kBit/s
Quality : High
Add ID3 tag : No
Command line compressor : C:\Program Files (x86)\Exact Audio Copy\Flac\flac.exe
Additional command line options : -8 -e -p -V -T "ARTIST=%artist%" -T "TITLE=%title%" -T "ALBUM=%albumtitle%" -T "DATE=%year%" -T "TRACKNUMBER=%tracknr%" -T "GENRE=%genre%" -T "PERFORMER=%albuminterpret%" -T "COMPOSER=%composer%" %haslyrics%–tag-from-file=LYRICS="%lyricsfile%"%haslyrics% -T "ALBUMARTIST=%albumartist%" -T "DISCNUMBER=%cdnumber%" -T "TOTALDISCS=%totalcds%" -T "TOTALTRACKS=%numtracks%" -T "COMMENT=%comment%" %source% -o %dest%


TOC of the extracted CD

Track | Start | Length | Start sector | End sector
––––––––––––––––––––––––––––-
1 | 0:00.00 | 3:51.72 | 0 | 17396
2 | 3:51.72 | 4:09.54 | 17397 | 36125
3 | 8:01.51 | 3:38.28 | 36126 | 52503
4 | 11:40.04 | 3:39.21 | 52504 | 68949
5 | 15:19.25 | 3:15.04 | 68950 | 83578
6 | 18:34.29 | 3:51.04 | 83579 | 100907
7 | 22:25.33 | 5:12.50 | 100908 | 124357
8 | 27:38.08 | 4:22.16 | 124358 | 144023
9 | 32:00.24 | 3:22.11 | 144024 | 159184
10 | 35:22.35 | 4:32.40 | 159185 | 179624
11 | 39:55.00 | 4:39.63 | 179625 | 200612
12 | 44:34.63 | 3:53.67 | 200613 | 218154
13 | 48:28.55 | 4:10.07 | 218155 | 236911


Track 1

Filename C:\EAC Rips\[2016] Beth Hart - Fire On The Floor (FLAC)\01 Jazz Man.wav

Pre-gap length 0:00:02.00

Peak level 99.8 %
Extraction speed 2.1 X
Track quality 100.0 %
Test CRC 277DF9DC
Copy CRC 277DF9DC
Accurately ripped (confidence 16) [99A7C26D] (AR v2)
Copy OK

Track 2

Filename C:\EAC Rips\[2016] Beth Hart - Fire On The Floor (FLAC)\02 Love Gangster.wav

Peak level 99.8 %
Extraction speed 2.3 X
Track quality 100.0 %
Test CRC CEB06367
Copy CRC CEB06367
Accurately ripped (confidence 16) [EB90DE7A] (AR v2)
Copy OK

Track 3

Filename C:\EAC Rips\[2016] Beth Hart - Fire On The Floor (FLAC)\03 Coca Cola.wav

Peak level 99.8 %
Extraction speed 2.5 X
Track quality 100.0 %
Test CRC 6B7F1C59
Copy CRC 6B7F1C59
Accurately ripped (confidence 16) [3547635B] (AR v2)
Copy OK

Track 4

Filename C:\EAC Rips\[2016] Beth Hart - Fire On The Floor (FLAC)\04 Let's Get Together.wav

Peak level 99.8 %
Extraction speed 2.7 X
Track quality 100.0 %
Test CRC 115C1853
Copy CRC 115C1853
Accurately ripped (confidence 16) [C1506948] (AR v2)
Copy OK

Track 5

Filename C:\EAC Rips\[2016] Beth Hart - Fire On The Floor (FLAC)\05 Love Is A Lie.wav

Peak level 100.0 %
Extraction speed 2.7 X
Track quality 100.0 %
Test CRC EAA988A9
Copy CRC EAA988A9
Accurately ripped (confidence 16) [62FC132F] (AR v2)
Copy OK

Track 6

Filename C:\EAC Rips\[2016] Beth Hart - Fire On The Floor (FLAC)\06 Fat Man.wav

Pre-gap length 0:00:01.81

Peak level 100.0 %
Extraction speed 2.5 X
Track quality 99.9 %
Test CRC EA01C315
Copy CRC EA01C315
Accurately ripped (confidence 16) [89088D02] (AR v2)
Copy OK

Track 7

Filename C:\EAC Rips\[2016] Beth Hart - Fire On The Floor (FLAC)\07 Fire On The Floor.wav

Pre-gap length 0:00:02.06

Peak level 99.8 %
Extraction speed 3.3 X
Track quality 100.0 %
Test CRC 2FFE3EA4
Copy CRC 2FFE3EA4
Accurately ripped (confidence 16) [15CA4377] (AR v2)
Copy OK

Track 8

Filename C:\EAC Rips\[2016] Beth Hart - Fire On The Floor (FLAC)\08 Woman You've Been Dreaming Of.wav

Pre-gap length 0:00:01.44

Peak level 99.8 %
Extraction speed 3.4 X
Track quality 100.0 %
Test CRC 8B98CE66
Copy CRC 8B98CE66
Accurately ripped (confidence 16) [C15D7344] (AR v2)
Copy OK

Track 9

Filename C:\EAC Rips\[2016] Beth Hart - Fire On The Floor (FLAC)\09 Baby Shot Me Down.wav

Peak level 100.0 %
Extraction speed 2.8 X
Track quality 99.9 %
Test CRC A1E5E982
Copy CRC A1E5E982
Accurately ripped (confidence 16) [40C00995] (AR v2)
Copy OK

Track 10

Filename C:\EAC Rips\[2016] Beth Hart - Fire On The Floor (FLAC)\10 Good Day To Cry.wav

Peak level 99.8 %
Extraction speed 3.7 X
Track quality 100.0 %
Test CRC D04B1F6D
Copy CRC D04B1F6D
Accurately ripped (confidence 16) [674CFF8E] (AR v2)
Copy OK

Track 11

Filename C:\EAC Rips\[2016] Beth Hart - Fire On The Floor (FLAC)\11 Picture In A Frame.wav

Pre-gap length 0:00:01.98

Peak level 99.8 %
Extraction speed 3.3 X
Track quality 99.9 %
Test CRC 1BF85560
Copy CRC 1BF85560
Accurately ripped (confidence 16) [BE8406B7] (AR v2)
Copy OK

Track 12

Filename C:\EAC Rips\[2016] Beth Hart - Fire On The Floor (FLAC)\12 No Place Like Home.wav

Peak level 100.0 %
Extraction speed 3.9 X
Track quality 100.0 %
Test CRC 7465E3E7
Copy CRC 7465E3E7
Accurately ripped (confidence 16) [59F3785D] (AR v2)
Copy OK

Track 13

Filename C:\EAC Rips\[2016] Beth Hart - Fire On The Floor (FLAC)\13 Tell Her You Belong To Me (Featuring Jeff Beck) (Bonus Track).wav

Pre-gap length 0:00:02.34

Peak level 100.0 %
Extraction speed 4.1 X
Track quality 100.0 %
Test CRC 3D80AE52
Copy CRC 3D80AE52
Accurately ripped (confidence 16) [ED610A89] (AR v2)
Copy OK


All tracks accurately ripped

No errors occurred

End of status report

–– CUETools DB Plugin V2.1.6

[CTDB TOCID: sXSJoOOBd3fASRLD9TZlGf41OCU-] found
Submit result: sXSJoOOBd3fASRLD9TZlGf41OCU- has been confirmed
Track | CTDB Status
1 | (36/36) Accurately ripped
2 | (36/36) Accurately ripped
3 | (36/36) Accurately ripped
4 | (36/36) Accurately ripped
5 | (36/36) Accurately ripped
6 | (36/36) Accurately ripped
7 | (36/36) Accurately ripped
8 | (36/36) Accurately ripped
9 | (36/36) Accurately ripped
10 | (36/36) Accurately ripped
11 | (36/36) Accurately ripped
12 | (36/36) Accurately ripped
13 | (36/36) Accurately ripped


==== Log checksum 60689CEC3322B3C3401D4E1120DBFBD0EFDA09BEC68FB23962577A7F7FC6E413 ====

Thanks to the Original ripper jonesy !