Tags
Language
Tags

Betty Carter - Priceless Jazz Collection (1999)

Posted By: Domestos
Betty Carter - Priceless Jazz Collection (1999)

Betty Carter - Priceless Jazz Collection (1999)
EAC Rip | FLAC (tracks+.cue, log) ~ 195.12 Mb | 51:41 | Covers
Vocal Jazz | Country: USA | Label: GRP Records - GRD-9947

GRP's Priceless Jazz is a mid-line collection that concentrates on Betty Carter's fine recordings for Peacock and ABC-Paramount during the late '60s. Although this disc could hardly be called definitive, it nevertheless offers many of her best cuts for the label, making this disc an excellent choice for neophytes and curious listeners – it is both affordable and entertaining. ~ AllMusic Review by Stephen Thomas Erlewine



Track List:
01. You're Driving Me Crazy (What Did I Do) (1:48)
02. My Reverie (2:52)
03. Babe's Blues (2:54)
04. Blue Bird of Happiness (1:33)
05. You're Getting to Be a Habit With Me (2:34)
06. Remember (2:26)
07. Make It Last (4:33)
08. Mean to Me (2:08)
09. By the Bend of the River (2:10)
10. Jazz (Ain't Nothin' But Soul) (1:59)
11. But Beautiful (4:02)
12. Stormy Weather (Keep Rainin' All the Time) (3:25)
13. Something Wonderful (3:40)
14. Don't Weep for the Lady (3:05)
15. Foul Play (2:25)
16. At Sundown (2:46)
17. I Don't Want to Set the World on Fire (2:26)
18. On the Isle of May (2:05)
19. I Can't Help It (2:50)

Betty Carter - Priceless Jazz Collection (1999)

Exact Audio Copy V1.0 beta 3 from 29. August 2011

EAC extraction logfile from 10. May 2017, 16:29

Betty Carter / Priceless Jazz Collection

Used drive : ATAPI iHAS124 F Adapter: 3 ID: 0

Read mode : Secure
Utilize accurate stream : Yes
Defeat audio cache : Yes
Make use of C2 pointers : No

Read offset correction : 6
Overread into Lead-In and Lead-Out : No
Fill up missing offset samples with silence : Yes
Delete leading and trailing silent blocks : No
Null samples used in CRC calculations : Yes
Used interface : Native Win32 interface for Win NT & 2000
Gap handling : Appended to previous track

Used output format : User Defined Encoder
Selected bitrate : 1024 kBit/s
Quality : High
Add ID3 tag : No
Command line compressor : C:\Users\Owner\Music Rips from CD's\Exact Audio Copy\Flac\flac.exe
Additional command line options : -8 -e -p -V -T "ARTIST=%artist%" -T "TITLE=%title%" -T "ALBUM=%albumtitle%" -T "DATE=%year%" -T "TRACKNUMBER=%tracknr%" -T "GENRE=%genre%" -T "PERFORMER=%albuminterpret%" -T "COMPOSER=%composer%" %haslyrics%–tag-from-file=LYRICS="%lyricsfile%"%haslyrics% -T "ALBUMARTIST=%albumartist%" -T "DISCNUMBER=%cdnumber%" -T "TOTALDISCS=%totalcds%" -T "TOTALTRACKS=%numtracks%" -T "COMMENT=%comment%" %source% -o %dest%


TOC of the extracted CD

Track | Start | Length | Start sector | End sector
––––––––––––––––––––––––––––-
1 | 0:00.00 | 1:48.05 | 0 | 8104
2 | 1:48.05 | 2:51.45 | 8105 | 20974
3 | 4:39.50 | 2:53.62 | 20975 | 34011
4 | 7:33.37 | 1:33.08 | 34012 | 40994
5 | 9:06.45 | 2:33.52 | 40995 | 52521
6 | 11:40.22 | 2:26.23 | 52522 | 63494
7 | 14:06.45 | 4:33.17 | 63495 | 83986
8 | 18:39.62 | 2:07.65 | 83987 | 93576
9 | 20:47.52 | 2:10.20 | 93577 | 103346
10 | 22:57.72 | 1:59.15 | 103347 | 112286
11 | 24:57.12 | 4:02.00 | 112287 | 130436
12 | 28:59.12 | 3:24.58 | 130437 | 145794
13 | 32:23.70 | 3:40.17 | 145795 | 162311
14 | 36:04.12 | 3:04.38 | 162312 | 176149
15 | 39:08.50 | 2:24.67 | 176150 | 187016
16 | 41:33.42 | 2:45.57 | 187017 | 199448
17 | 44:19.24 | 2:25.71 | 199449 | 210394
18 | 46:45.20 | 2:04.70 | 210395 | 219764
19 | 48:50.15 | 2:49.65 | 219765 | 232504


Track 1

Filename F:\EAC Rips\Betty Carter - Priceless Jazz Collection (1999) [FLAC] {GRD-9947}\01 You're Driving Me Crazy (What Did I Do).wav

Pre-gap length 0:00:02.00

Peak level 95.0 %
Extraction speed 4.2 X
Track quality 100.0 %
Test CRC 4AF4CCBE
Copy CRC 4AF4CCBE
Accurately ripped (confidence 2) [02E4A1C4] (AR v1)
Copy OK

Track 2

Filename F:\EAC Rips\Betty Carter - Priceless Jazz Collection (1999) [FLAC] {GRD-9947}\02 My Reverie.wav

Pre-gap length 0:00:02.55

Peak level 99.9 %
Extraction speed 5.1 X
Track quality 100.0 %
Test CRC A44F8EA0
Copy CRC A44F8EA0
Accurately ripped (confidence 2) [D62F604D] (AR v1)
Copy OK

Track 3

Filename F:\EAC Rips\Betty Carter - Priceless Jazz Collection (1999) [FLAC] {GRD-9947}\03 Babe's Blues.wav

Pre-gap length 0:00:03.18

Peak level 84.1 %
Extraction speed 5.4 X
Track quality 100.0 %
Test CRC A3B5649E
Copy CRC A3B5649E
Accurately ripped (confidence 2) [E695EBE5] (AR v1)
Copy OK

Track 4

Filename F:\EAC Rips\Betty Carter - Priceless Jazz Collection (1999) [FLAC] {GRD-9947}\04 Blue Bird of Happiness.wav

Pre-gap length 0:00:03.10

Peak level 90.0 %
Extraction speed 4.9 X
Track quality 100.0 %
Test CRC F8D8E4E9
Copy CRC F8D8E4E9
Accurately ripped (confidence 2) [8493B769] (AR v1)
Copy OK

Track 5

Filename F:\EAC Rips\Betty Carter - Priceless Jazz Collection (1999) [FLAC] {GRD-9947}\05 You're Getting to be a Habit With Me.wav

Pre-gap length 0:00:02.58

Peak level 91.4 %
Extraction speed 4.4 X
Track quality 99.9 %
Test CRC 28A3082F
Copy CRC 28A3082F
Accurately ripped (confidence 2) [381B7F8E] (AR v1)
Copy OK

Track 6

Filename F:\EAC Rips\Betty Carter - Priceless Jazz Collection (1999) [FLAC] {GRD-9947}\06 Remember.wav

Pre-gap length 0:00:02.60

Peak level 96.2 %
Extraction speed 6.0 X
Track quality 100.0 %
Test CRC 5A05823B
Copy CRC 5A05823B
Accurately ripped (confidence 2) [CE8FA65B] (AR v1)
Copy OK

Track 7

Filename F:\EAC Rips\Betty Carter - Priceless Jazz Collection (1999) [FLAC] {GRD-9947}\07 Make It Last.wav

Pre-gap length 0:00:02.63

Peak level 86.6 %
Extraction speed 5.8 X
Track quality 99.9 %
Test CRC B6938624
Copy CRC B6938624
Accurately ripped (confidence 2) [6226E0AC] (AR v1)
Copy OK

Track 8

Filename F:\EAC Rips\Betty Carter - Priceless Jazz Collection (1999) [FLAC] {GRD-9947}\08 Mean To Me.wav

Pre-gap length 0:00:02.65

Peak level 82.4 %
Extraction speed 6.4 X
Track quality 100.0 %
Test CRC 4F8F5C0D
Copy CRC 4F8F5C0D
Accurately ripped (confidence 2) [6953460E] (AR v1)
Copy OK

Track 9

Filename F:\EAC Rips\Betty Carter - Priceless Jazz Collection (1999) [FLAC] {GRD-9947}\09 By the Bend of the Rivver.wav

Pre-gap length 0:00:02.70

Peak level 88.5 %
Extraction speed 6.6 X
Track quality 100.0 %
Test CRC EA522AAA
Copy CRC EA522AAA
Accurately ripped (confidence 2) [266E56EE] (AR v1)
Copy OK

Track 10

Filename F:\EAC Rips\Betty Carter - Priceless Jazz Collection (1999) [FLAC] {GRD-9947}\10 Jazz (Ain't Nothin' But Soul).wav

Pre-gap length 0:00:02.70

Peak level 95.0 %
Extraction speed 4.8 X
Track quality 99.9 %
Test CRC 9E4B34C4
Copy CRC 9E4B34C4
Accurately ripped (confidence 2) [9935D5CA] (AR v1)
Copy OK

Track 11

Filename F:\EAC Rips\Betty Carter - Priceless Jazz Collection (1999) [FLAC] {GRD-9947}\11 But Beautiful.wav

Pre-gap length 0:00:03.07

Peak level 87.0 %
Extraction speed 6.5 X
Track quality 99.9 %
Test CRC 4E485DDD
Copy CRC 4E485DDD
Accurately ripped (confidence 2) [FFDAECD3] (AR v1)
Copy OK

Track 12

Filename F:\EAC Rips\Betty Carter - Priceless Jazz Collection (1999) [FLAC] {GRD-9947}\12 Stormy Weather (Keep Rainin' All the Time).wav

Pre-gap length 0:00:02.70

Peak level 95.4 %
Extraction speed 8.1 X
Track quality 100.0 %
Test CRC 6258F628
Copy CRC 6258F628
Accurately ripped (confidence 2) [EFF8BCA7] (AR v1)
Copy OK

Track 13

Filename F:\EAC Rips\Betty Carter - Priceless Jazz Collection (1999) [FLAC] {GRD-9947}\13 Something Wonderful.wav

Pre-gap length 0:00:02.73

Peak level 79.1 %
Extraction speed 8.3 X
Track quality 100.0 %
Test CRC 356D56D8
Copy CRC 356D56D8
Accurately ripped (confidence 2) [A757D918] (AR v1)
Copy OK

Track 14

Filename F:\EAC Rips\Betty Carter - Priceless Jazz Collection (1999) [FLAC] {GRD-9947}\14 Don't Weep for the Lady.wav

Pre-gap length 0:00:02.72

Peak level 83.0 %
Extraction speed 8.4 X
Track quality 100.0 %
Test CRC 2624BDC6
Copy CRC 2624BDC6
Accurately ripped (confidence 2) [09645805] (AR v1)
Copy OK

Track 15

Filename F:\EAC Rips\Betty Carter - Priceless Jazz Collection (1999) [FLAC] {GRD-9947}\15 Foul Play.wav

Pre-gap length 0:00:03.00

Peak level 78.2 %
Extraction speed 8.3 X
Track quality 100.0 %
Test CRC B9CD302B
Copy CRC B9CD302B
Accurately ripped (confidence 2) [5ED2E97A] (AR v1)
Copy OK

Track 16

Filename F:\EAC Rips\Betty Carter - Priceless Jazz Collection (1999) [FLAC] {GRD-9947}\16 At Sundown.wav

Pre-gap length 0:00:03.10

Peak level 91.5 %
Extraction speed 8.7 X
Track quality 100.0 %
Test CRC FE7B758A
Copy CRC FE7B758A
Accurately ripped (confidence 2) [3DD3DF0E] (AR v1)
Copy OK

Track 17

Filename F:\EAC Rips\Betty Carter - Priceless Jazz Collection (1999) [FLAC] {GRD-9947}\17 I Don't Want To Set The World on Fire.wav

Pre-gap length 0:00:02.72

Peak level 86.6 %
Extraction speed 8.7 X
Track quality 100.0 %
Test CRC 34DA3C1A
Copy CRC 34DA3C1A
Accurately ripped (confidence 2) [E2AD72B2] (AR v1)
Copy OK

Track 18

Filename F:\EAC Rips\Betty Carter - Priceless Jazz Collection (1999) [FLAC] {GRD-9947}\18 On the Isle of May.wav

Pre-gap length 0:00:02.73

Peak level 80.0 %
Extraction speed 8.6 X
Track quality 100.0 %
Test CRC 6C77CDC4
Copy CRC 6C77CDC4
Accurately ripped (confidence 2) [0A8BD8BF] (AR v1)
Copy OK

Track 19

Filename F:\EAC Rips\Betty Carter - Priceless Jazz Collection (1999) [FLAC] {GRD-9947}\19 I Can't Help It.wav

Pre-gap length 0:00:02.66

Peak level 70.5 %
Extraction speed 9.2 X
Track quality 100.0 %
Test CRC ADE7ED05
Copy CRC ADE7ED05
Accurately ripped (confidence 2) [614C4A94] (AR v1)
Copy OK


All tracks accurately ripped

No errors occurred

End of status report

–– CUETools DB Plugin V2.1.3

[CTDB TOCID: U7ZMGiq.aLfq9tIHxSY2Y72SEIU-] found, Submit result: U7ZMGiq.aLfq9tIHxSY2Y72SEIU- has been confirmed
[70de468e] (1/1) Accurately ripped


==== Log checksum D78E97C80B9313B77644E1A71577C15C2DCBDD4A59AF71EDD441A23B223D440F ====

All thanks go to the Ieknom

More Music in My Blog
Follow My RSS Channel