Tags
Language
Tags

Bill Baron - West Side Story Bossa Nova (1963) {Dauntless DC 6004 rel 2004}

Posted By: ruskaval
Bill Baron - West Side Story Bossa Nova (1963) {Dauntless DC 6004 rel 2004}

Bill Baron - West Side Story Bossa Nova (1963) {Dauntless DC 6004 rel 2004}
EAC rip (secure mode) | FLAC (tracks)+CUE+LOG -> 234 Mb | MP3 @320 -> 81 Mb
Full Artwork @ 300 dpi (png) -> 17 Mb | 5% repair rar
© 1963, 2004 Dauntless / Fresh Sound Records | DC 6004
Jazz / Hard Bop / Bossa Nova / Saxophone

This electrifying bossa nova version of ten great songs from the West Side Story admirably showcases Bill Barron's triple-threat talent as soloist, arranger, and leader. Bill's relaxed, long-lined solos on tenor saxophone confirm him as a member of that school of "hard-nosed" lyricism wich includes Miles Davis, Stan Getz and Bill Evans.
Bill Barron spent a good deal of his music career as a jazz educator, though he made many valuable recordings in the early '60s and also near the end of his life. Unfortunately, few of them have been reissued during the CD era, so the return of this long-out-of-print studio date (for the long-defunct Dauntless label) is very welcome. The tenor saxophonist's orchestra is actually only a septet, but it's a potent group who puts out a big sound. They include trumpeter Willie Thomas, guitarist Kenny Burrell, bassist Henry Grimes, drummer Charlie Persip, percussionist Jose Soares, and pianist Steve Kuhn, with the leader's now famous younger brother, Kenny Barron, subbing for Kuhn on the opening track, "Something's Coming." Barron's arrangements are brief (all under four minutes each), but very enjoyable, with snappy takes of "Cool" and "America" as well as a brief "Maria," featuring Thomas and Barron swapping solos, and wrapping with an unusually upbeat treatment of the normally low-key ballad "Somewhere."
Bill Baron - West Side Story Bossa Nova (1963) {Dauntless DC 6004 rel 2004}


Personnel
Bill Barron – tenor saxophone
Willie Thomas – trumpet
Steve Kuhn - piano
Kenny Barron – piano (#1)
Kenny Burrell – guitar
Henry Grimes – bass
Charlie Persip – drums
José Soares – percussion

Tracklisting
01 - Something's Coming
02 - One Hand, One Heart
03 - Gee, Officer Krupke
04 - Cool
05 - Maria
06 - Tonight
07 - America
08 - I Feel Pretty
09 - Jet Song
10 - Somewhere

Exact Audio Copy V1.0 beta 2 from 29. April 2011

EAC extraction logfile from 19. October 2011, 10:05

Bill Baron / West Side Story Bossa Nova

Used drive : HL-DT-STDVD-RAM GH22NP20 Adapter: 0 ID: 0

Read mode : Secure
Utilize accurate stream : Yes
Defeat audio cache : Yes
Make use of C2 pointers : No

Read offset correction : 102
Overread into Lead-In and Lead-Out : No
Fill up missing offset samples with silence : Yes
Delete leading and trailing silent blocks : No
Null samples used in CRC calculations : Yes
Used interface : Native Win32 interface for Win NT & 2000
Gap handling : Appended to previous track

Used output format : User Defined Encoder
Selected bitrate : 1024 kBit/s
Quality : High
Add ID3 tag : No
Command line compressor : C:\Program Files\Exact Audio Copy\Flac\flac.exe
Additional command line options : -8 -V -T "ARTIST=%artist%" -T "TITLE=%title%" -T "ALBUM=%albumtitle%" -T "DATE=%year%" -T "TRACKNUMBER=%tracknr%" -T "GENRE=%genre%" -T "PERFORMER=%albuminterpret%" -T "COMMENT=EAC V1.0 beta 2, Secure Mode, Test & Copy, Acc


TOC of the extracted CD

Track | Start | Length | Start sector | End sector
––––––––––––––––––––––––––––-
1 | 0:00.00 | 3:15.39 | 0 | 14663
2 | 3:15.39 | 3:31.56 | 14664 | 30544
3 | 6:47.20 | 3:59.73 | 30545 | 48542
4 | 10:47.18 | 3:57.48 | 48543 | 66365
5 | 14:44.66 | 2:22.12 | 66366 | 77027
6 | 17:07.03 | 3:23.16 | 77028 | 92268
7 | 20:30.19 | 3:35.05 | 92269 | 108398
8 | 24:05.24 | 3:44.44 | 108399 | 125242
9 | 27:49.68 | 3:20.64 | 125243 | 140306
10 | 31:10.57 | 3:53.63 | 140307 | 157844


Track 1

Filename D:\music\Musicgate's rips\Bill Baron - West Side Story Bossa Nova - 1963 (2002)\01 - Something's Coming.wav

Pre-gap length 0:00:02.00

Peak level 99.9 %
Extraction speed 1.3 X
Track quality 99.9 %
Test CRC FEEA9CDE
Copy CRC FEEA9CDE
Track not present in AccurateRip database
Copy OK

Track 2

Filename D:\music\Musicgate's rips\Bill Baron - West Side Story Bossa Nova - 1963 (2002)\02 - One Hand, One Heart.wav

Pre-gap length 0:00:01.86

Peak level 95.9 %
Extraction speed 1.6 X
Track quality 100.0 %
Test CRC 80B46CEB
Copy CRC 80B46CEB
Track not present in AccurateRip database
Copy OK

Track 3

Filename D:\music\Musicgate's rips\Bill Baron - West Side Story Bossa Nova - 1963 (2002)\03 - Gee, Officer Krupke.wav

Pre-gap length 0:00:01.85

Peak level 99.9 %
Extraction speed 1.8 X
Track quality 100.0 %
Test CRC C526489E
Copy CRC C526489E
Track not present in AccurateRip database
Copy OK

Track 4

Filename D:\music\Musicgate's rips\Bill Baron - West Side Story Bossa Nova - 1963 (2002)\04 - Cool.wav

Pre-gap length 0:00:01.86

Peak level 99.9 %
Extraction speed 2.0 X
Track quality 100.0 %
Test CRC 6DCFF6E6
Copy CRC 6DCFF6E6
Track not present in AccurateRip database
Copy OK

Track 5

Filename D:\music\Musicgate's rips\Bill Baron - West Side Story Bossa Nova - 1963 (2002)\05 - Maria.wav

Pre-gap length 0:00:01.86

Peak level 87.2 %
Extraction speed 1.9 X
Track quality 100.0 %
Test CRC DD75626A
Copy CRC DD75626A
Track not present in AccurateRip database
Copy OK

Track 6

Filename D:\music\Musicgate's rips\Bill Baron - West Side Story Bossa Nova - 1963 (2002)\06 - Tonight.wav

Pre-gap length 0:00:01.86

Peak level 99.9 %
Extraction speed 2.1 X
Track quality 100.0 %
Test CRC 14E5352D
Copy CRC 14E5352D
Track not present in AccurateRip database
Copy OK

Track 7

Filename D:\music\Musicgate's rips\Bill Baron - West Side Story Bossa Nova - 1963 (2002)\07 - America.wav

Pre-gap length 0:00:01.86

Peak level 99.9 %
Extraction speed 2.3 X
Track quality 100.0 %
Test CRC F7EF732F
Copy CRC F7EF732F
Track not present in AccurateRip database
Copy OK

Track 8

Filename D:\music\Musicgate's rips\Bill Baron - West Side Story Bossa Nova - 1963 (2002)\08 - I Feel Pretty.wav

Pre-gap length 0:00:01.86

Peak level 99.9 %
Extraction speed 2.4 X
Track quality 100.0 %
Test CRC 69C88894
Copy CRC 69C88894
Track not present in AccurateRip database
Copy OK

Track 9

Filename D:\music\Musicgate's rips\Bill Baron - West Side Story Bossa Nova - 1963 (2002)\09 - Jet Song.wav

Pre-gap length 0:00:01.86

Peak level 99.9 %
Extraction speed 2.1 X
Track quality 99.9 %
Test CRC 4B21B954
Copy CRC 4B21B954
Track not present in AccurateRip database
Copy OK

Track 10

Filename D:\music\Musicgate's rips\Bill Baron - West Side Story Bossa Nova - 1963 (2002)\10 - Somewhere.wav

Pre-gap length 0:00:01.86

Peak level 99.9 %
Extraction speed 2.6 X
Track quality 100.0 %
Test CRC BB705C48
Copy CRC BB705C48
Track not present in AccurateRip database
Copy OK


None of the tracks are present in the AccurateRip database

No errors occurred

End of status report

==== Log checksum E31FEC4B82463A23787EF5FA31D6FC042D3276A141D431BBBFF3BCB1B0CE67C6 ====


Bill Baron - West Side Story Bossa Nova (1963) {Dauntless DC 6004 rel 2004}

Bill Baron - West Side Story Bossa Nova (1963) {Dauntless DC 6004 rel 2004}


see more Bill Barron…


===