Subcategories
Tags
Language
Tags

Bill Durst - The Great Willy Mammoth (2009) {Durstwerks CD 8882}

Posted By: ruskaval
Bill Durst - The Great Willy Mammoth (2009) {Durstwerks CD 8882}

Bill Durst - The Great Willy Mammoth (2009) {Durstwerks CD 8882}
EAC rip (secure mode) | FLAC (tracks)+CUE+LOG -> 318 Mb | MP3 @320 -> 101 Mb
Full Artwork @ 300 dpi (png) -> 37 Mb | 5% repair rar
© 2009 Durstwerks | CD 8882
Rock / Blues / Blues Rock

Bill Durst may very well be the closest thing to a bona fide musical living legend that our sleepy would-be metropolis has ever seen. From international chart success with his truly amazing band Thundermug to the many solo albums he has issued since, he has never given over to posturing of any kind and has stood his ground firmly regarding his music, personal identity and independence.

The Great Willy Mammoth is an impressive effort indeed, with Durst laying down fine and effortlessly sure performances with his gritty Rio Grande Mud vocals and bear-down-heard six-string work that will leave no doubt that the fire has not only definite not gone out here but in fact may be heating up more than a degree or two. Recommended.
Bill Durst - The Great Willy Mammoth (2009) {Durstwerks CD 8882}


Personnel
Bill Durst - vocals, electric guitar, acoustic guitar and mandolin
Tom Dobrentey - drums
Jeff "Stan" Fountain - bass
Corey Thompson - drums on Wandering Blues and Flower Song
Rob Wilmott - harmonica on Cafe On The Gaspe
Joe DeAngelis, Darren Morrison - background vocals

Track Listing:
01. River 04:27
02. Cafe On the Gaspe 03:00
03. Beautiful 04:41
04. The Great Willy Mammoth 03:38
05. Flower Song 04:15
06. Wandering Blues 05:29
07. Radio: Soul Survivor 02:57
08. Homeless 04:30
09. 39 Days 03:18
10. All the Blues in the World 06:10

Exact Audio Copy V1.0 beta 1 from 15. November 2010

EAC extraction logfile from 5. November 2012, 12:27

Bill Durst / The Great Willy Mammoth

Used drive : ATAPI iHAS224 Y Adapter: 2 ID: 0

Read mode : Secure
Utilize accurate stream : Yes
Defeat audio cache : Yes
Make use of C2 pointers : No

Read offset correction : 48
Overread into Lead-In and Lead-Out : No
Fill up missing offset samples with silence : Yes
Delete leading and trailing silent blocks : No
Null samples used in CRC calculations : Yes
Used interface : Native Win32 interface for Win NT & 2000
Gap handling : Appended to previous track

Used output format : Internal WAV Routines
Sample format : 44.100 Hz; 16 Bit; Stereo


TOC of the extracted CD

Track | Start | Length | Start sector | End sector
––––––––––––––––––––––––––––-
1 | 0:00.00 | 4:27.00 | 0 | 20024
2 | 4:27.00 | 2:59.51 | 20025 | 33500
3 | 7:26.51 | 4:41.17 | 33501 | 54592
4 | 12:07.68 | 3:38.16 | 54593 | 70958
5 | 15:46.09 | 4:14.44 | 70959 | 90052
6 | 20:00.53 | 5:29.13 | 90053 | 114740
7 | 25:29.66 | 2:56.59 | 114741 | 127999
8 | 28:26.50 | 4:30.01 | 128000 | 148250
9 | 32:56.51 | 3:17.58 | 148251 | 163083
10 | 36:14.34 | 6:09.57 | 163084 | 190815


Track 1

Filename C:\Users\Rob\Desktop\Uploads\Bill Durst - The Great Willy Mammoth (2009) [FLAC]\01 - River.wav

Pre-gap length 0:00:02.00

Peak level 100.0 %
Extraction speed 2.3 X
Track quality 100.0 %
Test CRC 38181631
Copy CRC 38181631
Track not present in AccurateRip database
Copy OK

Track 2

Filename C:\Users\Rob\Desktop\Uploads\Bill Durst - The Great Willy Mammoth (2009) [FLAC]\02 - Cafe On The Gaspe.wav

Peak level 100.0 %
Extraction speed 2.4 X
Track quality 100.0 %
Test CRC 5C085621
Copy CRC 5C085621
Track not present in AccurateRip database
Copy OK

Track 3

Filename C:\Users\Rob\Desktop\Uploads\Bill Durst - The Great Willy Mammoth (2009) [FLAC]\03 - Beautiful.wav

Peak level 100.0 %
Extraction speed 2.5 X
Track quality 99.9 %
Test CRC ECDDD450
Copy CRC ECDDD450
Track not present in AccurateRip database
Copy OK

Track 4

Filename C:\Users\Rob\Desktop\Uploads\Bill Durst - The Great Willy Mammoth (2009) [FLAC]\04 - The Great Willy Mammoth.wav

Peak level 100.0 %
Extraction speed 3.0 X
Track quality 100.0 %
Test CRC F2834E0D
Copy CRC F2834E0D
Track not present in AccurateRip database
Copy OK

Track 5

Filename C:\Users\Rob\Desktop\Uploads\Bill Durst - The Great Willy Mammoth (2009) [FLAC]\05 - Flower Song.wav

Peak level 100.0 %
Extraction speed 3.2 X
Track quality 100.0 %
Test CRC CC027ECC
Copy CRC CC027ECC
Track not present in AccurateRip database
Copy OK

Track 6

Filename C:\Users\Rob\Desktop\Uploads\Bill Durst - The Great Willy Mammoth (2009) [FLAC]\06 - Wandering Blues.wav

Peak level 100.0 %
Extraction speed 3.6 X
Track quality 100.0 %
Test CRC DF83948E
Copy CRC DF83948E
Track not present in AccurateRip database
Copy OK

Track 7

Filename C:\Users\Rob\Desktop\Uploads\Bill Durst - The Great Willy Mammoth (2009) [FLAC]\07 - Radio - Soul Survivor.wav

Peak level 100.0 %
Extraction speed 3.5 X
Track quality 100.0 %
Test CRC E1BC04FC
Copy CRC E1BC04FC
Track not present in AccurateRip database
Copy OK

Track 8

Filename C:\Users\Rob\Desktop\Uploads\Bill Durst - The Great Willy Mammoth (2009) [FLAC]\08 - Homeless.wav

Peak level 100.0 %
Extraction speed 3.9 X
Track quality 100.0 %
Test CRC 9D15F464
Copy CRC 9D15F464
Track not present in AccurateRip database
Copy OK

Track 9

Filename C:\Users\Rob\Desktop\Uploads\Bill Durst - The Great Willy Mammoth (2009) [FLAC]\09 - 39 Days.wav

Peak level 100.0 %
Extraction speed 3.8 X
Track quality 100.0 %
Test CRC 1C43CD82
Copy CRC 1C43CD82
Track not present in AccurateRip database
Copy OK

Track 10

Filename C:\Users\Rob\Desktop\Uploads\Bill Durst - The Great Willy Mammoth (2009) [FLAC]\10 - All The Blues In The World.wav

Peak level 100.0 %
Extraction speed 4.4 X
Track quality 100.0 %
Test CRC E5995157
Copy CRC E5995157
Track not present in AccurateRip database
Copy OK


None of the tracks are present in the AccurateRip database

No errors occurred

End of status report

==== Log checksum 2EC5D7BDC1DD9C312692735A65ED38FDA2986456854B52385B3E4CD9F1C236F5 ====


Bill Durst - The Great Willy Mammoth (2009) {Durstwerks CD 8882}

Bill Durst - The Great Willy Mammoth (2009) {Durstwerks CD 8882}



===