Tags
Language
Tags

Billy Higgins - The Soldier (1979) {2015 Japan Timeless Jazz Master Collection Complete Series CDSOL-6358}

Posted By: ruskaval
Billy Higgins - The Soldier (1979) {2015 Japan Timeless Jazz Master Collection Complete Series CDSOL-6358}

Billy Higgins - The Soldier (1979) {2015 Japan Timeless Jazz Master Collection Complete Series CDSOL-6358}
EAC rip (secure mode) | FLAC (tracks)+CUE+LOG -> 245 Mb | MP3 @320 -> 94 Mb
Full Artwork @ 600 dpi (png) -> 180 Mb | 5% repair rar
© 1979, 2015 Timeless Records / Solid Records Japan / Ultra-Vibe | CDSOL-6358
Jazz / Hard Bop / Drums

Reissue with the latest remastering. Features original cover artwork. Comes with a descripton in Japanese. A heck of a great little album from drummer Billy Higgins – one of his few standout efforts as a leader, after years and years of impeccable work as a player on some of our favorite records! The set's got a simple, almost innocuous approach – with Higgins leading a quartet that features Cedar Walton on piano, Walter Booker on bass, and Monty Waters on alto sax. But from the very first note, the album bristles with energy and excitement – in a mode that recalls the Clifford Jordan recordings that also featured Higgins from the mid 70s – sharing a similar sense of soulful and joyous expression. Waters is really great, with a really biting, honest tone – and singer Roberta Davis joins the group on an excellent reading of Waters' composition "Sugar & Spice". Other tracks include Walton's nice "Midnite Waltz", and great versions of Horace Silver's "Peace" and Sonny Rollins' "Sonnymoon For Two".
Billy Higgins - The Soldier (1979) {2015 Japan Timeless Jazz Master Collection Complete Series CDSOL-6358}


Ultra-Vibe INFO

Personnel:
Billy Higgins - drums
Cedar Walton - piano
Monty Waters - alto saxophone
Walter Booker - bass
Roberta Davis - vocal (on #1)

Recorded at Boogie Woogie Studios, New York City at December, 3, 1979
Producer - Cedar Walton


Billy Higgins - The Soldier (1979) {2015 Japan Timeless Jazz Master Collection Complete Series CDSOL-6358}


tracklist:
01 - Sugar And Spice
02 - Midnite Waltz
03 - Just In Time
04 - If You Could See Me Now
05 - Peace
06 - Sonny Moon For Two

Exact Audio Copy V1.3 from 2. September 2016

EAC extraction logfile from 14. January 2018, 16:07

Billy Higgins / The Soldier

Used drive : TSSTcorpCDDVDW SE-208DB Adapter: 1 ID: 0

Read mode : Secure
Utilize accurate stream : Yes
Defeat audio cache : Yes
Make use of C2 pointers : No

Read offset correction : 6
Overread into Lead-In and Lead-Out : No
Fill up missing offset samples with silence : Yes
Delete leading and trailing silent blocks : No
Null samples used in CRC calculations : Yes
Used interface : Native Win32 interface for Win NT & 2000
Gap handling : Appended to previous track

Used output format : User Defined Encoder
Selected bitrate : 1024 kBit/s
Quality : High
Add ID3 tag : No
Command line compressor : C:\Program Files (x86)\FLAC Frontend\tools\flac.exe
Additional command line options : -8 -V -T "ARTIST=%artist%" -T "TITLE=%title%" -T "ALBUM=%albumtitle%" -T "DATE=%year%" -T "TRACKNUMBER=%tracknr%" -T "TOTALTRACKS=%numtracks%" -T "GENRE=%genre%" -T "ALBUMARTIST=%albumartist%" -T "ALBUM ARTIST=%albumartist%" -T "COMMENT=EAC Secure Mode, Test & Copy, AccurateRip, FLAC -8" %source%


TOC of the extracted CD

Track | Start | Length | Start sector | End sector
––––––––––––––––––––––––––––-
1 | 0:00.00 | 4:50.34 | 0 | 21783
2 | 4:50.34 | 9:47.07 | 21784 | 65815
3 | 14:37.41 | 5:45.18 | 65816 | 91708
4 | 20:22.59 | 6:46.02 | 91709 | 122160
5 | 27:08.61 | 7:19.72 | 122161 | 155157
6 | 34:28.58 | 5:17.24 | 155158 | 178956


Track 1

Filename E:\EAC_RIP\Billy Higgins - The Soldier (1979) [FLAC] {Timeless Japan CDSOL-6358 rel 2015}\01 - Sugar And Spice.wav

Pre-gap length 0:00:02.00

Peak level 97.3 %
Extraction speed 1.1 X
Track quality 100.0 %
Test CRC 86477490
Copy CRC 86477490
Accurately ripped (confidence 3) [B75F4DA0] (AR v2)
Copy OK

Track 2

Filename E:\EAC_RIP\Billy Higgins - The Soldier (1979) [FLAC] {Timeless Japan CDSOL-6358 rel 2015}\02 - Midnite Waltz.wav

Peak level 97.3 %
Extraction speed 1.5 X
Track quality 100.0 %
Test CRC 213C6C67
Copy CRC 213C6C67
Accurately ripped (confidence 3) [023994F4] (AR v2)
Copy OK

Track 3

Filename E:\EAC_RIP\Billy Higgins - The Soldier (1979) [FLAC] {Timeless Japan CDSOL-6358 rel 2015}\03 - Just In Time.wav

Peak level 97.3 %
Extraction speed 1.6 X
Track quality 100.0 %
Test CRC FBC5F49E
Copy CRC FBC5F49E
Accurately ripped (confidence 3) [C66148BE] (AR v2)
Copy OK

Track 4

Filename E:\EAC_RIP\Billy Higgins - The Soldier (1979) [FLAC] {Timeless Japan CDSOL-6358 rel 2015}\04 - If You Could See Me Now.wav

Peak level 97.3 %
Extraction speed 1.6 X
Track quality 99.9 %
Test CRC 27E3FCA6
Copy CRC 27E3FCA6
Accurately ripped (confidence 3) [8A522BC0] (AR v2)
Copy OK

Track 5

Filename E:\EAC_RIP\Billy Higgins - The Soldier (1979) [FLAC] {Timeless Japan CDSOL-6358 rel 2015}\05 - Peace.wav

Peak level 97.3 %
Extraction speed 2.0 X
Track quality 100.0 %
Test CRC 4AA2E421
Copy CRC 4AA2E421
Accurately ripped (confidence 3) [07637F2D] (AR v2)
Copy OK

Track 6

Filename E:\EAC_RIP\Billy Higgins - The Soldier (1979) [FLAC] {Timeless Japan CDSOL-6358 rel 2015}\06 - Sonny Moon For Two.wav

Peak level 97.3 %
Extraction speed 2.0 X
Track quality 100.0 %
Test CRC 79EB6ED6
Copy CRC 79EB6ED6
Accurately ripped (confidence 3) [8825A7AC] (AR v2)
Copy OK


All tracks accurately ripped

No errors occurred

End of status report

==== Log checksum C79B8E01F4CEC6E3415AC8F5A748D05CABC9DE5A665DB3CEE27EA61C7FD70329 ====


Billy Higgins - The Soldier (1979) {2015 Japan Timeless Jazz Master Collection Complete Series CDSOL-6358}

Billy Higgins - The Soldier (1979) {2015 Japan Timeless Jazz Master Collection Complete Series CDSOL-6358}


see more Japan Timeless Jazz Master Collection…


===