Subcategories

Billy Kyle & Art Tatum - Havin' A Ball (1995) {2CD Set, History 20.1968-HI rec 1937-1941}

Posted By: ruskaval
Billy Kyle & Art Tatum - Havin' A Ball (1995) {2CD Set, History 20.1968-HI rec 1937-1941}

Billy Kyle & Art Tatum - Havin' A Ball (1995) {2CD Set, History 20.1968-HI rec 1937-1941}
EAC rip (secure mode) | FLAC (tracks)+CUE+LOG -> 300 Mb | MP3 @320 -> 194 Mb
Full Artwork @ 300 dpi (png) -> 23 Mb | 5% repair rar
© 1937-41, 1995 History | 20.1968-HI
Jazz / Swing / Piano

A fluent pianist with a light touch, Billy Kyle never achieved much fame, but he always worked steadily. A professional from the time he was 18, Kyle played in the big bands of Tiny Bradshaw and Lucky Millinder and then became an important part of the John Kirby Sextet (1938-1942), a perfect vehicle for his style. He was forced to leave the band when he was drafted and, after three years in the military (1942-1945), Kyle freelanced, working fairly often with Sy Oliver. He joined Louis Armstrong's All-Stars in 1953 and was there for nearly 13 years until his death.

His playing with Armstrong, although appealing, tended to be very predictable. Billy Kyle had very few opportunities to record as a leader and none during his Armstrong years; just some octet and septet sides in 1937, two songs with a quartet in 1939, and outings in 1946 with a trio and an octet, 17 songs in all.

Track Listing

CD1

1. Havin' A Ball (Kyle) - 2:39
2. Big Boy Blue (Lowrence - Howell - Tinturin) - .2:51
3. Margie (Davis - Conrad - Robinson) - 2:37
4. All You Want To Do Is Donee (Burke - Johnston) 2:27
5. Handle My Heort With Care (Kyle) - 2:37
6. Girl Of My Dreams (Clapp) - 2:29
7. Lorna Doone Shortbread (Bailey) - 2:55
8. Afternoon In Africa (Frye - Bailey) - 2:50
9. Baby, Won't You Please Come Home (Warfield - Williams) - 2:31
10. A Wee Bit Of Swing (Mothiesen - Rosenkrantz) - 2:33
11. When Day Is Done (De Sylvo - Katscher) - 2:17
12. The Song Is Ended (Berlin) - 2:15

Billy Kyle & Art Tatum - Havin' A Ball (1995) {2CD Set, History 20.1968-HI rec 1937-1941}


CD 2
1. Tea For Two (Youmans - Coesar) - 3:13
2. Sophisticoted Lady (Ellington - Parish - Mills) - 3:16
3. What Will I Tell My Heart (Tinturin - Lowrence) - 3:05
4. I've Got My Love To Keep Me Warm (Berlin) - 3:01
5. The Sheik Of Araby (Snyder - Smith - Wheeler) - 2:41
6. Stormy Weather (Arlen - Koehler) - 3:09
7. Gone With The Wind (Wrubel - Mogidson) - .2:50
8. I'll Get By (Ahlert) - 2:25
9. It Hod To Be You (Jones - Kohn) - 2:28
10. Tiger Rag (Lo Rocco - Fields - De Coste) - 2:12
11. Get Hoppy (Arlen - Koehler) - 2:42
12. Sweet Lorraine (Burwell - Parish) - 2:58
13. St. Louis Blues (Handy) - 2:27
14. Begin The Beguine (Porter) - 2:39
15 Indiana (Back Home Again In) (Hanley - McDonald) - 2:52
16. Rosetta (Hines - Woode) - 2:48
17. Stompin' At The Savoy (Sompson - Goodman - Webb) - 3:13
18. Battery Bounce (Tatum) - 2:30

Billy Kyle & Art Tatum - Havin' A Ball (1995) {2CD Set, History 20.1968-HI rec 1937-1941}


Exact Audio Copy V0.99 prebeta 4 from 23. January 2008

EAC extraction logfile from 25. April 2010, 20:24

Billy Kyle / Havin' A Ball

Used drive : HL-DT-STDVD-RAM GH22NP20 Adapter: 0 ID: 0

Read mode : Secure
Utilize accurate stream : Yes
Defeat audio cache : Yes
Make use of C2 pointers : No

Read offset correction : 102
Overread into Lead-In and Lead-Out : No
Fill up missing offset samples with silence : Yes
Delete leading and trailing silent blocks : No
Null samples used in CRC calculations : Yes
Used interface : Installed external ASPI interface
Gap handling : Appended to previous track

Used output format : User Defined Encoder
Selected bitrate : 320 kBit/s
Quality : High
Add ID3 tag : No
Command line compressor : C:\Program Files\Exact Audio Copy\Flac\flac.exe
Additional command line options : -V -8 -T "artist=%a" -T "title=%t" -T "album=%g" -T "date=%y" -T "tracknumber=%n" -T "genre=%m" %s


TOC of the extracted CD

Track | Start | Length | Start sector | End sector
––––––––––––––––––––––––––––-
1 | 0:00.00 | 2:41.73 | 0 | 12147
2 | 2:41.73 | 2:54.52 | 12148 | 25249
3 | 5:36.50 | 2:40.12 | 25250 | 37261
4 | 8:16.62 | 2:28.72 | 37262 | 48433
5 | 10:45.59 | 2:39.03 | 48434 | 60361
6 | 13:24.62 | 2:31.30 | 60362 | 71716
7 | 15:56.17 | 2:56.53 | 71717 | 84969
8 | 18:52.70 | 2:52.43 | 84970 | 97912
9 | 21:45.38 | 2:33.13 | 97913 | 109400
10 | 24:18.51 | 2:33.16 | 109401 | 120891
11 | 26:51.67 | 2:18.27 | 120892 | 131268
12 | 29:10.19 | 2:14.29 | 131269 | 141347


Track 1

Filename D:\music\Musicgate's rips\Billy Kyle, Art Tatum - Havin' A Ball (2CD) {History}\CD1 - Billy Kyle\01 - Havin' A Ball.wav

Pre-gap length 0:00:02.00

Peak level 73.6 %
Track quality 100.0 %
Test CRC 52BCF204
Copy CRC 52BCF204
Accurately ripped (confidence 2) [2D67A99B]
Copy OK

Track 2

Filename D:\music\Musicgate's rips\Billy Kyle, Art Tatum - Havin' A Ball (2CD) {History}\CD1 - Billy Kyle\02 - Big Boy Blue.wav

Pre-gap length 0:00:01.60

Peak level 73.4 %
Track quality 99.9 %
Test CRC 587A447A
Copy CRC 587A447A
Accurately ripped (confidence 2) [B0C3A717]
Copy OK

Track 3

Filename D:\music\Musicgate's rips\Billy Kyle, Art Tatum - Havin' A Ball (2CD) {History}\CD1 - Billy Kyle\03 - Margie.wav

Pre-gap length 0:00:01.60

Peak level 75.1 %
Track quality 100.0 %
Test CRC D7C2CCC5
Copy CRC D7C2CCC5
Accurately ripped (confidence 2) [029D9346]
Copy OK

Track 4

Filename D:\music\Musicgate's rips\Billy Kyle, Art Tatum - Havin' A Ball (2CD) {History}\CD1 - Billy Kyle\04 - All You Want To Do Is Dance.wav

Pre-gap length 0:00:01.60

Peak level 60.0 %
Track quality 100.0 %
Test CRC 694D0257
Copy CRC 694D0257
Accurately ripped (confidence 2) [CCB4FB0D]
Copy OK

Track 5

Filename D:\music\Musicgate's rips\Billy Kyle, Art Tatum - Havin' A Ball (2CD) {History}\CD1 - Billy Kyle\05 - Handle My Heart.wav

Pre-gap length 0:00:01.60

Peak level 67.0 %
Track quality 99.9 %
Test CRC 6ADA7D11
Copy CRC 6ADA7D11
Accurately ripped (confidence 2) [30733588]
Copy OK

Track 6

Filename D:\music\Musicgate's rips\Billy Kyle, Art Tatum - Havin' A Ball (2CD) {History}\CD1 - Billy Kyle\06 - Girl Of My Dreams.wav

Pre-gap length 0:00:01.60

Peak level 68.2 %
Track quality 99.9 %
Test CRC 0827DFDA
Copy CRC 0827DFDA
Accurately ripped (confidence 2) [18D206BC]
Copy OK

Track 7

Filename D:\music\Musicgate's rips\Billy Kyle, Art Tatum - Havin' A Ball (2CD) {History}\CD1 - Billy Kyle\07 - Lorna Doone Shortbread.wav

Pre-gap length 0:00:01.60

Peak level 86.5 %
Track quality 100.0 %
Test CRC C296069C
Copy CRC C296069C
Accurately ripped (confidence 2) [F3201922]
Copy OK

Track 8

Filename D:\music\Musicgate's rips\Billy Kyle, Art Tatum - Havin' A Ball (2CD) {History}\CD1 - Billy Kyle\08 - Afternoon In Africa.wav

Pre-gap length 0:00:01.60

Peak level 78.9 %
Track quality 100.0 %
Test CRC 751D7CF5
Copy CRC 751D7CF5
Accurately ripped (confidence 2) [FB263254]
Copy OK

Track 9

Filename D:\music\Musicgate's rips\Billy Kyle, Art Tatum - Havin' A Ball (2CD) {History}\CD1 - Billy Kyle\09 - Baby, Won't You Please Come Home.wav

Pre-gap length 0:00:01.60

Peak level 71.4 %
Track quality 100.0 %
Test CRC E55ECCFA
Copy CRC E55ECCFA
Accurately ripped (confidence 2) [92E6A325]
Copy OK

Track 10

Filename D:\music\Musicgate's rips\Billy Kyle, Art Tatum - Havin' A Ball (2CD) {History}\CD1 - Billy Kyle\10 - A Wee Bit Of Swing.wav

Pre-gap length 0:00:01.60

Peak level 65.7 %
Track quality 100.0 %
Test CRC 910D1EC7
Copy CRC 910D1EC7
Accurately ripped (confidence 2) [0D86F7B1]
Copy OK

Track 11

Filename D:\music\Musicgate's rips\Billy Kyle, Art Tatum - Havin' A Ball (2CD) {History}\CD1 - Billy Kyle\11 - When Day Is Done.wav

Pre-gap length 0:00:01.60

Peak level 75.8 %
Track quality 100.0 %
Test CRC 499E2DE7
Copy CRC 499E2DE7
Accurately ripped (confidence 2) [9E68C8DB]
Copy OK

Track 12

Filename D:\music\Musicgate's rips\Billy Kyle, Art Tatum - Havin' A Ball (2CD) {History}\CD1 - Billy Kyle\12 - The Song is Ended.wav

Pre-gap length 0:00:01.60

Peak level 80.6 %
Track quality 100.0 %
Test CRC 0E18AE5A
Copy CRC 0E18AE5A
Accurately ripped (confidence 2) [F1A4FE67]
Copy OK


All tracks accurately ripped

No errors occurred

End of status report
Exact Audio Copy V0.99 prebeta 4 from 23. January 2008

EAC extraction logfile from 25. April 2010, 19:12

Art Tatum / Havin' A Ball

Used drive : HL-DT-STDVD-RAM GH22NP20 Adapter: 0 ID: 0

Read mode : Secure
Utilize accurate stream : Yes
Defeat audio cache : Yes
Make use of C2 pointers : No

Read offset correction : 102
Overread into Lead-In and Lead-Out : No
Fill up missing offset samples with silence : Yes
Delete leading and trailing silent blocks : No
Null samples used in CRC calculations : Yes
Used interface : Installed external ASPI interface
Gap handling : Appended to previous track

Used output format : User Defined Encoder
Selected bitrate : 320 kBit/s
Quality : High
Add ID3 tag : No
Command line compressor : C:\Program Files\Exact Audio Copy\Flac\flac.exe
Additional command line options : -V -8 -T "artist=%a" -T "title=%t" -T "album=%g" -T "date=%y" -T "tracknumber=%n" -T "genre=%m" %s


TOC of the extracted CD

Track | Start | Length | Start sector | End sector
––––––––––––––––––––––––––––-
1 | 0:00.00 | 3:14.07 | 0 | 14556
2 | 3:14.07 | 3:16.25 | 14557 | 29281
3 | 6:30.32 | 3:06.12 | 29282 | 43243
4 | 9:36.44 | 3:01.32 | 43244 | 56850
5 | 12:38.01 | 2:41.69 | 56851 | 68994
6 | 15:19.70 | 3:09.66 | 68995 | 83235
7 | 18:29.61 | 2:50.19 | 83236 | 96004
8 | 21:20.05 | 2:25.09 | 96005 | 106888
9 | 23:45.14 | 2:28.08 | 106889 | 117996
10 | 26:13.22 | 2:12.38 | 117997 | 127934
11 | 28:25.60 | 2:42.51 | 127935 | 140135
12 | 31:08.36 | 2:58.46 | 140136 | 153531
13 | 34:07.07 | 2:28.46 | 153532 | 164677
14 | 36:35.53 | 2:39.56 | 164678 | 176658
15 | 39:15.34 | 2:52.61 | 176659 | 189619
16 | 42:08.20 | 2:48.30 | 189620 | 202249
17 | 44:56.50 | 3:13.54 | 202250 | 216778
18 | 48:10.29 | 2:29.00 | 216779 | 227953


Track 1

Filename D:\music\Musicgate's rips\Billy Kyle, Art Tatum - Havin' A Ball (2CD) {History}\CD2 - Art Tatum\01 - Tea For Two.wav

Pre-gap length 0:00:02.00

Peak level 65.9 %
Track quality 100.0 %
Test CRC 460AD06F
Copy CRC 460AD06F
Accurately ripped (confidence 2) [635FE895]
Copy OK

Track 2

Filename D:\music\Musicgate's rips\Billy Kyle, Art Tatum - Havin' A Ball (2CD) {History}\CD2 - Art Tatum\02 - Sophisticated Lady.wav

Pre-gap length 0:00:01.60

Peak level 59.3 %
Track quality 100.0 %
Test CRC 26A97147
Copy CRC 26A97147
Accurately ripped (confidence 2) [59AA2C8F]
Copy OK

Track 3

Filename D:\music\Musicgate's rips\Billy Kyle, Art Tatum - Havin' A Ball (2CD) {History}\CD2 - Art Tatum\03 - What Will I Tell My Heart.wav

Pre-gap length 0:00:01.60

Peak level 71.6 %
Track quality 100.0 %
Test CRC 84874269
Copy CRC 84874269
Track not present in AccurateRip database
Copy OK

Track 4

Filename D:\music\Musicgate's rips\Billy Kyle, Art Tatum - Havin' A Ball (2CD) {History}\CD2 - Art Tatum\04 - I've Got My Love To Keep Me Warm.wav

Pre-gap length 0:00:01.60

Peak level 69.8 %
Track quality 100.0 %
Test CRC 3D723D27
Copy CRC 3D723D27
Track not present in AccurateRip database
Copy OK

Track 5

Filename D:\music\Musicgate's rips\Billy Kyle, Art Tatum - Havin' A Ball (2CD) {History}\CD2 - Art Tatum\05 - The Sheik Of Araby.wav

Pre-gap length 0:00:01.60

Peak level 56.8 %
Track quality 100.0 %
Test CRC 05254F86
Copy CRC 05254F86
Accurately ripped (confidence 2) [EC3271B1]
Copy OK

Track 6

Filename D:\music\Musicgate's rips\Billy Kyle, Art Tatum - Havin' A Ball (2CD) {History}\CD2 - Art Tatum\06 - Stormy Weather.wav

Pre-gap length 0:00:01.60

Peak level 74.4 %
Track quality 100.0 %
Test CRC BC892976
Copy CRC BC892976
Accurately ripped (confidence 2) [FB9BD78C]
Copy OK

Track 7

Filename D:\music\Musicgate's rips\Billy Kyle, Art Tatum - Havin' A Ball (2CD) {History}\CD2 - Art Tatum\07 - Gone With The Wind.wav

Pre-gap length 0:00:01.60

Peak level 72.8 %
Track quality 100.0 %
Test CRC 66C74C68
Copy CRC 66C74C68
Accurately ripped (confidence 2) [4D787E79]
Copy OK

Track 8

Filename D:\music\Musicgate's rips\Billy Kyle, Art Tatum - Havin' A Ball (2CD) {History}\CD2 - Art Tatum\08 - I'll Get By.wav

Pre-gap length 0:00:01.60

Peak level 54.3 %
Track quality 99.9 %
Test CRC 8D33EB7D
Copy CRC 8D33EB7D
Accurately ripped (confidence 2) [D36778B5]
Copy OK

Track 9

Filename D:\music\Musicgate's rips\Billy Kyle, Art Tatum - Havin' A Ball (2CD) {History}\CD2 - Art Tatum\09 - It Had To Be You.wav

Pre-gap length 0:00:01.60

Peak level 66.1 %
Track quality 99.9 %
Test CRC FA48D186
Copy CRC FA48D186
Accurately ripped (confidence 2) [65A8C9D3]
Copy OK

Track 10

Filename D:\music\Musicgate's rips\Billy Kyle, Art Tatum - Havin' A Ball (2CD) {History}\CD2 - Art Tatum\10 - Tiger Rag.wav

Pre-gap length 0:00:01.60

Peak level 70.0 %
Track quality 99.9 %
Test CRC 8EB2FA5C
Copy CRC 8EB2FA5C
Track not present in AccurateRip database
Copy OK

Track 11

Filename D:\music\Musicgate's rips\Billy Kyle, Art Tatum - Havin' A Ball (2CD) {History}\CD2 - Art Tatum\11 - Get Happy.wav

Pre-gap length 0:00:01.60

Peak level 71.4 %
Track quality 99.9 %
Test CRC 8AB9923B
Copy CRC 8AB9923B
Track not present in AccurateRip database
Copy OK

Track 12

Filename D:\music\Musicgate's rips\Billy Kyle, Art Tatum - Havin' A Ball (2CD) {History}\CD2 - Art Tatum\12 - Sweet Lorraine.wav

Pre-gap length 0:00:01.60

Peak level 81.2 %
Track quality 100.0 %
Test CRC 2E37691D
Copy CRC 2E37691D
Accurately ripped (confidence 2) [40F821A5]
Copy OK

Track 13

Filename D:\music\Musicgate's rips\Billy Kyle, Art Tatum - Havin' A Ball (2CD) {History}\CD2 - Art Tatum\13 - St. Louis Blues.wav

Pre-gap length 0:00:01.60

Peak level 65.9 %
Track quality 100.0 %
Test CRC 1128E61B
Copy CRC 1128E61B
Accurately ripped (confidence 2) [0C4347C0]
Copy OK

Track 14

Filename D:\music\Musicgate's rips\Billy Kyle, Art Tatum - Havin' A Ball (2CD) {History}\CD2 - Art Tatum\14 - Begin The Beguine.wav

Pre-gap length 0:00:01.60

Peak level 61.7 %
Track quality 99.9 %
Test CRC 6C80F2D4
Copy CRC 6C80F2D4
Accurately ripped (confidence 2) [D749F15A]
Copy OK

Track 15

Filename D:\music\Musicgate's rips\Billy Kyle, Art Tatum - Havin' A Ball (2CD) {History}\CD2 - Art Tatum\15 - Indiana (Back Home Again).wav

Pre-gap length 0:00:01.60

Peak level 64.8 %
Track quality 100.0 %
Test CRC D8E8659B
Copy CRC D8E8659B
Accurately ripped (confidence 2) [AEE30751]
Copy OK

Track 16

Filename D:\music\Musicgate's rips\Billy Kyle, Art Tatum - Havin' A Ball (2CD) {History}\CD2 - Art Tatum\16 - Rosetta.wav

Pre-gap length 0:00:01.60

Peak level 72.7 %
Track quality 100.0 %
Test CRC 4B5CA669
Copy CRC 4B5CA669
Accurately ripped (confidence 2) [8AEF05E6]
Copy OK

Track 17

Filename D:\music\Musicgate's rips\Billy Kyle, Art Tatum - Havin' A Ball (2CD) {History}\CD2 - Art Tatum\17 - Stompin' At The Savoy.wav

Pre-gap length 0:00:01.60

Peak level 73.0 %
Track quality 100.0 %
Test CRC B9949125
Copy CRC B9949125
Accurately ripped (confidence 2) [3DF653BB]
Copy OK

Track 18

Filename D:\music\Musicgate's rips\Billy Kyle, Art Tatum - Havin' A Ball (2CD) {History}\CD2 - Art Tatum\18 - Battery Bounce.wav

Pre-gap length 0:00:01.60

Peak level 68.3 %
Track quality 100.0 %
Test CRC D8CD3BF5
Copy CRC D8CD3BF5
Accurately ripped (confidence 2) [D2881E7C]
Copy OK


14 track(s) accurately ripped
4 track(s) not present in the AccurateRip database

Some tracks could not be verified as accurate

No errors occurred

End of status report


Billy Kyle & Art Tatum - Havin' A Ball (1995) {2CD Set, History 20.1968-HI rec 1937-1941}



===