Tags
Language
Tags

Billy Taylor - Warming Up! (1961) {Milestone MCD 47103-2 rel 2004}

Posted By: ruskaval
Billy Taylor - Warming Up! (1961) {Milestone MCD 47103-2 rel 2004}

Billy Taylor - Warming Up! (1961) {Milestone MCD 47103-2 rel 2004}
EAC rip (secure mode) | FLAC (tracks)+CUE+LOG -> 449 Mb | MP3 @320 -> 179 Mb
Full Artwork @ 300 dpi (jpg) -> 30 Mb | 5% repair rar
© 1960-61, 2004 Milestone Records / Fantasy | MCD 47103-2
Jazz / Bop / Hard Bop / Piano

Warming Up! collects two trio albums recorded by pianist Billy Taylor in 1960-1961, the first under the same title, the second Interlude. On the first 12 pieces he's joined by bassist Henry Grimes and drummer Ray Mosca, on the later 11, Doug Watkins takes Grimes' place. The similar setup and personnel mean that both albums flow together as a piece, though each carries a separate mood owing to the albums' different conceptions.

Warming Up! was slotted for a radio transcription company, which meant that the tracks would be kept short (three minutes or less). This design gives pieces like "That's Where It's At" and "Don't Bug Me" a nice, compact unity while still allowing Taylor plenty of room for his fluid style. The Interlude tracks, on the other hand, worked more like short suites from a symphony, moving through the beginning, middle, and end of a love affair. While the compositions run a little longer here, most stay within the four- to five-minute range. The mood of pieces like "You Tempt Me" and "Did You Dream Too" is much more introspective. Taken together, the two recordings sound like two set lists, one recorded in the early evening, the other late at night. Taylor's light touch sensitively captures both frames of mind, making Warming Up! a fine introduction to a fine pianist.
Billy Taylor - Warming Up! (1961) {Milestone MCD 47103-2 rel 2004}


Personnel
Bass – Doug Watkins (tracks: 13-21), Henry Grimes (tracks: 1-12)
Drums – Ray Mosca
Piano – Billy Taylor

# 1-12 recorded in New York City; March 26, 1960 and originally released as 'Warming Up!' (Riverside RLP-1195).
# 13-21 recorded by Rudy Van Gelder at Van Gelder Studio, Englewood Cliffs, NJ; Jan. 3, 1961 and originally released as 'Interlude' (Prestige Moodsville MV 16).


Tracks:

1.Warming Up
2. Easy Like
3.That's Where It Is
4.Afterthoughts
5.Easy Walker
6.Lonesome Lover
7.Don't Bug Me
8.Coffee Break
9.Ya Know What I Mean
10.Native Dancer
11.Uncle Fuzzy
12.No Aftertaste
13.You Tempt Me
14.Did You Dream Too
15.You're All that Matters
16.Interlude
17.You're Mine
18.My heart Sings
19.I Sigh
20.Here Today Gone Tomorrow Love
21.All Alone

Exact Audio Copy V0.99 prebeta 4 from 23. January 2008

EAC extraction logfile from 27. February 2010, 19:50

The Billy Taylor Trio / Warming Up!

Used drive : DVDRW IDE 16X Adapter: 4 ID: 0

Read mode : Secure
Utilize accurate stream : Yes
Defeat audio cache : Yes
Make use of C2 pointers : No

Read offset correction : 12
Overread into Lead-In and Lead-Out : No
Fill up missing offset samples with silence : Yes
Delete leading and trailing silent blocks : No
Null samples used in CRC calculations : Yes
Used interface : Installed external ASPI interface
Gap handling : Appended to previous track

Used output format : User Defined Encoder
Selected bitrate : 128 kBit/s
Quality : High
Add ID3 tag : No
Command line compressor : C:\Program Files\Exact Audio Copy\Flac\flac.exe
Additional command line options : -8 -V -T "ARTIST=%a" -T "TITLE=%t" -T "ALBUM=%g" -T "DATE=%y" -T "TRACKNUMBER=%n" -T "TOTALTRACKS=%x" -T "GENRE=%m" -T "ALBUM ARTIST=%v" -T "ALBUMARTIST=%v" -T "COMMENT=EAC V0.99 prebeta 4, Secure Mode, Test & Copy, Accurat


TOC of the extracted CD

Track | Start | Length | Start sector | End sector
––––––––––––––––––––––––––––-
1 | 0:00.00 | 2:29.17 | 0 | 11191
2 | 2:29.17 | 2:36.38 | 11192 | 22929
3 | 5:05.55 | 2:45.15 | 22930 | 35319
4 | 7:50.70 | 2:51.50 | 35320 | 48194
5 | 10:42.45 | 2:46.07 | 48195 | 60651
6 | 13:28.52 | 2:29.63 | 60652 | 71889
7 | 15:58.40 | 2:36.00 | 71890 | 83589
8 | 18:34.40 | 3:05.20 | 83590 | 97484
9 | 21:39.60 | 3:04.52 | 97485 | 111336
10 | 24:44.37 | 2:31.68 | 111337 | 122729
11 | 27:16.30 | 2:36.17 | 122730 | 134446
12 | 29:52.47 | 3:08.03 | 134447 | 148549
13 | 33:00.50 | 3:58.22 | 148550 | 166421
14 | 36:58.72 | 5:10.03 | 166422 | 189674
15 | 42:09.00 | 4:28.70 | 189675 | 209844
16 | 46:37.70 | 4:24.32 | 209845 | 229676
17 | 51:02.27 | 5:21.00 | 229677 | 253751
18 | 56:23.27 | 4:59.40 | 253752 | 276216
19 | 61:22.67 | 4:04.68 | 276217 | 294584
20 | 65:27.60 | 4:24.35 | 294585 | 314419
21 | 69:52.20 | 4:39.40 | 314420 | 335384


Track 1

Filename G:\Flac Rips\1\The Billy Taylor Trio - Warming Up! (2004) [FLAC]\01 - Warming Up.wav

Pre-gap length 0:00:02.00

Peak level 100.0 %
Track quality 100.0 %
Test CRC D4750819
Copy CRC D4750819
Cannot be verified as accurate (confidence 2) [CA42A182], AccurateRip returned [9C8A9A1E]
Copy OK

Track 2

Filename G:\Flac Rips\1\The Billy Taylor Trio - Warming Up! (2004) [FLAC]\02 - Easy Like.wav

Pre-gap length 0:00:02.26

Peak level 98.8 %
Track quality 100.0 %
Test CRC C8D4A694
Copy CRC C8D4A694
Cannot be verified as accurate (confidence 2) [B1AC32E5], AccurateRip returned [3259597A]
Copy OK

Track 3

Filename G:\Flac Rips\1\The Billy Taylor Trio - Warming Up! (2004) [FLAC]\03 - That's Where It Is.wav

Pre-gap length 0:00:02.13

Peak level 99.5 %
Track quality 100.0 %
Test CRC 326969AA
Copy CRC 326969AA
Cannot be verified as accurate (confidence 2) [36AAB997], AccurateRip returned [0B5E89E7]
Copy OK

Track 4

Filename G:\Flac Rips\1\The Billy Taylor Trio - Warming Up! (2004) [FLAC]\04 - Afterthoughts.wav

Pre-gap length 0:00:02.66

Peak level 96.9 %
Track quality 99.9 %
Test CRC 03FE671B
Copy CRC 03FE671B
Cannot be verified as accurate (confidence 2) [DC90817F], AccurateRip returned [1B2452BC]
Copy OK

Track 5

Filename G:\Flac Rips\1\The Billy Taylor Trio - Warming Up! (2004) [FLAC]\05 - Easy Walker.wav

Pre-gap length 0:00:02.40

Peak level 100.0 %
Track quality 100.0 %
Test CRC 5F12F1FB
Copy CRC 5F12F1FB
Cannot be verified as accurate (confidence 2) [4494A8F8], AccurateRip returned [64D1F781]
Copy OK

Track 6

Filename G:\Flac Rips\1\The Billy Taylor Trio - Warming Up! (2004) [FLAC]\06 - Lonesome Lover.wav

Pre-gap length 0:00:02.86

Peak level 98.6 %
Track quality 100.0 %
Test CRC 19D5B828
Copy CRC 19D5B828
Cannot be verified as accurate (confidence 2) [3C45C7DC], AccurateRip returned [0855B9D6]
Copy OK

Track 7

Filename G:\Flac Rips\1\The Billy Taylor Trio - Warming Up! (2004) [FLAC]\07 - Don't Bug Me.wav

Pre-gap length 0:00:04.93

Peak level 98.7 %
Track quality 100.0 %
Test CRC 985F2F96
Copy CRC 985F2F96
Cannot be verified as accurate (confidence 2) [15792E81], AccurateRip returned [3D9438E2]
Copy OK

Track 8

Filename G:\Flac Rips\1\The Billy Taylor Trio - Warming Up! (2004) [FLAC]\08 - Coffee Break.wav

Pre-gap length 0:00:02.70

Peak level 99.3 %
Track quality 99.9 %
Test CRC DDB96887
Copy CRC DDB96887
Cannot be verified as accurate (confidence 2) [0DF799C8], AccurateRip returned [9842F0A4]
Copy OK

Track 9

Filename G:\Flac Rips\1\The Billy Taylor Trio - Warming Up! (2004) [FLAC]\09 - Ya Know What I Mean.wav

Pre-gap length 0:00:02.64

Peak level 100.0 %
Track quality 100.0 %
Test CRC 7C3F87F7
Copy CRC 7C3F87F7
Cannot be verified as accurate (confidence 2) [33357461], AccurateRip returned [5FA6C1B8]
Copy OK

Track 10

Filename G:\Flac Rips\1\The Billy Taylor Trio - Warming Up! (2004) [FLAC]\10 - Native Dancer.wav

Pre-gap length 0:00:02.49

Peak level 99.7 %
Track quality 100.0 %
Test CRC 4AC7E084
Copy CRC 4AC7E084
Cannot be verified as accurate (confidence 2) [B4C2B9A5], AccurateRip returned [EDB72859]
Copy OK

Track 11

Filename G:\Flac Rips\1\The Billy Taylor Trio - Warming Up! (2004) [FLAC]\11 - Uncle Fuzzy.wav

Pre-gap length 0:00:02.53

Peak level 100.0 %
Track quality 100.0 %
Test CRC 9DD7D046
Copy CRC 9DD7D046
Cannot be verified as accurate (confidence 2) [2388DCF8], AccurateRip returned [859CF64E]
Copy OK

Track 12

Filename G:\Flac Rips\1\The Billy Taylor Trio - Warming Up! (2004) [FLAC]\12 - No Aftertaste.wav

Pre-gap length 0:00:03.62

Peak level 100.0 %
Track quality 100.0 %
Test CRC 7F01B2EF
Copy CRC 7F01B2EF
Cannot be verified as accurate (confidence 2) [A49177F0], AccurateRip returned [8A2F1D96]
Copy OK

Track 13

Filename G:\Flac Rips\1\The Billy Taylor Trio - Warming Up! (2004) [FLAC]\13 - You Tempt Me.wav

Pre-gap length 0:00:06.50

Peak level 100.0 %
Track quality 100.0 %
Test CRC 302F6F61
Copy CRC 302F6F61
Cannot be verified as accurate (confidence 2) [84714B4F], AccurateRip returned [77BB87A0]
Copy OK

Track 14

Filename G:\Flac Rips\1\The Billy Taylor Trio - Warming Up! (2004) [FLAC]\14 - Did You Dream Too.wav

Pre-gap length 0:00:02.16

Peak level 98.7 %
Track quality 100.0 %
Test CRC BBDA18F7
Copy CRC BBDA18F7
Cannot be verified as accurate (confidence 2) [C37A9474], AccurateRip returned [B63A3F26]
Copy OK

Track 15

Filename G:\Flac Rips\1\The Billy Taylor Trio - Warming Up! (2004) [FLAC]\15 - You're All That Matters.wav

Pre-gap length 0:00:02.33

Peak level 98.5 %
Track quality 100.0 %
Test CRC F7E100D1
Copy CRC F7E100D1
Cannot be verified as accurate (confidence 2) [B70E7E8C], AccurateRip returned [579D3F56]
Copy OK

Track 16

Filename G:\Flac Rips\1\The Billy Taylor Trio - Warming Up! (2004) [FLAC]\16 - Interlude.wav

Pre-gap length 0:00:03.46

Peak level 98.6 %
Track quality 100.0 %
Test CRC 4DA57EA0
Copy CRC 4DA57EA0
Cannot be verified as accurate (confidence 2) [E1633A90], AccurateRip returned [2FB2E61F]
Copy OK

Track 17

Filename G:\Flac Rips\1\The Billy Taylor Trio - Warming Up! (2004) [FLAC]\17 - You're Mine.wav

Pre-gap length 0:00:03.36

Peak level 100.0 %
Track quality 100.0 %
Test CRC AD253A68
Copy CRC AD253A68
Cannot be verified as accurate (confidence 2) [5768471C], AccurateRip returned [2B8D4437]
Copy OK

Track 18

Filename G:\Flac Rips\1\The Billy Taylor Trio - Warming Up! (2004) [FLAC]\18 - My Heart Sings.wav

Pre-gap length 0:00:02.06

Peak level 98.7 %
Track quality 99.9 %
Test CRC 7C29B514
Copy CRC 7C29B514
Cannot be verified as accurate (confidence 2) [9CB0BA01], AccurateRip returned [9423D287]
Copy OK

Track 19

Filename G:\Flac Rips\1\The Billy Taylor Trio - Warming Up! (2004) [FLAC]\19 - I Sigh.wav

Pre-gap length 0:00:02.36

Peak level 98.6 %
Track quality 100.0 %
Test CRC 3C62882E
Copy CRC 3C62882E
Cannot be verified as accurate (confidence 2) [73FB7B30], AccurateRip returned [52B15B1A]
Copy OK

Track 20

Filename G:\Flac Rips\1\The Billy Taylor Trio - Warming Up! (2004) [FLAC]\20 - Here Today Gone Tomorrow Love.wav

Pre-gap length 0:00:02.10

Peak level 98.5 %
Track quality 100.0 %
Test CRC 713F1578
Copy CRC 713F1578
Cannot be verified as accurate (confidence 2) [56819D8E], AccurateRip returned [167C8F2F]
Copy OK

Track 21

Filename G:\Flac Rips\1\The Billy Taylor Trio - Warming Up! (2004) [FLAC]\21 - All Alone.wav

Pre-gap length 0:00:02.13

Peak level 100.0 %
Track quality 100.0 %
Test CRC 4EEEEF34
Copy CRC 4EEEEF34
Cannot be verified as accurate (confidence 2) [C4D82B03], AccurateRip returned [9B5A2E22]
Copy OK


No tracks could be verified as accurate
You may have a different pressing from the one(s) in the database

No errors occurred

End of status report


Billy Taylor - Warming Up! (1961) {Milestone MCD 47103-2 rel 2004}

Billy Taylor - Warming Up! (1961) {Milestone MCD 47103-2 rel 2004}


see more Billy Taylor…


===