Tags
Language
Tags
December 2022
Su Mo Tu We Th Fr Sa
27 28 29 30 1 2 3
4 5 6 7 8 9 10
11 12 13 14 15 16 17
18 19 20 21 22 23 24
25 26 27 28 29 30 31

black midi - Hellfire (2022)

Posted By: delpotro
black midi - Hellfire (2022)

black midi - Hellfire (2022)
EAC Rip | FLAC (tracks+log+.cue) - 264 Mb | MP3 CBR 320 kbps - 90 Mb | 00:38:58
Post-Punk, Math Rock, Art Rock | Label: Rough Trade Records

black midi present their third album and second in two years, Hellfire. Hellfire sees the London three piece at their most direct. Written in isolation in London in 2021 almost immediately after it’s predecessor Cavalcade - no band can quite build their own universe like black midi. Hellfire picks up right where Cavalcade left off. Where Schlagenheim was much more based on ‘jams’ and collaboration, Cavalcade a mixture of isolation and collaboration, Hellfire falls on the other side of the spectrum of working in isolation.

Musically, Hellfire builds on the brutality and intensity of Schlagenheim while also drawing on the more melodic elements that weave through Cavalcade. Lead-singer Geordie says “If Cavalcade was a drama, Hellfire is like an epic action film,” that delves into overlapping themes of pain, loss and anguish.

Flexi - Live at Electrical Audio, Recorded by Steve Albini. In November 2021, at the end of their celebrated US tour, black midi recorded a live album with Steve Albini at Electrical Audio in Chicago capturing songs from across their catalogue. 6 of those songs are pressed on 6 Flexi Discs (one song each), which are individually available with a limited number of album pre-orders from specific retailers. Rough Trade Shops have the stunning version of 953 from schlagenheim.
Tracklist:
1. Hellfire (01:24)
2. Sugar/Tzu (03:50)
3. Eat Men Eat (03:08)
4. Welcome To Hell (04:09)
5. Still (05:46)
6. Half Time (00:26)
7. The Race Is About To Begin (07:15)
8. Dangerous Liaisons (04:14)
9. The Defence (02:59)
10. 27 Questions (05:43)

Exact Audio Copy V1.6 from 23. October 2020

EAC extraction logfile from 9. July 2022, 19:45

black midi / Hellfire

Used drive : HL-DT-STBD-RE BP50NB40 Adapter: 1 ID: 0

Read mode : Secure
Utilize accurate stream : Yes
Defeat audio cache : Yes
Make use of C2 pointers : No

Read offset correction : 6
Overread into Lead-In and Lead-Out : No
Fill up missing offset samples with silence : Yes
Delete leading and trailing silent blocks : No
Null samples used in CRC calculations : Yes
Used interface : Native Win32 interface for Win NT & 2000
Gap handling : Appended to previous track

Used output format : User Defined Encoder
Selected bitrate : 1024 kBit/s
Quality : High
Add ID3 tag : No
Command line compressor : C:\Program Files (x86)\FLAC\flac-1.3.2-win\win64\flac.exe
Additional command line options : -8 -V -T "ARTIST=%artist%" -T "TITLE=%title%" -T "ALBUM=%albumtitle%" -T "DATE=%year%" -T "TRACKNUMBER=%tracknr%" -T "GENRE=%genre%" -T "PERFORMER=%albuminterpret%" -T "COMPOSER=%composer%" -T "ALBUMARTIST=%albumartist%" -T "DISCNUMBER=%cdnumber%" -T "TOTALDISCS=%totalcds%" -T "TOTALTRACKS=%numtracks%" -T "COMMENT=%comment%" %source% -o %dest%


TOC of the extracted CD

Track | Start | Length | Start sector | End sector
––––––––––––––––––––––––––––-
1 | 0:00.00 | 1:24.21 | 0 | 6320
2 | 1:24.21 | 3:50.52 | 6321 | 23622
3 | 5:14.73 | 3:08.13 | 23623 | 37735
4 | 8:23.11 | 4:09.53 | 37736 | 56463
5 | 12:32.64 | 5:46.15 | 56464 | 82428
6 | 18:19.04 | 0:26.08 | 82429 | 84386
7 | 18:45.12 | 7:15.14 | 84387 | 117025
8 | 26:00.26 | 4:14.72 | 117026 | 136147
9 | 30:15.23 | 2:59.23 | 136148 | 149595
10 | 33:14.46 | 5:43.53 | 149596 | 175373


Track 1

Filename C:\FUCK\audio temp\black midi - Hellfire (EAC 100% FLAC)\01 - Hellfire.wav

Pre-gap length 0:00:02.00

Peak level 97.7 %
Extraction speed 2.1 X
Track quality 100.0 %
Test CRC C680FA11
Copy CRC C680FA11
Track not present in AccurateRip database
Copy OK

Track 2

Filename C:\FUCK\audio temp\black midi - Hellfire (EAC 100% FLAC)\02 - Sugar,Tzu.wav

Peak level 97.7 %
Extraction speed 2.8 X
Track quality 100.0 %
Test CRC B491BA94
Copy CRC B491BA94
Track not present in AccurateRip database
Copy OK

Track 3

Filename C:\FUCK\audio temp\black midi - Hellfire (EAC 100% FLAC)\03 - Eat Men Eat.wav

Peak level 97.7 %
Extraction speed 2.9 X
Track quality 100.0 %
Test CRC 5B596E68
Copy CRC 5B596E68
Track not present in AccurateRip database
Copy OK

Track 4

Filename C:\FUCK\audio temp\black midi - Hellfire (EAC 100% FLAC)\04 - Welcome to Hell.wav

Peak level 97.7 %
Extraction speed 3.3 X
Track quality 100.0 %
Test CRC BD078D70
Copy CRC BD078D70
Track not present in AccurateRip database
Copy OK

Track 5

Filename C:\FUCK\audio temp\black midi - Hellfire (EAC 100% FLAC)\05 - Still.wav

Peak level 97.7 %
Extraction speed 3.7 X
Track quality 100.0 %
Test CRC 76A52A65
Copy CRC 76A52A65
Track not present in AccurateRip database
Copy OK

Track 6

Filename C:\FUCK\audio temp\black midi - Hellfire (EAC 100% FLAC)\06 - Half Time.wav

Peak level 65.2 %
Extraction speed 1.8 X
Track quality 100.0 %
Test CRC EB94D110
Copy CRC EB94D110
Track not present in AccurateRip database
Copy OK

Track 7

Filename C:\FUCK\audio temp\black midi - Hellfire (EAC 100% FLAC)\07 - The Race Is About to Begin.wav

Peak level 97.7 %
Extraction speed 4.3 X
Track quality 100.0 %
Test CRC 8B4B4D51
Copy CRC 8B4B4D51
Track not present in AccurateRip database
Copy OK

Track 8

Filename C:\FUCK\audio temp\black midi - Hellfire (EAC 100% FLAC)\08 - Dangerous Liaisons.wav

Peak level 97.7 %
Extraction speed 3.5 X
Track quality 99.9 %
Test CRC ABD46DE2
Copy CRC ABD46DE2
Track not present in AccurateRip database
Copy OK

Track 9

Filename C:\FUCK\audio temp\black midi - Hellfire (EAC 100% FLAC)\09 - The Defence.wav

Peak level 97.7 %
Extraction speed 4.3 X
Track quality 100.0 %
Test CRC 8CF48876
Copy CRC 8CF48876
Track not present in AccurateRip database
Copy OK

Track 10

Filename C:\FUCK\audio temp\black midi - Hellfire (EAC 100% FLAC)\10 - 27 Questions.wav

Peak level 97.7 %
Extraction speed 4.8 X
Track quality 100.0 %
Test CRC 5973B1A8
Copy CRC 5973B1A8
Track not present in AccurateRip database
Copy OK


None of the tracks are present in the AccurateRip database

No errors occurred

End of status report

–– CUETools DB Plugin V2.1.6

[CTDB TOCID: toYp_3PXWSL_n8AqYvXe24FyHGw-] disk not present in database
Submit result: toYp_3PXWSL_n8AqYvXe24FyHGw- has been uploaded


==== Log checksum 214A667788A971B76DF7B9DD3E60A9C5EF452EB5434235012AEFBDEBE870F212 ====

Thanks to the Original ripper !