Tags
Language
Tags

Blue Mink - The Singles Collection (2012) {7T's Records GLAM CD 124 rec 1969-1974}

Posted By: ruskaval
Blue Mink - The Singles Collection (2012) {7T's Records GLAM CD 124 rec 1969-1974}

Blue Mink - The Singles Collection (2012) {7T's Records GLAM CD 124 rec 1969-1974}
EAC rip (secure mode) | FLAC (tracks)+CUE+LOG -> 399 Mb | MP3 @320 -> 134 Mb
Full Artwork @ 600 dpi (png) -> 358 Mb | 5% repair rar
© 1969-74, 2012 7T's Records / Cherry Red Records | GLAM CD 124
Rock / Pop Rock / AM Rock

The Singles Collection contains 17 recordings by the popular U.K. band Blue Mink originally released between 1969 and 1974. If you're looking for the original sessions for Phillips, Regal Zonophone, and EMI you’ll find most of them here, including "Melting Pot,” “Banner Man," and "Good Morning Freedom."
Long overdue 17 track round up of every A side issued by the multi talented Blue Mink, in effect a Best Of Includes the UK hit singles Melting Pot (No.3), Good Morning Freedom (No.10), Our World (No.17), Banner Man (No.3), Stay With Me (No.11), By The Devil (I Was Tempted) (No.26) and Randy (No.9) In Germany they scored hits with Good Morning Freedom (No.31) and Banner Man (No.38) whilst in Australia it was Melting Pot (No.4), Good Morning Freedom (No.25) and Banner Man (No.14) that charted. The track Where Were You Today was used as the sound-track to the chain store C&A s television adverts whilst Good Morning Freedom is currently been used on TV to promote orange juice! Booklet contains detailed liner notes by Phil Hendriks plus pictures of all relevant sleeves including many rare European issues.
Blue Mink - The Singles Collection (2012) {7T's Records GLAM CD 124 rec 1969-1974}

Blue Mink - The Singles Collection (2012) {7T's Records GLAM CD 124 rec 1969-1974}


tracklist:
01 - Melting Pot
02 - Good Morning Freedom
03 - Our World
04 - Time For Winning
05 - The Banner Man
06 - Sunday
07 - Count Me In
08 - Wacky Wacky Wacky
09 - Stay With Me
10 - By The Devil
11 - Randy
12 - Quackers
13 - Get Up
14 - Another Without You Day
15 - You're The One
16 - Five Minute Wonder
17 - Where Were You Today

Exact Audio Copy V1.0 beta 3 from 29. August 2011

EAC extraction logfile from 23. January 2014, 13:30

Blue Mink / The Singles Collection

Used drive : PLEXTOR CD-R PREMIUM2 Adapter: 4 ID: 0

Read mode : Secure
Utilize accurate stream : Yes
Defeat audio cache : Yes
Make use of C2 pointers : No

Read offset correction : 30
Overread into Lead-In and Lead-Out : Yes
Fill up missing offset samples with silence : Yes
Delete leading and trailing silent blocks : No
Null samples used in CRC calculations : Yes
Used interface : Native Win32 interface for Win NT & 2000
Gap handling : Appended to previous track

Used output format : User Defined Encoder
Selected bitrate : 1024 kBit/s
Quality : High
Add ID3 tag : No
Command line compressor : C:\Program Files (x86)\Exact Audio Copy\Flac\flac.exe
Additional command line options : -8 -V -T "ARTIST=%artist%" -T "TITLE=%title%" -T "ALBUM=%albumtitle%" -T "DATE=%year%" -T "TRACKNUMBER=%tracknr%" -T "TOTALTRACKS=%numtracks%" -T "GENRE=%genre%" -T "ALBUMARTIST=%albumartist%" -T "ALBUM ARTIST=%albumartist%" -T "COMMENT=EAC Secure Mode, Test & Copy, AccurateRip, FLAC -8" %source%


TOC of the extracted CD

Track | Start | Length | Start sector | End sector
––––––––––––––––––––––––––––-
1 | 0:00.00 | 3:49.41 | 0 | 17215
2 | 3:49.41 | 2:50.64 | 17216 | 30029
3 | 6:40.30 | 4:02.02 | 30030 | 48181
4 | 10:42.32 | 3:27.17 | 48182 | 63723
5 | 14:09.49 | 3:29.58 | 63724 | 79456
6 | 17:39.32 | 3:26.57 | 79457 | 94963
7 | 21:06.14 | 4:48.53 | 94964 | 116616
8 | 25:54.67 | 3:28.34 | 116617 | 132250
9 | 29:23.26 | 3:18.54 | 132251 | 147154
10 | 32:42.05 | 3:41.57 | 147155 | 163786
11 | 36:23.62 | 3:14.42 | 163787 | 178378
12 | 39:38.29 | 2:58.22 | 178379 | 191750
13 | 42:36.51 | 2:34.48 | 191751 | 203348
14 | 45:11.24 | 3:10.40 | 203349 | 217638
15 | 48:21.64 | 2:55.71 | 217639 | 230834
16 | 51:17.60 | 3:14.41 | 230835 | 245425
17 | 54:32.26 | 2:25.43 | 245426 | 256343


Track 1

Filename G:\FLAC\01 - Melting Pot.wav

Pre-gap length 0:00:02.00

Peak level 97.7 %
Extraction speed 1.9 X
Track quality 100.0 %
Test CRC F0301ED5
Copy CRC F0301ED5
Accurately ripped (confidence 4) [F7B29012] (AR v2)
Copy OK

Track 2

Filename G:\FLAC\02 - Good Morning Freedom.wav

Peak level 97.7 %
Extraction speed 1.8 X
Track quality 100.0 %
Test CRC 471B9CDF
Copy CRC 471B9CDF
Accurately ripped (confidence 4) [D6F1CACE] (AR v2)
Copy OK

Track 3

Filename G:\FLAC\03 - Our World.wav

Peak level 97.7 %
Extraction speed 1.8 X
Track quality 99.9 %
Test CRC 76455055
Copy CRC 76455055
Accurately ripped (confidence 4) [ED7DF87F] (AR v2)
Copy OK

Track 4

Filename G:\FLAC\04 - Time For Winning.wav

Peak level 97.7 %
Extraction speed 1.9 X
Track quality 100.0 %
Test CRC 52198B76
Copy CRC 52198B76
Accurately ripped (confidence 4) [8D392C04] (AR v2)
Copy OK

Track 5

Filename G:\FLAC\05 - The Banner Man.wav

Peak level 97.7 %
Extraction speed 1.9 X
Track quality 100.0 %
Test CRC E3CD12EC
Copy CRC E3CD12EC
Accurately ripped (confidence 4) [735D8D7F] (AR v2)
Copy OK

Track 6

Filename G:\FLAC\06 - Sunday.wav

Peak level 97.7 %
Extraction speed 1.9 X
Track quality 100.0 %
Test CRC D6E58DD6
Copy CRC D6E58DD6
Accurately ripped (confidence 4) [C2F5FF8E] (AR v2)
Copy OK

Track 7

Filename G:\FLAC\07 - Count Me In.wav

Peak level 97.7 %
Extraction speed 1.9 X
Track quality 100.0 %
Test CRC AB5A9131
Copy CRC AB5A9131
Accurately ripped (confidence 4) [704C1075] (AR v2)
Copy OK

Track 8

Filename G:\FLAC\08 - Wacky Wacky Wacky.wav

Peak level 97.7 %
Extraction speed 1.8 X
Track quality 99.9 %
Test CRC 764AF2DA
Copy CRC 764AF2DA
Accurately ripped (confidence 4) [360A57AF] (AR v2)
Copy OK

Track 9

Filename G:\FLAC\09 - Stay With Me.wav

Peak level 97.7 %
Extraction speed 1.9 X
Track quality 100.0 %
Test CRC D4FE4C64
Copy CRC D4FE4C64
Accurately ripped (confidence 4) [7E6CBFD0] (AR v2)
Copy OK

Track 10

Filename G:\FLAC\10 - By The Devil.wav

Peak level 97.7 %
Extraction speed 1.8 X
Track quality 99.9 %
Test CRC 92AC4587
Copy CRC 92AC4587
Accurately ripped (confidence 4) [E0B4A7AA] (AR v2)
Copy OK

Track 11

Filename G:\FLAC\11 - Randy.wav

Peak level 97.7 %
Extraction speed 1.8 X
Track quality 99.9 %
Test CRC 00C727D2
Copy CRC 00C727D2
Accurately ripped (confidence 4) [49BB6DE9] (AR v2)
Copy OK

Track 12

Filename G:\FLAC\12 - Quackers.wav

Peak level 97.7 %
Extraction speed 1.8 X
Track quality 99.9 %
Test CRC DB770683
Copy CRC DB770683
Accurately ripped (confidence 4) [0786ACC6] (AR v2)
Copy OK

Track 13

Filename G:\FLAC\13 - Get Up.wav

Peak level 97.7 %
Extraction speed 1.9 X
Track quality 100.0 %
Test CRC 4D4092C9
Copy CRC 4D4092C9
Accurately ripped (confidence 4) [9267B3A1] (AR v2)
Copy OK

Track 14

Filename G:\FLAC\14 - Another Without You Day.wav

Peak level 97.7 %
Extraction speed 1.8 X
Track quality 99.9 %
Test CRC 2866807D
Copy CRC 2866807D
Accurately ripped (confidence 4) [2584E827] (AR v2)
Copy OK

Track 15

Filename G:\FLAC\15 - You're The One.wav

Peak level 97.7 %
Extraction speed 1.8 X
Track quality 99.9 %
Test CRC F10EE664
Copy CRC F10EE664
Accurately ripped (confidence 4) [246A7597] (AR v2)
Copy OK

Track 16

Filename G:\FLAC\16 - Five Minute Wonder.wav

Peak level 97.7 %
Extraction speed 1.8 X
Track quality 99.9 %
Test CRC 1DBD5237
Copy CRC 1DBD5237
Accurately ripped (confidence 4) [79B3BDC2] (AR v2)
Copy OK

Track 17

Filename G:\FLAC\17 - Where Were You Today.wav

Peak level 97.7 %
Extraction speed 1.9 X
Track quality 100.0 %
Test CRC FF5782C4
Copy CRC FF5782C4
Accurately ripped (confidence 4) [F1111164] (AR v2)
Copy OK


All tracks accurately ripped

No errors occurred

End of status report

==== Log checksum 82CE2729EBD1A6013C42AF77154E1D584530AEC42995DCD484BFA00D3D32851C ====


Blue Mink - The Singles Collection (2012) {7T's Records GLAM CD 124 rec 1969-1974}

Blue Mink - The Singles Collection (2012) {7T's Records GLAM CD 124 rec 1969-1974}



===