Subcategories

Bob Marley & The Wailers - Rebel (2002) {4 CD Long Boxed Set JAD-EMI 541 393-2}

Posted By: ruskaval
Bob Marley & The Wailers - Rebel (2002) {4 CD Long Boxed Set JAD-EMI 541 393-2}

Bob Marley & The Wailers - Rebel (2002) {4 CD Long Boxed Set JAD-EMI 541 393-2}
EAC rip (secure mode) | FLAC (tracks)+CUE+LOG -> 1.35 Gb | MP3 @320 -> 617 Mb
Full Artwork @ 300 dpi (jpg) -> 134 Mb | 5% repair rar
© 2002 JAD Records / EMI Music | 541 393-2 / PM818
Reggae / Political Reggae / Roots Reggae / Rocksteady / Ska

89 song 4 CD French import boxed set. 89 tracks, issued in a fold open book style case (5-1/2" x 10"), with a large informative booklet. This is a must-have for the true fan. A great retrospective contained in a first-class package. I play this often when I feel like listening to some old-school Wailers music. Very rare and good compilation of marley's music. Hard to find. Not sold anymore. Discontinued 4 cd set.
Bob Marley & The Wailers - Rebel (2002) {4 CD Long Boxed Set JAD-EMI 541 393-2}


Track Listing

Disc 1: ROCKSTEADY AND R & B


1. Hyprocrites (Alternate)
2. Freedom Time
3. Fire Fire (Featuring Peter Tosh)
4. Im Hurting Inside (Original)
5. Pound Get A Blow (Featuring Peter Tosh)
6. Dont Rock My Boat (Original)
7. Rock To The Rock (Original Jamaican Soul Mix)
8. Nice Time (Alternate Jamaican Soul Mix)
9. Rocking Steady (Original Jamaican Soul Mix)
10. Chances Are (Alternate Jamaican Soul Mix)
11. Mellow Mood (Jamaican Soul Mix)
12. Bend Down Low (Alternate Jamaican Soul Mix)
13. How Many Times (Do You Remember Alternate)
14. There She Goes (Alternate)
15. Put It On (Alternate)
16. Touch Me
17. Adam And Eve
18. This Train
19. Selassie Is The Chapel
20. A Little Prayer (PREVIOUSLY UNRELEASED)
21. Chances Are (A Capella Mix)

Bob Marley & The Wailers - Rebel (2002) {4 CD Long Boxed Set JAD-EMI 541 393-2}


Disc 2: EARLY REGGAE

22. Soul Rebel (Original)
23. What Goes Around Comes Around
24. Sugar Sugar
25. Black Progress
26. Hold On To This Feeling (Featuring Rita Marley)
27. Wisdom
28. Thank You Lord (Alternate)
29. Cheer Up
30. Soul Captives
31. Pour Down The Sunshine
32. Comma Comma
33. Send Me That Love
34. Mr Chatterbox
35. My Cup
36. Try Me
37. Its Alright
38. Rebelshop
39. Corner Stone
40. No Water
41. Reaction (full Length)
42. Fussing And Fighting
43. African Herbsman
44. Stand Alone
45. Soul Rebel (Alternate)
46. Run For Cover (Soul Rebel Alternate)

Bob Marley & The Wailers - Rebel (2002) {4 CD Long Boxed Set JAD-EMI 541 393-2}


Disc 3: DREAD

47. Kingston 12 Shuffle (Trench Town Rock DJ Version Feat U Roy)
48. Lively Up Yourself
49. Concrete Jungle (Original)
50. Screwface (Alternate)
51. Love Light (Original)
52. Guava Jelly (Alternate)
53. Redder Than Red
54. Satisfy My Soul Babe (Alternate) (PREVIOUSLY UNRELEASED)
55. Satisfy My Soul Jah Jah
56. Satisfy My Soul Jah Jah Dub (PREVIOUSLY UNRELEASED)
57. Dub Feeling (Feel Alright Alternate Mix)
58. Trouble Dub (Trouble On The Road Again Alternate Mix)
59. Put It On (Full Length)
60. Long Long Winter
61. Head Corner Stone (Jah Is Mighty Alternate Mix)
62. More Axe (Alternate Mix Full Length)
63. Duppy Conqueror (Version 4)
64. Keep On Skanking
65. Man To Man (Alternate Mix)
66. Shocks Of Mighty (Alternate Feat Lee Scratch Perry)

Bob Marley & The Wailers - Rebel (2002) {4 CD Long Boxed Set JAD-EMI 541 393-2}


Disc 4: VERSIONS AND OUTER NATIONAL STYLE

67. All In One (Alternate Feat Lee Scratch Perry)
68. All In One (Part II) (Alternate Feat Lee Scratch Perry)
69. Sun Is Shining (DJ Version Feat Johnny Lover)
70. Dont Rock My Boat (Alternate 2)
71. I Like It Like This (Dont Rock My Boat DJ Version)
72. Kaya (Alternate)
73. Kaya (Alt Version 2)
74. Turn Me Loose
75. Keep On Moving (Extended Version) (Part I)
76. Keep On Moving (Extended Version) (Part II)
77. Keep On Moving (Extended Version) (Part III)
78. More Axe (Alternate) (PREVIOUSLY UNRELEASED)
79. Natural Mystic (Original)
80. Rainbow Country
81. Cry To Me (Acoustic Version)
82. Lonesome Feeling (Alternate)
83. Gonna Get You
84. Oh Lord Ive Got To Get There (Jamaican Mix)
85. Reggae On Broadway (Jamaican Mix)
86. Lonely Girl (Feat Rita Marley) (PREVIOUSLY UNRELEASED)
87. Milk Shake And Potato Chips (PREVIOUSLY UNRELEASED)
88. It Hurts To Be Alone (Alternate) (PREVIOUSLY UNRELEASED)

Bob Marley & The Wailers - Rebel (2002) {4 CD Long Boxed Set JAD-EMI 541 393-2}


Exact Audio Copy V0.99 prebeta 3 from 28. July 2007

EAC extraction logfile from 11. July 2009, 0:11

Bob Marley & The Wailers / Rebel: Rocksteady & R&B (CD1)

Used drive : TSSTcorpCDDVDW SN-S083B Adapter: 2 ID: 0

Read mode : Secure
Utilize accurate stream : Yes
Defeat audio cache : Yes
Make use of C2 pointers : No

Read offset correction : 6
Overread into Lead-In and Lead-Out : No
Fill up missing offset samples with silence : Yes
Delete leading and trailing silent blocks : No
Null samples used in CRC calculations : Yes
Used interface : Installed external ASPI interface
Gap handling : Appended to previous track

Used output format : User Defined Encoder
Selected bitrate : 768 kBit/s
Quality : High
Add ID3 tag : No
Command line compressor : C:\Program Files\Exact Audio Copy\FLAC\FLAC.EXE
Additional command line options : -8 -V -T "ARTIST=%a" -T "TITLE=%t" -T "ALBUM=%g" -T "DATE=%y" -T "TRACKNUMBER=%n" -T "TOTALTRACKS=%x" -T "GENRE=%m" -T "ALBUMARTIST=%v" -T "ALBUM ARTIST=%v" -T "COMMENT=EAC V0.99 prebeta 4, Secure Mode, Test & Copy, Accurat


TOC of the extracted CD

Track | Start | Length | Start sector | End sector
––––––––––––––––––––––––––––-
1 | 0:00.33 | 2:42.55 | 33 | 12237
2 | 2:43.13 | 2:46.39 | 12238 | 24726
3 | 5:29.52 | 1:50.53 | 24727 | 33029
4 | 7:20.30 | 3:15.04 | 33030 | 47658
5 | 10:35.34 | 2:43.60 | 47659 | 59943
6 | 13:19.19 | 2:32.32 | 59944 | 71375
7 | 15:51.51 | 2:36.03 | 71376 | 83078
8 | 18:27.54 | 3:03.27 | 83079 | 96830
9 | 21:31.06 | 2:11.24 | 96831 | 106679
10 | 23:42.30 | 3:22.57 | 106680 | 121886
11 | 27:05.12 | 2:52.41 | 121887 | 134827
12 | 29:57.53 | 4:13.25 | 134828 | 153827
13 | 34:11.03 | 3:04.50 | 153828 | 167677
14 | 37:15.53 | 2:32.24 | 167678 | 179101
15 | 39:48.02 | 3:01.15 | 179102 | 192691
16 | 42:49.17 | 3:01.65 | 192692 | 206331
17 | 45:51.07 | 3:05.47 | 206332 | 220253
18 | 48:56.54 | 2:37.52 | 220254 | 232080
19 | 51:34.31 | 3:49.33 | 232081 | 249288
20 | 55:23.64 | 3:28.05 | 249289 | 264893
21 | 58:51.69 | 3:23.12 | 264894 | 280130


Track 1

Filename C:\Addis is killing my HDD\01 - Hypocrites (Alternate).wav

Pre-gap length 0:00:02.44

Peak level 92.4 %
Track quality 100.0 %
Test CRC 15B957FF
Copy CRC 15B957FF
Track not present in AccurateRip database
Copy OK

Track 2

Filename C:\Addis is killing my HDD\02 - Freedom Time.wav

Pre-gap length 0:00:00.42

Peak level 88.5 %
Track quality 100.0 %
Test CRC BD20FA71
Copy CRC BD20FA71
Track not present in AccurateRip database
Copy OK

Track 3

Filename C:\Addis is killing my HDD\03 - Fire Fire (Feat. Peter Tosh).wav

Pre-gap length 0:00:00.52

Peak level 90.9 %
Track quality 100.0 %
Test CRC 4FF8398C
Copy CRC 4FF8398C
Track not present in AccurateRip database
Copy OK

Track 4

Filename C:\Addis is killing my HDD\04 - I'm Hurting Inside (Original).wav

Pre-gap length 0:00:00.46

Peak level 92.1 %
Track quality 100.0 %
Test CRC 3842383C
Copy CRC 3842383C
Track not present in AccurateRip database
Copy OK

Track 5

Filename C:\Addis is killing my HDD\05 - Pound Get A Blow (Feat. Peter Tosh).wav

Pre-gap length 0:00:01.33

Peak level 88.0 %
Track quality 100.0 %
Test CRC 1C2C4BBE
Copy CRC 1C2C4BBE
Track not present in AccurateRip database
Copy OK

Track 6

Filename C:\Addis is killing my HDD\06 - Don't Rock My Boat (Original).wav

Pre-gap length 0:00:01.13

Peak level 95.7 %
Track quality 99.9 %
Test CRC 7892DBAA
Copy CRC 7892DBAA
Track not present in AccurateRip database
Copy OK

Track 7

Filename C:\Addis is killing my HDD\07 - Rock To The Rock (Alternate Jamaican Soul Mix).wav

Pre-gap length 0:00:01.04

Peak level 100.0 %
Track quality 99.9 %
Test CRC AA0442BA
Copy CRC AA0442BA
Track not present in AccurateRip database
Copy OK

Track 8

Filename C:\Addis is killing my HDD\08 - Nice Time (Original Jamaican Soul Mix).wav

Pre-gap length 0:00:01.32

Peak level 100.0 %
Track quality 100.0 %
Test CRC C436B046
Copy CRC C436B046
Track not present in AccurateRip database
Copy OK

Track 9

Filename C:\Addis is killing my HDD\09 - Rocking Steady (Original Jamaican Soul Mix).wav

Pre-gap length 0:00:00.85

Peak level 95.4 %
Track quality 100.0 %
Test CRC 400AD341
Copy CRC 400AD341
Track not present in AccurateRip database
Copy OK

Track 10

Filename C:\Addis is killing my HDD\10 - Chances Are (Alternate Jamaican Soul Mix).wav

Pre-gap length 0:00:01.00

Peak level 94.5 %
Track quality 100.0 %
Test CRC DA475D91
Copy CRC DA475D91
Track not present in AccurateRip database
Copy OK

Track 11

Filename C:\Addis is killing my HDD\11 - Mellow Mood (Jamaican Soull Mix).wav

Pre-gap length 0:00:00.62

Peak level 94.5 %
Track quality 100.0 %
Test CRC 02AC0FC2
Copy CRC 02AC0FC2
Track not present in AccurateRip database
Copy OK

Track 12

Filename C:\Addis is killing my HDD\12 - Bend Down Low (Alternate Jamaican Soul Mix).wav

Pre-gap length 0:00:00.24

Peak level 94.5 %
Track quality 99.9 %
Test CRC 59BC24E0
Copy CRC 59BC24E0
Track not present in AccurateRip database
Copy OK

Track 13

Filename C:\Addis is killing my HDD\13 - How Many Times (Do You Remember - Alternate).wav

Pre-gap length 0:00:00.61

Peak level 97.3 %
Track quality 100.0 %
Test CRC A398E2DE
Copy CRC A398E2DE
Track not present in AccurateRip database
Copy OK

Track 14

Filename C:\Addis is killing my HDD\14 - There She Goes (Alternate).wav

Pre-gap length 0:00:00.93

Peak level 100.0 %
Track quality 100.0 %
Test CRC C76C7B08
Copy CRC C76C7B08
Track not present in AccurateRip database
Copy OK

Track 15

Filename C:\Addis is killing my HDD\15 - Put It On (Alternate).wav

Pre-gap length 0:00:00.16

Peak level 100.0 %
Track quality 100.0 %
Test CRC B234EF5B
Copy CRC B234EF5B
Track not present in AccurateRip database
Copy OK

Track 16

Filename C:\Addis is killing my HDD\16 - Touch Me.wav

Peak level 100.0 %
Track quality 100.0 %
Test CRC 711A97CC
Copy CRC 711A97CC
Track not present in AccurateRip database
Copy OK

Track 17

Filename C:\Addis is killing my HDD\17 - Adam And Eve.wav

Pre-gap length 0:00:00.18

Peak level 90.8 %
Track quality 99.9 %
Test CRC 92B0A2B8
Copy CRC 92B0A2B8
Track not present in AccurateRip database
Copy OK

Track 18

Filename C:\Addis is killing my HDD\18 - This Train.wav

Pre-gap length 0:00:00.93

Peak level 91.3 %
Track quality 100.0 %
Test CRC C9A4618B
Copy CRC C9A4618B
Track not present in AccurateRip database
Copy OK

Track 19

Filename C:\Addis is killing my HDD\19 - Sellassie Is The Chapel.wav

Pre-gap length 0:00:01.94

Peak level 93.0 %
Track quality 99.9 %
Test CRC 02D495DA
Copy CRC 02D495DA
Track not present in AccurateRip database
Copy OK

Track 20

Filename C:\Addis is killing my HDD\20 - A Little Prayer (Feat. Mortimer Planno).wav

Peak level 100.0 %
Track quality 100.0 %
Test CRC 9A39FE2C
Copy CRC 9A39FE2C
Track not present in AccurateRip database
Copy OK

Track 21

Filename C:\Addis is killing my HDD\21 - Chances Are (A Capella Mix).wav

Pre-gap length 0:00:01.13

Peak level 95.5 %
Track quality 100.0 %
Test CRC A58362CA
Copy CRC A58362CA
Track not present in AccurateRip database
Copy OK


None of the tracks are present in the AccurateRip database

No errors occurred

End of status report

Exact Audio Copy V0.99 prebeta 3 from 28. July 2007

EAC extraction logfile from 10. July 2009, 23:10

Bob Marley & The Wailers / Rebel: Early Reggae (CD2)

Used drive : TSSTcorpCDDVDW SN-S083B Adapter: 2 ID: 0

Read mode : Secure
Utilize accurate stream : Yes
Defeat audio cache : Yes
Make use of C2 pointers : No

Read offset correction : 6
Overread into Lead-In and Lead-Out : No
Fill up missing offset samples with silence : Yes
Delete leading and trailing silent blocks : No
Null samples used in CRC calculations : Yes
Used interface : Installed external ASPI interface
Gap handling : Appended to previous track

Used output format : User Defined Encoder
Selected bitrate : 768 kBit/s
Quality : High
Add ID3 tag : No
Command line compressor : C:\Program Files\Exact Audio Copy\FLAC\FLAC.EXE
Additional command line options : -8 -V -T "ARTIST=%a" -T "TITLE=%t" -T "ALBUM=%g" -T "DATE=%y" -T "TRACKNUMBER=%n" -T "TOTALTRACKS=%x" -T "GENRE=%m" -T "ALBUMARTIST=%v" -T "ALBUM ARTIST=%v" -T "COMMENT=EAC V0.99 prebeta 4, Secure Mode, Test & Copy, Accurat


TOC of the extracted CD

Track | Start | Length | Start sector | End sector
––––––––––––––––––––––––––––-
1 | 0:00.33 | 3:51.69 | 33 | 17426
2 | 3:52.27 | 4:13.42 | 17427 | 36443
3 | 8:05.69 | 2:46.51 | 36444 | 48944
4 | 10:52.45 | 2:29.24 | 48945 | 60143
5 | 13:21.69 | 2:54.02 | 60144 | 73195
6 | 16:15.71 | 3:12.52 | 73196 | 87647
7 | 19:28.48 | 3:18.58 | 87648 | 102555
8 | 22:47.31 | 2:01.17 | 102556 | 111647
9 | 24:48.48 | 2:01.57 | 111648 | 120779
10 | 26:50.30 | 2:19.23 | 120780 | 131227
11 | 29:09.53 | 1:53.41 | 131228 | 139743
12 | 31:03.19 | 3:26.46 | 139744 | 155239
13 | 34:29.65 | 2:36.61 | 155240 | 167000
14 | 37:06.51 | 3:33.58 | 167001 | 183033
15 | 40:40.34 | 2:46.55 | 183034 | 195538
16 | 43:27.14 | 2:35.59 | 195539 | 207222
17 | 46:02.73 | 2:38.38 | 207223 | 219110
18 | 48:41.36 | 2:27.64 | 219111 | 230199
19 | 51:09.25 | 2:08.64 | 230200 | 239863
20 | 53:18.14 | 3:35.38 | 239864 | 256026
21 | 56:53.52 | 2:27.49 | 256027 | 267100
22 | 59:21.26 | 2:22.33 | 267101 | 277783
23 | 61:43.59 | 2:10.11 | 277784 | 287544
24 | 63:53.70 | 3:16.05 | 287545 | 302249
25 | 67:10.00 | 3:16.40 | 302250 | 316989


Track 1

Filename C:\Addis is killing my HDD\01 - Soul Rebel (Original).wav

Pre-gap length 0:00:02.44

Peak level 96.1 %
Track quality 100.0 %
Test CRC 5E129D55
Copy CRC 5E129D55
Accurately ripped (confidence 1) [3072967B]
Copy OK

Track 2

Filename C:\Addis is killing my HDD\02 - What Goes Around Come Around.wav

Pre-gap length 0:00:00.10

Peak level 100.0 %
Track quality 100.0 %
Test CRC 4AC9B140
Copy CRC 4AC9B140
Accurately ripped (confidence 1) [5E0B4E29]
Copy OK

Track 3

Filename C:\Addis is killing my HDD\03 - Sugar Sugar.wav

Pre-gap length 0:00:01.25

Peak level 100.0 %
Track quality 99.9 %
Test CRC 8C7376F4
Copy CRC 8C7376F4
Accurately ripped (confidence 1) [339D30E5]
Copy OK

Track 4

Filename C:\Addis is killing my HDD\04 - Black Progress (Medley- Black Progress(Say It Loud) I'm Black And I'm Proud).wav

Pre-gap length 0:00:00.68

Peak level 100.0 %
Track quality 100.0 %
Test CRC 82EA3D78
Copy CRC 82EA3D78
Accurately ripped (confidence 1) [A874746F]
Copy OK

Track 5

Filename C:\Addis is killing my HDD\05 - Hold On This Feeling (Feat. Rita Marley).wav

Pre-gap length 0:00:00.08

Peak level 97.7 %
Track quality 99.9 %
Test CRC 99004A6D
Copy CRC 99004A6D
Accurately ripped (confidence 1) [43D7C86B]
Copy OK

Track 6

Filename C:\Addis is killing my HDD\06 - Wisdom.wav

Peak level 100.0 %
Track quality 100.0 %
Test CRC 8268BCBE
Copy CRC 8268BCBE
Accurately ripped (confidence 1) [9CD7049C]
Copy OK

Track 7

Filename C:\Addis is killing my HDD\07 - Thank You Lord (Alternate).wav

Pre-gap length 0:00:01.29

Peak level 86.3 %
Track quality 100.0 %
Test CRC F7B33386
Copy CRC F7B33386
Accurately ripped (confidence 1) [C0398D2D]
Copy OK

Track 8

Filename C:\Addis is killing my HDD\08 - Cheer Up.wav

Peak level 98.1 %
Track quality 100.0 %
Test CRC 4DFECC90
Copy CRC 4DFECC90
Accurately ripped (confidence 1) [1BDB6E2B]
Copy OK

Track 9

Filename C:\Addis is killing my HDD\09 - Soul Captives.wav

Pre-gap length 0:00:00.44

Peak level 100.0 %
Track quality 100.0 %
Test CRC D87EF6AA
Copy CRC D87EF6AA
Accurately ripped (confidence 1) [940C4B2C]
Copy OK

Track 10

Filename C:\Addis is killing my HDD\10 - Pour Down The Sun Shine.wav

Peak level 89.0 %
Track quality 100.0 %
Test CRC 59EFFC36
Copy CRC 59EFFC36
Accurately ripped (confidence 1) [B3115EB5]
Copy OK

Track 11

Filename C:\Addis is killing my HDD\11 - Comma Comma.wav

Pre-gap length 0:00:00.77

Peak level 100.0 %
Track quality 99.9 %
Test CRC 1DCA8256
Copy CRC 1DCA8256
Accurately ripped (confidence 1) [27962944]
Copy OK

Track 12

Filename C:\Addis is killing my HDD\12 - Send Me That Love.wav

Pre-gap length 0:00:00.18

Peak level 100.0 %
Track quality 100.0 %
Test CRC 21CE0415
Copy CRC 21CE0415
Accurately ripped (confidence 1) [69EFB7F8]
Copy OK

Track 13

Filename C:\Addis is killing my HDD\13 - Mr Chatterbox.wav

Pre-gap length 0:00:00.46

Peak level 100.0 %
Track quality 100.0 %
Test CRC 8F22917D
Copy CRC 8F22917D
Accurately ripped (confidence 1) [AED874DF]
Copy OK

Track 14

Filename C:\Addis is killing my HDD\14 - My Cup.wav

Peak level 100.0 %
Track quality 100.0 %
Test CRC 8E9EA312
Copy CRC 8E9EA312
Accurately ripped (confidence 1) [C8475268]
Copy OK

Track 15

Filename C:\Addis is killing my HDD\15 - Try Me.wav

Peak level 100.0 %
Track quality 100.0 %
Test CRC B2E35CB3
Copy CRC B2E35CB3
Accurately ripped (confidence 1) [EC5CA1AE]
Copy OK

Track 16

Filename C:\Addis is killing my HDD\16 - It 's Alright (Full Lenght).wav

Pre-gap length 0:00:01.56

Peak level 100.0 %
Track quality 100.0 %
Test CRC 92485A2D
Copy CRC 92485A2D
Accurately ripped (confidence 1) [755C2564]
Copy OK

Track 17

Filename C:\Addis is killing my HDD\17 - Rebel's Hop.wav

Pre-gap length 0:00:00.94

Peak level 100.0 %
Track quality 100.0 %
Test CRC E887DC6E
Copy CRC E887DC6E
Accurately ripped (confidence 1) [CE43D1C5]
Copy OK

Track 18

Filename C:\Addis is killing my HDD\18 - Corner Stone.wav

Pre-gap length 0:00:00.50

Peak level 100.0 %
Track quality 100.0 %
Test CRC 8BCCE9E4
Copy CRC 8BCCE9E4
Accurately ripped (confidence 1) [F1E879DB]
Copy OK

Track 19

Filename C:\Addis is killing my HDD\19 - No Water.wav

Peak level 100.0 %
Track quality 99.9 %
Test CRC 19F34A5B
Copy CRC 19F34A5B
Accurately ripped (confidence 1) [70ADD2A2]
Copy OK

Track 20

Filename C:\Addis is killing my HDD\20 - Reaction.wav

Pre-gap length 0:00:00.48

Peak level 100.0 %
Track quality 99.9 %
Test CRC 84F83CB0
Copy CRC 84F83CB0
Accurately ripped (confidence 1) [6AD70F30]
Copy OK

Track 21

Filename C:\Addis is killing my HDD\21 - Fussing And Fighting.wav

Pre-gap length 0:00:00.18

Peak level 100.0 %
Track quality 100.0 %
Test CRC F3706121
Copy CRC F3706121
Accurately ripped (confidence 1) [DEFCB002]
Copy OK

Track 22

Filename C:\Addis is killing my HDD\22 - African Heurbsman.wav

Peak level 100.0 %
Track quality 99.9 %
Test CRC 49A0280F
Copy CRC 49A0280F
Accurately ripped (confidence 1) [CC028405]
Copy OK

Track 23

Filename C:\Addis is killing my HDD\23 - Stand Alone.wav

Pre-gap length 0:00:01.88

Peak level 100.0 %
Track quality 99.9 %
Test CRC C2BEAADD
Copy CRC C2BEAADD
Accurately ripped (confidence 1) [602F4641]
Copy OK

Track 24

Filename C:\Addis is killing my HDD\24 - Soul Rebel (Alternate).wav

Pre-gap length 0:00:00.21

Peak level 95.4 %
Track quality 100.0 %
Test CRC 68F6CAF2
Copy CRC 68F6CAF2
Accurately ripped (confidence 1) [FB4C5C3A]
Copy OK

Track 25

Filename C:\Addis is killing my HDD\25 - Run For Cover (Soul Rebel Alternate).wav

Peak level 100.0 %
Track quality 100.0 %
Test CRC DBE35BDE
Copy CRC DBE35BDE
Accurately ripped (confidence 1) [91D62641]
Copy OK


All tracks accurately ripped

No errors occurred

End of status report
Exact Audio Copy V0.99 prebeta 4 from 23. January 2008

EAC extraction logfile from 11. July 2009, 7:48

Bob Marley & The Wailers / Rebel: Dread (CD3)

Used drive : PHILIPS DVDR1628P1 Adapter: 4 ID: 0

Read mode : Secure
Utilize accurate stream : Yes
Defeat audio cache : Yes
Make use of C2 pointers : No

Read offset correction : 618
Overread into Lead-In and Lead-Out : No
Fill up missing offset samples with silence : Yes
Delete leading and trailing silent blocks : No
Null samples used in CRC calculations : Yes
Used interface : Native Win32 interface for Win NT & 2000
Gap handling : Appended to previous track

Used output format : User Defined Encoder
Selected bitrate : 768 kBit/s
Quality : High
Add ID3 tag : No
Command line compressor : C:\Program Files\Exact Audio Copy\FLAC\FLAC.EXE
Additional command line options : -6 -V -T "ARTIST=%a" -T "TITLE=%t" -T "ALBUM=%g" -T "DATE=%y" -T "TRACKNUMBER=%n" -T "GENRE=%m" -T "COMMENT=%e" %s -o %d


TOC of the extracted CD

Track | Start | Length | Start sector | End sector
––––––––––––––––––––––––––––-
1 | 0:00.33 | 2:48.74 | 33 | 12706
2 | 2:49.32 | 2:50.55 | 12707 | 25511
3 | 5:40.12 | 3:07.50 | 25512 | 39586
4 | 8:47.62 | 2:18.63 | 39587 | 49999
5 | 11:06.50 | 2:56.60 | 50000 | 63259
6 | 14:03.35 | 2:08.12 | 63260 | 72871
7 | 16:11.47 | 3:10.52 | 72872 | 87173
8 | 19:22.24 | 2:26.51 | 87174 | 98174
9 | 21:49.00 | 2:30.64 | 98175 | 109488
10 | 24:19.64 | 2:38.16 | 109489 | 121354
11 | 26:58.05 | 3:39.39 | 121355 | 137818
12 | 30:37.44 | 3:31.53 | 137819 | 153696
13 | 34:09.22 | 3:59.70 | 153697 | 171691
14 | 38:09.17 | 3:03.04 | 171692 | 185420
15 | 41:12.21 | 2:24.65 | 185421 | 196285
16 | 43:37.11 | 4:07.55 | 196286 | 214865
17 | 47:44.66 | 3:22.49 | 214866 | 230064
18 | 51:07.40 | 3:20.14 | 230065 | 245078
19 | 54:27.54 | 4:09.24 | 245079 | 263777
20 | 58:37.03 | 3:35.25 | 263778 | 279927


Track 1

Filename C:\Stop Addis In The Name Of My HDD\01 - Kingston 12 Shuffle.wav

Pre-gap length 0:00:02.44

Peak level 100.0 %
Track quality 99.9 %
Test CRC 17B9FAD5
Copy CRC 17B9FAD5
Accurately ripped (confidence 1) [E6CFA213]
Copy OK

Track 2

Filename C:\Stop Addis In The Name Of My HDD\02 - Lively Up Yourself.wav

Pre-gap length 0:00:02.13

Peak level 62.3 %
Track quality 100.0 %
Test CRC D809D743
Copy CRC D809D743
Accurately ripped (confidence 1) [848FB764]
Copy OK

Track 3

Filename C:\Stop Addis In The Name Of My HDD\03 - Concrete Jungle.wav

Pre-gap length 0:00:02.17

Peak level 100.0 %
Track quality 100.0 %
Test CRC B360780B
Copy CRC B360780B
Accurately ripped (confidence 1) [7BE304D9]
Copy OK

Track 4

Filename C:\Stop Addis In The Name Of My HDD\04 - Screwface.wav

Pre-gap length 0:00:02.56

Peak level 100.0 %
Track quality 100.0 %
Test CRC 05CA9D91
Copy CRC 05CA9D91
Accurately ripped (confidence 1) [8C48722C]
Copy OK

Track 5

Filename C:\Stop Addis In The Name Of My HDD\05 - Love Light.wav

Pre-gap length 0:00:02.53

Peak level 100.0 %
Track quality 100.0 %
Test CRC 16F05E41
Copy CRC 16F05E41
Accurately ripped (confidence 1) [397D0D4D]
Copy OK

Track 6

Filename C:\Stop Addis In The Name Of My HDD\06 - Guava Jelly.wav

Pre-gap length 0:00:02.30

Peak level 100.0 %
Track quality 99.9 %
Test CRC 2D1E92FD
Copy CRC 2D1E92FD
Accurately ripped (confidence 1) [31C9C827]
Copy OK

Track 7

Filename C:\Stop Addis In The Name Of My HDD\07 - Redder Than Red.wav

Pre-gap length 0:00:02.20

Peak level 98.9 %
Track quality 100.0 %
Test CRC FA3CAE47
Copy CRC FA3CAE47
Accurately ripped (confidence 1) [8C333DE8]
Copy OK

Track 8

Filename C:\Stop Addis In The Name Of My HDD\08 - Satisfy My Soul Babe.wav

Pre-gap length 0:00:02.62

Peak level 94.0 %
Track quality 100.0 %
Test CRC E165375F
Copy CRC E165375F
Accurately ripped (confidence 1) [335AD117]
Copy OK

Track 9

Filename C:\Stop Addis In The Name Of My HDD\09 - Satidfy My Soul Jah Jah.wav

Pre-gap length 0:00:02.77

Peak level 100.0 %
Track quality 100.0 %
Test CRC B036DFE9
Copy CRC B036DFE9
Accurately ripped (confidence 1) [267611C1]
Copy OK

Track 10

Filename C:\Stop Addis In The Name Of My HDD\10 - Satisfy My Soul Jah Jah Dub.wav

Pre-gap length 0:00:02.90

Peak level 100.0 %
Track quality 100.0 %
Test CRC A0AC2592
Copy CRC A0AC2592
Accurately ripped (confidence 1) [73E86E9F]
Copy OK

Track 11

Filename C:\Stop Addis In The Name Of My HDD\11 - Dub Felling.wav

Pre-gap length 0:00:03.13

Peak level 100.0 %
Track quality 100.0 %
Test CRC A68B9E90
Copy CRC A68B9E90
Accurately ripped (confidence 1) [99578733]
Copy OK

Track 12

Filename C:\Stop Addis In The Name Of My HDD\12 - Trouble Dub.wav

Pre-gap length 0:00:03.30

Peak level 95.1 %
Track quality 100.0 %
Test CRC 01BC732C
Copy CRC 01BC732C
Accurately ripped (confidence 1) [519B82F4]
Copy OK

Track 13

Filename C:\Stop Addis In The Name Of My HDD\13 - Put It On.wav

Pre-gap length 0:00:03.13

Peak level 100.0 %
Track quality 100.0 %
Test CRC EB48A0ED
Copy CRC EB48A0ED
Accurately ripped (confidence 1) [B2171F20]
Copy OK

Track 14

Filename C:\Stop Addis In The Name Of My HDD\14 - Long Long Winter.wav

Pre-gap length 0:00:03.78

Peak level 86.6 %
Track quality 100.0 %
Test CRC E38EACE5
Copy CRC E38EACE5
Accurately ripped (confidence 1) [6E6B4C3F]
Copy OK

Track 15

Filename C:\Stop Addis In The Name Of My HDD\15 - Head Corner Stone.wav

Pre-gap length 0:00:02.46

Peak level 98.5 %
Track quality 100.0 %
Test CRC 579860DF
Copy CRC 579860DF
Accurately ripped (confidence 1) [31C99FBE]
Copy OK

Track 16

Filename C:\Stop Addis In The Name Of My HDD\16 - More Axe.wav

Pre-gap length 0:00:02.72

Peak level 100.0 %
Track quality 99.9 %
Test CRC 6934100B
Copy CRC 6934100B
Accurately ripped (confidence 1) [80F89A0B]
Copy OK

Track 17

Filename C:\Stop Addis In The Name Of My HDD\17 - Duppy Conqueror.wav

Pre-gap length 0:00:02.00

Peak level 98.0 %
Track quality 100.0 %
Test CRC CC414676
Copy CRC CC414676
Accurately ripped (confidence 1) [51E9C1F9]
Copy OK

Track 18

Filename C:\Stop Addis In The Name Of My HDD\18 - Keep On Skanking.wav

Pre-gap length 0:00:02.92

Peak level 100.0 %
Track quality 100.0 %
Test CRC 0C8E0EF1
Copy CRC 0C8E0EF1
Accurately ripped (confidence 1) [0BFD5356]
Copy OK

Track 19

Filename C:\Stop Addis In The Name Of My HDD\19 - Man To Man.wav

Pre-gap length 0:00:02.86

Peak level 100.0 %
Track quality 100.0 %
Test CRC 760D60BD
Copy CRC 760D60BD
Accurately ripped (confidence 1) [1431D657]
Copy OK

Track 20

Filename C:\Stop Addis In The Name Of My HDD\20 - Shocks Of Mighty.wav

Pre-gap length 0:00:02.02

Peak level 100.0 %
Track quality 100.0 %
Test CRC 6074875F
Copy CRC 6074875F
Accurately ripped (confidence 1) [84F77C3A]
Copy OK


All tracks accurately ripped

No errors occurred

End of status report
Exact Audio Copy V0.99 prebeta 3 from 28. July 2007

EAC extraction logfile from 11. July 2009, 1:38

Bob Marley & The Wailers / Rebel: Version & Outernational Style (CD4)

Used drive : TSSTcorpCDDVDW SN-S083B Adapter: 2 ID: 0

Read mode : Secure
Utilize accurate stream : Yes
Defeat audio cache : Yes
Make use of C2 pointers : No

Read offset correction : 6
Overread into Lead-In and Lead-Out : No
Fill up missing offset samples with silence : Yes
Delete leading and trailing silent blocks : No
Null samples used in CRC calculations : Yes
Used interface : Installed external ASPI interface
Gap handling : Appended to previous track

Used output format : User Defined Encoder
Selected bitrate : 768 kBit/s
Quality : High
Add ID3 tag : No
Command line compressor : C:\Program Files\Exact Audio Copy\FLAC\FLAC.EXE
Additional command line options : -8 -V -T "ARTIST=%a" -T "TITLE=%t" -T "ALBUM=%g" -T "DATE=%y" -T "TRACKNUMBER=%n" -T "TOTALTRACKS=%x" -T "GENRE=%m" -T "ALBUMARTIST=%v" -T "ALBUM ARTIST=%v" -T "COMMENT=EAC V0.99 prebeta 4, Secure Mode, Test & Copy, Accurat


TOC of the extracted CD

Track | Start | Length | Start sector | End sector
––––––––––––––––––––––––––––-
1 | 0:00.33 | 2:20.42 | 33 | 10574
2 | 2:21.00 | 2:06.02 | 10575 | 20026
3 | 4:27.02 | 2:06.71 | 20027 | 29547
4 | 6:33.73 | 2:50.61 | 29548 | 42358
5 | 9:24.59 | 2:48.62 | 42359 | 55020
6 | 12:13.46 | 2:31.56 | 55021 | 66401
7 | 14:45.27 | 2:39.34 | 66402 | 78360
8 | 17:24.61 | 2:32.71 | 78361 | 89831
9 | 19:57.57 | 3:06.40 | 89832 | 103821
10 | 23:04.22 | 3:18.28 | 103822 | 118699
11 | 26:22.50 | 2:30.37 | 118700 | 129986
12 | 28:53.12 | 4:07.72 | 129987 | 148583
13 | 33:01.09 | 5:45.32 | 148584 | 174490
14 | 38:46.41 | 6:12.12 | 174491 | 202402
15 | 44:58.53 | 1:29.08 | 202403 | 209085
16 | 46:27.61 | 3:27.21 | 209086 | 224631
17 | 49:55.07 | 3:12.36 | 224632 | 239067
18 | 53:07.43 | 2:16.36 | 239068 | 249303
19 | 55:24.04 | 2:58.20 | 249304 | 262673
20 | 58:22.24 | 3:34.37 | 262674 | 278760
21 | 61:56.61 | 2:46.07 | 278761 | 291217
22 | 64:42.68 | 2:37.38 | 291218 | 303030


Track 1

Filename C:\Addis is killing my HDD\01 - All In One (Alternate Ft. Lee Scratch Perry).wav

Pre-gap length 0:00:02.44

Peak level 100.0 %
Track quality 100.0 %
Test CRC BC016A38
Copy CRC BC016A38
Track not present in AccurateRip database
Copy OK

Track 2

Filename C:\Addis is killing my HDD\02 - All In One (Part II- Alternate Ft. Lee Scratch Perry).wav

Peak level 100.0 %
Track quality 100.0 %
Test CRC 397653D5
Copy CRC 397653D5
Track not present in AccurateRip database
Copy OK

Track 3

Filename C:\Addis is killing my HDD\03 - Sun Is Shining (DJ Version Ft. Johnny Lover).wav

Pre-gap length 0:00:01.38

Peak level 91.7 %
Track quality 100.0 %
Test CRC C82F7546
Copy CRC C82F7546
Track not present in AccurateRip database
Copy OK

Track 4

Filename C:\Addis is killing my HDD\04 - Don't Rock My Boat (Alternate 2).wav

Peak level 100.0 %
Track quality 100.0 %
Test CRC D94EEFB9
Copy CRC D94EEFB9
Track not present in AccurateRip database
Copy OK

Track 5

Filename C:\Addis is killing my HDD\05 - I Like It Like This (Don't Rock My Boat- DJ Feat Johnny Lover).wav

Peak level 82.2 %
Track quality 100.0 %
Test CRC 419AB2B1
Copy CRC 419AB2B1
Track not present in AccurateRip database
Copy OK

Track 6

Filename C:\Addis is killing my HDD\06 - Kaya (Alternate).wav

Pre-gap length 0:00:00.78

Peak level 100.0 %
Track quality 99.9 %
Test CRC 892C67C3
Copy CRC 892C67C3
Track not present in AccurateRip database
Copy OK

Track 7

Filename C:\Addis is killing my HDD\07 - Kaya (Version 2).wav

Peak level 100.0 %
Track quality 100.0 %
Test CRC 1F755DF4
Copy CRC 1F755DF4
Track not present in AccurateRip database
Copy OK

Track 8

Filename C:\Addis is killing my HDD\08 - Turn Me Loose.wav

Peak level 100.0 %
Track quality 100.0 %
Test CRC FD34B3AC
Copy CRC FD34B3AC
Track not present in AccurateRip database
Copy OK

Track 9

Filename C:\Addis is killing my HDD\09 - Keep On Moving (Extended Version- Part I Ft. Peter Tosh & Bunny Wailer).wav

Pre-gap length 0:00:00.16

Peak level 99.5 %
Track quality 100.0 %
Test CRC CA8B946F
Copy CRC CA8B946F
Track not present in AccurateRip database
Copy OK

Track 10

Filename C:\Addis is killing my HDD\10 - Keep On Moving (Extended Version- Part II DJ Version Ft. Wung Chu).wav

Peak level 96.0 %
Track quality 100.0 %
Test CRC D3919650
Copy CRC D3919650
Track not present in AccurateRip database
Copy OK

Track 11

Filename C:\Addis is killing my HDD\11 - Keep On Moving (Extended Version- Part III Ft. Peter Tosh & Bunny Wailer).wav

Peak level 82.5 %
Track quality 100.0 %
Test CRC BB07B8DF
Copy CRC BB07B8DF
Track not present in AccurateRip database
Copy OK

Track 12

Filename C:\Addis is killing my HDD\12 - More Axe (Alternate).wav

Pre-gap length 0:00:00.05

Peak level 99.3 %
Track quality 100.0 %
Test CRC A3F60247
Copy CRC A3F60247
Track not present in AccurateRip database
Copy OK

Track 13

Filename C:\Addis is killing my HDD\13 - Natural Mystic (Original).wav

Pre-gap length 0:00:00.61

Peak level 100.0 %
Track quality 100.0 %
Test CRC CCE16511
Copy CRC CCE16511
Track not present in AccurateRip database
Copy OK

Track 14

Filename C:\Addis is killing my HDD\14 - Rainbow Country.wav

Pre-gap length 0:00:00.77

Peak level 100.0 %
Track quality 100.0 %
Test CRC 63FB180F
Copy CRC 63FB180F
Track not present in AccurateRip database
Copy OK

Track 15

Filename C:\Addis is killing my HDD\15 - Cry To Me (Acoustic Version).wav

Pre-gap length 0:00:02.29

Peak level 62.5 %
Track quality 100.0 %
Test CRC 52EBBAE3
Copy CRC 52EBBAE3
Track not present in AccurateRip database
Copy OK

Track 16

Filename C:\Addis is killing my HDD\16 - Lonesome Feeling (Alternate).wav

Peak level 100.0 %
Track quality 100.0 %
Test CRC DD096634
Copy CRC DD096634
Track not present in AccurateRip database
Copy OK

Track 17

Filename C:\Addis is killing my HDD\17 - Gonna Get You.wav

Peak level 89.8 %
Track quality 100.0 %
Test CRC C63FFD07
Copy CRC C63FFD07
Track not present in AccurateRip database
Copy OK

Track 18

Filename C:\Addis is killing my HDD\18 - Oh Lord I've Got To Got To There (Jamaпcan Mix).wav

Peak level 100.0 %
Track quality 99.9 %
Test CRC E4B2C0F1
Copy CRC E4B2C0F1
Track not present in AccurateRip database
Copy OK

Track 19

Filename C:\Addis is killing my HDD\19 - Reggae On Broadway (Jamaпcan Mix).wav

Pre-gap length 0:00:00.37

Peak level 100.0 %
Track quality 100.0 %
Test CRC 2646E883
Copy CRC 2646E883
Track not present in AccurateRip database
Copy OK

Track 20

Filename C:\Addis is killing my HDD\20 - Lonely Girl (Ft. Rita Marley).wav

Pre-gap length 0:00:01.81

Peak level 100.0 %
Track quality 99.9 %
Test CRC C82626FD
Copy CRC C82626FD
Track not present in AccurateRip database
Copy OK

Track 21

Filename C:\Addis is killing my HDD\21 - Milk Shake And Potato Chips.wav

Pre-gap length 0:00:00.30

Peak level 100.0 %
Track quality 100.0 %
Test CRC A8C6E6A7
Copy CRC A8C6E6A7
Track not present in AccurateRip database
Copy OK

Track 22

Filename C:\Addis is killing my HDD\22 - It Hurts To Be Alone (Alternate).wav

Peak level 72.4 %
Track quality 100.0 %
Test CRC 26EEE7C8
Copy CRC 26EEE7C8
Track not present in AccurateRip database
Copy OK


None of the tracks are present in the AccurateRip database

No errors occurred

End of status report



Bob Marley & The Wailers - Rebel (2002) {4 CD Long Boxed Set JAD-EMI 541 393-2}


see more reggae…

NEXT -> more reggae on the way…


===