Subcategories

Bob Seger - Beautiful Loser (1975)

Posted By: mr. magoo
Bob Seger - Beautiful Loser (1975)

Bob Seger - Beautiful Loser (1975)
EAC AccurateRip | FLAC + Log + Cue | Scans | 211 MB | HF + RS | 5% recovery
Label: Capitol CDP 7 91424 2 | Genre: Rock


winds up sounding more like Back in '72 than its immediate predecessor, Seven, largely because Bob Seger threaded reflective ballads and mid-tempo laments back into his hard-driving rock. He doesn't shy away from it, either, opening with the lovely title track. And why shouldn't he? These ballads were as much a part of his success as his storming rockers, since his sentimental streak seemed all the more genuine when contrasted with the rockers. If anything, might err a little bit in favor of reflection, with much of the album devoted to introspective, confessional mid-tempo cuts. There are a couple of exceptions to the rule, of course — "Katmandu" roars with humor, and his cover of "Nutbush City Limits" shames Tina Turner's original — but they are the only full-throttle rockers here, with "Black Night" coming in as a funky, swaggering cousin. It's the exact opposite of Seven, in other words, and in its own way, it's just as satisfying. Occasionally, it might be a little too sentimental for some tastes, but it's all heartfelt and he's written some terrific songs here, most notably the album's heart of "Jody Girl" and "Travelin' Man." Seger had started turning inward, searching his soul in a way he hadn't since the since-disowned Brand New Morning, and in doing so, he was setting the stage for his first genuine blockbuster.
Tracks:
01 - Beautiful Loser
02 - Black Night
03 - Katmandu
04 - Jody Girl
05 - Travelin' Man
06 - Momma
07 - Nutbush City Limits
08 - Sailing Nights
09 - Fine Memory

Exact Audio Copy V0.99 prebeta 4 from 23. January 2008

EAC extraction logfile from 4. September 2009, 5:29

Bob Seger / Beautiful Loser

Used drive : SONY DVD RW DRU-840A Adapter: 1 ID: 1

Read mode : Secure
Utilize accurate stream : Yes
Defeat audio cache : No
Make use of C2 pointers : No

Read offset correction : 6
Overread into Lead-In and Lead-Out : No
Fill up missing offset samples with silence : Yes
Delete leading and trailing silent blocks : No
Null samples used in CRC calculations : Yes
Used interface : Native Win32 interface for Win NT & 2000
Gap handling : Appended to previous track

Used output format : User Defined Encoder
Selected bitrate : 1024 kBit/s
Quality : High
Add ID3 tag : No
Command line compressor : C:\Program Files\Exact Audio Copy\Flac\flac.exe
Additional command line options : -8 -V -T "artist=%a" -T "title=%t" -T "album=%g" -T "date=%y" -T "tracknumber=%n" -T "genre=%m" %s


TOC of the extracted CD

Track | Start | Length | Start sector | End sector
––––––––––––––––––––––––––––-
1 | 0:00.37 | 3:29.65 | 37 | 15776
2 | 3:30.27 | 3:24.23 | 15777 | 31099
3 | 6:54.50 | 6:09.30 | 31100 | 58804
4 | 13:04.05 | 3:41.10 | 58805 | 75389
5 | 16:45.15 | 2:41.15 | 75390 | 87479
6 | 19:26.30 | 3:22.47 | 87480 | 102676
7 | 22:49.02 | 3:57.38 | 102677 | 120489
8 | 26:46.40 | 3:18.32 | 120490 | 135371
9 | 30:04.72 | 2:56.68 | 135372 | 148639


Track 1

Filename F:\EAC Rips\Bob Seger - 1975 - Beautiful Loser (FLAC)\01 - Beautiful Loser.wav

Pre-gap length 0:00:02.49

Peak level 89.8 %
Track quality 99.9 %
Test CRC FE5A82B4
Copy CRC FE5A82B4
Accurately ripped (confidence 37) [24AABBC9]
Copy OK

Track 2

Filename F:\EAC Rips\Bob Seger - 1975 - Beautiful Loser (FLAC)\02 - Black Night.wav

Pre-gap length 0:00:02.04

Peak level 89.1 %
Track quality 100.0 %
Test CRC 6485510D
Copy CRC 6485510D
Accurately ripped (confidence 36) [9BCD2F2F]
Copy OK

Track 3

Filename F:\EAC Rips\Bob Seger - 1975 - Beautiful Loser (FLAC)\03 - Katmandu.wav

Pre-gap length 0:00:02.49

Peak level 99.5 %
Track quality 100.0 %
Test CRC 2854ECE6
Copy CRC 2854ECE6
Accurately ripped (confidence 37) [E5875BB0]
Copy OK

Track 4

Filename F:\EAC Rips\Bob Seger - 1975 - Beautiful Loser (FLAC)\04 - Jody Girl.wav

Pre-gap length 0:00:02.61

Peak level 64.2 %
Track quality 99.9 %
Test CRC 9C36B844
Copy CRC 9C36B844
Accurately ripped (confidence 36) [E9B3570A]
Copy OK

Track 5

Filename F:\EAC Rips\Bob Seger - 1975 - Beautiful Loser (FLAC)\05 - Travelin' Man.wav

Pre-gap length 0:00:02.05

Peak level 79.7 %
Track quality 100.0 %
Test CRC 45862F1B
Copy CRC 45862F1B
Accurately ripped (confidence 38) [CD6C1FE5]
Copy OK

Track 6

Filename F:\EAC Rips\Bob Seger - 1975 - Beautiful Loser (FLAC)\06 - Momma.wav

Pre-gap length 0:00:02.50

Peak level 87.6 %
Track quality 100.0 %
Test CRC 54440DEE
Copy CRC 54440DEE
Accurately ripped (confidence 35) [E8D9B458]
Copy OK

Track 7

Filename F:\EAC Rips\Bob Seger - 1975 - Beautiful Loser (FLAC)\07 - Nutbush City Limits.wav

Pre-gap length 0:00:02.30

Peak level 100.0 %
Track quality 100.0 %
Test CRC 666DF5B8
Copy CRC 666DF5B8
Accurately ripped (confidence 35) [B5F55DE8]
Copy OK

Track 8

Filename F:\EAC Rips\Bob Seger - 1975 - Beautiful Loser (FLAC)\08 - Sailing Nights.wav

Pre-gap length 0:00:01.96

Peak level 86.1 %
Track quality 100.0 %
Test CRC AD9A887A
Copy CRC AD9A887A
Accurately ripped (confidence 35) [B889F3E1]
Copy OK

Track 9

Filename F:\EAC Rips\Bob Seger - 1975 - Beautiful Loser (FLAC)\09 - Fine Memory.wav

Pre-gap length 0:00:01.80

Peak level 57.1 %
Track quality 100.0 %
Test CRC C1C1E90F
Copy CRC C1C1E90F
Accurately ripped (confidence 36) [DEC5DC8F]
Copy OK


All tracks accurately ripped

No errors occurred

End of status report


Hotfile Links



Rapid Share Links



Links Are Interchangeable


Password: mr. magoo