Subcategories
Tags
Language
Tags

Bobby Broom - Upper West Side Story (2012) {Origin Records 82617}

Posted By: ruskaval
Bobby Broom - Upper West Side Story (2012) {Origin Records 82617}

Bobby Broom - Upper West Side Story (2012) {Origin Records 82617}
EAC rip (secure mode) | FLAC (tracks)+CUE+LOG -> 355 Mb | MP3 @320 -> 139 Mb
Full Artwork @ 300 dpi (jpg) -> 16 Mb | 5% repair rar
© 2012 Bobby Broom / Origin Records | Origin 82617
Jazz / Hard Bop / Soul Jazz / Guitar

One of the top guitarists of his generation, Bobby Broom's preferred setting is a small group, while he excels in the demanding trio setting with bassist Dennis Carroll and drummer Kobie Watkins (with Makaya McCraven replacing him on three songs). Upper West Side Story includes nine originals, none of which is likely to become a jazz standard, but all of which are stimulating. "D's Blues" has an engaging hard bop hook that pulls the listener in immediately, while "Upper West Side Story" suggests a walk in Manhattan on a breezy spring day, with an infectious Latin undercurrent.

The loping "Minor Major Mishap" takes its time to develop, though Broom's intricate solo bustles with energy. "Fambrosicous" is dedicated to the late bassist Charles Fambrough, an engaging vehicle that starts as bop but detours into some wild improvising. "When the Falling Leaves…" is a subdued ballad with a melancholy air, with the rhythm section providing soft, spacious accompaniment that completes the mood that Broom seeks. Recommended.
Bobby Broom - Upper West Side Story (2012) {Origin Records 82617}


Musicians
Guitar Bobby Broom
Bass Dennis Carroll
Drums Kobie Watkins
Drums Makaya McCraven

tracklist:
01 D's Blues 06:51
02 Upper West Side Story 04:54
03 After Words 08:46
04 Minor Major Mishap 06:57
05 Lazy Sundays 06:24
06 Fambroscious (For Fambrough) 03:25
07 Father 07:42
08 Call Me A Cab 06:12
09 When The Falling Leaves… 08:42

Exact Audio Copy V1.0 beta 3 from 29. August 2011

EAC extraction logfile from 15. April 2015, 21:32

Bobby Broom / Upper West Side Story

Used drive : SONY DVD RW DRU-810A Adapter: 1 ID: 0

Read mode : Secure
Utilize accurate stream : Yes
Defeat audio cache : Yes
Make use of C2 pointers : No

Read offset correction : 618
Overread into Lead-In and Lead-Out : No
Fill up missing offset samples with silence : Yes
Delete leading and trailing silent blocks : No
Null samples used in CRC calculations : Yes
Used interface : Native Win32 interface for Win NT & 2000
Gap handling : Appended to previous track

Used output format : User Defined Encoder
Selected bitrate : 128 kBit/s
Quality : High
Add ID3 tag : No
Command line compressor : C:\Program Files (x86)\Exact Audio Copy\Flac\flac.exe
Additional command line options : -8 -V -T "ARTIST=%artist%" -T "TITLE=%title%" -T "ALBUM=%albumtitle%" -T "DATE=%year%" -T "TRACKNUMBER=%tracknr%" -T "TOTALTRACKS=%numtracks%" -T "GENRE=%genre%" -T "ALBUMARTIST=%albumartist%" -T "ALBUM ARTIST=%albumartist%" -T "COMMENT=EAC Secure Mode, Test & Copy, AccurateRip, FLAC -8" %source%


TOC of the extracted CD

Track | Start | Length | Start sector | End sector
––––––––––––––––––––––––––––-
1 | 0:00.00 | 6:51.21 | 0 | 30845
2 | 6:51.21 | 4:54.13 | 30846 | 52908
3 | 11:45.34 | 8:46.14 | 52909 | 92372
4 | 20:31.48 | 6:57.39 | 92373 | 123686
5 | 27:29.12 | 6:24.47 | 123687 | 152533
6 | 33:53.59 | 3:25.06 | 152534 | 167914
7 | 37:18.65 | 7:42.55 | 167915 | 202619
8 | 45:01.45 | 6:12.46 | 202620 | 230565
9 | 51:14.16 | 8:42.74 | 230566 | 269789


Track 1

Filename F:\New Rips\Bobby Broom - Upper West Side Story (2012) [FLAC]\01 - D's Blues.wav

Pre-gap length 0:00:02.00

Peak level 96.6 %
Extraction speed 4.8 X
Track quality 100.0 %
Test CRC CE904A3A
Copy CRC CE904A3A
Accurately ripped (confidence 7) [018C5522] (AR v2)
Copy OK

Track 2

Filename F:\New Rips\Bobby Broom - Upper West Side Story (2012) [FLAC]\02 - Upper West Side Story.wav

Peak level 96.6 %
Extraction speed 5.2 X
Track quality 100.0 %
Test CRC D166648F
Copy CRC D166648F
Accurately ripped (confidence 7) [4D441070] (AR v2)
Copy OK

Track 3

Filename F:\New Rips\Bobby Broom - Upper West Side Story (2012) [FLAC]\03 - After Words.wav

Peak level 96.6 %
Extraction speed 5.8 X
Track quality 99.9 %
Test CRC F9EF84B2
Copy CRC F9EF84B2
Accurately ripped (confidence 7) [465E6CCC] (AR v2)
Copy OK

Track 4

Filename F:\New Rips\Bobby Broom - Upper West Side Story (2012) [FLAC]\04 - Minor Major Mishap.wav

Peak level 96.6 %
Extraction speed 6.9 X
Track quality 100.0 %
Test CRC 91C40AD0
Copy CRC 91C40AD0
Accurately ripped (confidence 7) [D822FAE0] (AR v2)
Copy OK

Track 5

Filename F:\New Rips\Bobby Broom - Upper West Side Story (2012) [FLAC]\05 - Lazy Sunday Afternoon.wav

Peak level 92.5 %
Extraction speed 7.3 X
Track quality 100.0 %
Test CRC 915AFC81
Copy CRC 915AFC81
Accurately ripped (confidence 7) [D340B742] (AR v2)
Copy OK

Track 6

Filename F:\New Rips\Bobby Broom - Upper West Side Story (2012) [FLAC]\06 - Fambroscious.wav

Peak level 96.6 %
Extraction speed 7.1 X
Track quality 100.0 %
Test CRC D22A8F35
Copy CRC D22A8F35
Accurately ripped (confidence 7) [9946C9A3] (AR v2)
Copy OK

Track 7

Filename F:\New Rips\Bobby Broom - Upper West Side Story (2012) [FLAC]\07 - Father.wav

Peak level 96.6 %
Extraction speed 8.1 X
Track quality 100.0 %
Test CRC A309F48E
Copy CRC A309F48E
Accurately ripped (confidence 7) [7E12C64B] (AR v2)
Copy OK

Track 8

Filename F:\New Rips\Bobby Broom - Upper West Side Story (2012) [FLAC]\08 - Call Me A Cab.wav

Peak level 96.6 %
Extraction speed 8.4 X
Track quality 100.0 %
Test CRC 1E045500
Copy CRC 1E045500
Accurately ripped (confidence 7) [C7BEB386] (AR v2)
Copy OK

Track 9

Filename F:\New Rips\Bobby Broom - Upper West Side Story (2012) [FLAC]\09 - When The Falling Leaves.wav

Peak level 96.6 %
Extraction speed 9.0 X
Track quality 100.0 %
Test CRC 691D4F6C
Copy CRC 691D4F6C
Accurately ripped (confidence 7) [E26B94ED] (AR v2)
Copy OK


All tracks accurately ripped

No errors occurred

End of status report

–– CUETools DB Plugin V2.1.3

[CTDB TOCID: dBZF3STKBh8mHh6fjUuNkVCwUXk-] found, Submit result: dBZF3STKBh8mHh6fjUuNkVCwUXk- has been confirmed
[b0ef346d] (3/3) Accurately ripped


==== Log checksum 3A36577A3A21037A0C06C93D2016C088EE713F270F8175A61CA7FF876159FCE5 ====


Bobby Broom - Upper West Side Story (2012) {Origin Records 82617}

Bobby Broom - Upper West Side Story (2012) {Origin Records 82617}



===