Subcategories

Carla Huhtanen, Krisztina Szabo, Graham Thomson, Geoffrey Sirett & Brian Current - Brian Current: Airline Icarus (2014)

Posted By: delpotro
Carla Huhtanen, Krisztina Szabo, Graham Thomson, Geoffrey Sirett & Brian Current - Brian Current: Airline Icarus (2014)

Carla Huhtanen, Krisztina Szabo, Graham Thomson, Geoffrey Sirett & Brian Current - Brian Current: Airline Icarus (2014)
EAC Rip | FLAC (tracks+log+.cue) - 215 Mb | MP3 CBR 320 kbps - 102 Mb | 00:43:43
Classical, Opera | Label: Naxos Records

Leading young Canadian composer Brian Current, recipient of numerous distinguished international prizes, has collaborated with award-winning writer Anton Piatigorsky in an exciting work for voice and accompanying ensemble. Airline Icarus is set aboard an airliner in which, taking the myth of Icarus as the central image, the composer “explores themes of hubris mixed with technology”. The result is a powerful, resonant work which won Current the Italian Premio Fedora Award in 2011.

Brian Current is an award-winning young Canadian composer. These contemporary works for voice and chamber and vocal ensemble show both his playful and darker sides. These are both premiere recordings. Inventory is something of a stream-of-consciousness and quite quirky. Airline Icarus – which won the Italian Premio Fedora Award in 2011 – is a much longer and more intense work exploring the thoughts of passengers and crew during a fateful flight. Current mixes traditional and contemporary elements in his music-making, meaning it is always excitingly developed but rooted in a recognizable language.

Artists:
Alexander Dobson (baritone), Jennifer Taverner (soprano), Taylor Strande (soprano), Leigh-Anne Martin (mezzo-soprano), Loralie Kirkpatrick (mezzo-soprano), Charles Davidson (tenor), Graham Robinson (bass), Kathleen Rudolph (flute), Anthony Thompson (clarinet), Benjamin Bowman (violin), Véronique Mathieu (violin), Gregory Campbell (viola), Paul Widner (cello), Adam Sherkin (piano), Ryan Scott (percussion), John Rudolph (percussion), Geoffrey Sirett (baritone), Carla Huhtanen (soprano), Graham Thomson (tenor), Krisztina Szabó (mezzo-soprano), Sarah Moon (electronics)
Tracklist:
1. Baggage Man
2. Prepare for Departure
3. Safety Demonstration
4. Time for Take Off
5. Absolut
6. The Scholar
7. Business Man and Ad Exec
8. Flight Attendant
9. All is normal
10. Technology's Success
11. Business Man
12. The Airplane Shakes
13. The Airplane Disappears
14. The Pilot's Aria
15. Epilogue

Exact Audio Copy V1.3 from 2. September 2016

EAC extraction logfile from 10. June 2018, 10:03

Various Artists / Current. Airline Icarus

Used drive : HL-DT-STDVD-RAM GH22LP20 Adapter: 1 ID: 0

Read mode : Secure
Utilize accurate stream : Yes
Defeat audio cache : Yes
Make use of C2 pointers : No

Read offset correction : 102
Overread into Lead-In and Lead-Out : No
Fill up missing offset samples with silence : Yes
Delete leading and trailing silent blocks : No
Null samples used in CRC calculations : Yes
Used interface : Native Win32 interface for Win NT & 2000
Gap handling : Appended to previous track

Used output format : User Defined Encoder
Selected bitrate : 1024 kBit/s
Quality : High
Add ID3 tag : No
Command line compressor : C:\Program Files (x86)\Exact Audio Copy\Flac\flac.exe
Additional command line options : -8 -e -V -T "ARTIST=%artist%" -T "TITLE=%title%" -T "ALBUM=%albumtitle%" -T "DATE=%year%" -T "TRACKNUMBER=%tracknr%" -T "GENRE=%genre%" -T "PERFORMER=%albuminterpret%" -T "COMPOSER=%composer%" %haslyrics%–tag-from-file=LYRICS="%lyricsfile%"%haslyrics% -T "ALBUMARTIST=%albumartist%" -T "DISCNUMBER=%cdnumber%" -T "TOTALDISCS=%totalcds%" -T "TOTALTRACKS=%numtracks%" -T "COMMENT=%comment%" %source% -o %dest%


TOC of the extracted CD

Track | Start | Length | Start sector | End sector
––––––––––––––––––––––––––––-
1 | 0:00.00 | 1:25.38 | 0 | 6412
2 | 1:25.38 | 3:02.07 | 6413 | 20069
3 | 4:27.45 | 3:24.07 | 20070 | 35376
4 | 7:51.52 | 3:19.16 | 35377 | 50317
5 | 11:10.68 | 1:59.10 | 50318 | 59252
6 | 13:10.03 | 1:17.61 | 59253 | 65088
7 | 14:27.64 | 3:12.27 | 65089 | 79515
8 | 17:40.16 | 0:55.10 | 79516 | 83650
9 | 18:35.26 | 4:41.74 | 83651 | 104799
10 | 23:17.25 | 1:33.32 | 104800 | 111806
11 | 24:50.57 | 1:06.19 | 111807 | 116775
12 | 25:57.01 | 2:06.38 | 116776 | 126263
13 | 28:03.39 | 5:56.73 | 126264 | 153036
14 | 34:00.37 | 7:02.73 | 153037 | 184759
15 | 41:03.35 | 2:40.40 | 184760 | 196799


Track 1

Filename D:\Torrent\Various Artists - Current. Airline Icarus (2014) [FLAC]\01 - Baggage Man.wav

Pre-gap length 0:00:02.00

Peak level 98.2 %
Extraction speed 1.2 X
Track quality 100.0 %
Test CRC 1C34EF9E
Copy CRC 1C34EF9E
Accurately ripped (confidence 1) [99A172E1] (AR v2)
Copy OK

Track 2

Filename D:\Torrent\Various Artists - Current. Airline Icarus (2014) [FLAC]\02 - Prepare for Departure.wav

Peak level 95.4 %
Extraction speed 1.5 X
Track quality 100.0 %
Test CRC CB4304D5
Copy CRC CB4304D5
Accurately ripped (confidence 1) [C7D98B02] (AR v2)
Copy OK

Track 3

Filename D:\Torrent\Various Artists - Current. Airline Icarus (2014) [FLAC]\03 - Safety Demonstration.wav

Peak level 98.3 %
Extraction speed 1.6 X
Track quality 100.0 %
Test CRC F194D205
Copy CRC F194D205
Accurately ripped (confidence 1) [8C83C1D9] (AR v2)
Copy OK

Track 4

Filename D:\Torrent\Various Artists - Current. Airline Icarus (2014) [FLAC]\04 - Time for Take Off.wav

Peak level 98.3 %
Extraction speed 1.5 X
Track quality 99.9 %
Test CRC 02907C77
Copy CRC 02907C77
Accurately ripped (confidence 1) [7FCA2CC0] (AR v2)
Copy OK

Track 5

Filename D:\Torrent\Various Artists - Current. Airline Icarus (2014) [FLAC]\05 - Absolut.wav

Peak level 98.3 %
Extraction speed 1.7 X
Track quality 100.0 %
Test CRC ADCFF826
Copy CRC ADCFF826
Accurately ripped (confidence 1) [412C0AA4] (AR v2)
Copy OK

Track 6

Filename D:\Torrent\Various Artists - Current. Airline Icarus (2014) [FLAC]\06 - The Scholar.wav

Peak level 76.5 %
Extraction speed 1.6 X
Track quality 100.0 %
Test CRC CA9ECD75
Copy CRC CA9ECD75
Accurately ripped (confidence 1) [DBADD754] (AR v2)
Copy OK

Track 7

Filename D:\Torrent\Various Artists - Current. Airline Icarus (2014) [FLAC]\07 - Business Man and Ad Exec.wav

Peak level 98.2 %
Extraction speed 2.0 X
Track quality 100.0 %
Test CRC 7FD2E7EE
Copy CRC 7FD2E7EE
Accurately ripped (confidence 1) [567492D2] (AR v2)
Copy OK

Track 8

Filename D:\Torrent\Various Artists - Current. Airline Icarus (2014) [FLAC]\08 - Flight Attendant.wav

Peak level 59.1 %
Extraction speed 1.4 X
Track quality 100.0 %
Test CRC AE10B620
Copy CRC AE10B620
Accurately ripped (confidence 1) [829A686F] (AR v2)
Copy OK

Track 9

Filename D:\Torrent\Various Artists - Current. Airline Icarus (2014) [FLAC]\09 - All is normal.wav

Peak level 98.2 %
Extraction speed 2.3 X
Track quality 100.0 %
Test CRC 45FE3A31
Copy CRC 45FE3A31
Accurately ripped (confidence 1) [0CB0AFBD] (AR v2)
Copy OK

Track 10

Filename D:\Torrent\Various Artists - Current. Airline Icarus (2014) [FLAC]\10 - Technology's Success.wav

Peak level 98.3 %
Extraction speed 1.9 X
Track quality 100.0 %
Test CRC E88EF86A
Copy CRC E88EF86A
Accurately ripped (confidence 1) [0820C187] (AR v2)
Copy OK

Track 11

Filename D:\Torrent\Various Artists - Current. Airline Icarus (2014) [FLAC]\11 - Business Man.wav

Peak level 98.3 %
Extraction speed 1.7 X
Track quality 100.0 %
Test CRC 60DD78C2
Copy CRC 60DD78C2
Accurately ripped (confidence 1) [4FB91D96] (AR v2)
Copy OK

Track 12

Filename D:\Torrent\Various Artists - Current. Airline Icarus (2014) [FLAC]\12 - The Airplane Shakes.wav

Peak level 98.3 %
Extraction speed 1.8 X
Track quality 99.9 %
Test CRC D4C0309F
Copy CRC D4C0309F
Accurately ripped (confidence 1) [8DB04C3D] (AR v2)
Copy OK

Track 13

Filename D:\Torrent\Various Artists - Current. Airline Icarus (2014) [FLAC]\13 - The Airplane Disappears.wav

Peak level 98.3 %
Extraction speed 2.7 X
Track quality 100.0 %
Test CRC BFDA258B
Copy CRC BFDA258B
Accurately ripped (confidence 1) [6DE2D474] (AR v2)
Copy OK

Track 14

Filename D:\Torrent\Various Artists - Current. Airline Icarus (2014) [FLAC]\14 - The Pilot's Aria.wav

Peak level 98.3 %
Extraction speed 2.6 X
Track quality 99.9 %
Test CRC AF88BE3A
Copy CRC AF88BE3A
Accurately ripped (confidence 1) [5D6FF380] (AR v2)
Copy OK

Track 15

Filename D:\Torrent\Various Artists - Current. Airline Icarus (2014) [FLAC]\15 - Epilogue.wav

Peak level 73.6 %
Extraction speed 2.6 X
Track quality 100.0 %
Test CRC 4E0C3DB0
Copy CRC 4E0C3DB0
Accurately ripped (confidence 1) [2591EC55] (AR v2)
Copy OK


All tracks accurately ripped

No errors occurred

End of status report

–– CUETools DB Plugin V2.1.6

[CTDB TOCID: WmLeHgGD2FU2ZCeMLIvlAB7nzbQ-] found
Submit result: WmLeHgGD2FU2ZCeMLIvlAB7nzbQ- has been confirmed
Track | CTDB Status
1 | (2/2) Accurately ripped
2 | (2/2) Accurately ripped
3 | (2/2) Accurately ripped
4 | (2/2) Accurately ripped
5 | (2/2) Accurately ripped
6 | (2/2) Accurately ripped
7 | (2/2) Accurately ripped
8 | (2/2) Accurately ripped
9 | (2/2) Accurately ripped
10 | (2/2) Accurately ripped
11 | (2/2) Accurately ripped
12 | (2/2) Accurately ripped
13 | (2/2) Accurately ripped
14 | (2/2) Accurately ripped
15 | (2/2) Accurately ripped


==== Log checksum C693412B804F0083C1ADBB630BDD65787FFCB2C7FD793829B7D669809D6AE91A ====

Thanks to the Original ripper bryars !