Subcategories

Bruce Springsteen - Nebraska (1982) |re-up|

Posted By: plonker
Bruce Springsteen - Nebraska (1982)   |re-up|

Bruce Springsteen - Nebraska (1982)
Rock | EAC rip | WV: IMG+CUE+LOG -> 219 MB | mp3@VBR V0 (245avg) -> 79 MB
40:48 min | scans | 3% recovery | NF & FF | Columbia COL 511303 2

AMG review by William Ruhlmann:
There is an adage in the record business that a recording artist's demos of new songs often come off better than the more polished versions later worked up in a studio. But Bruce Springsteen was the first person to act on that theory, when he opted to release the demo versions of his latest songs, recorded with only acoustic or electric guitar, harmonica, and vocals, as his sixth album, Nebraska. It was really the content that dictated the approach, however. Nebraska's ten songs marked a departure for Springsteen, even as they took him farther down a road he had been traveling previously. Gradually, his songs had become darker and more pessimistic, and those on Nebraska marked a new low. They also found him branching out into better developed stories. The title track was a first-person account of the killing spree of mass murderer Charlie Starkweather. (It can't have been coincidental that the same story was told in director Terrence Malick's 1973 film Badlands, also used as a Springsteen song title.) That song set the tone for a series of portraits of small-time criminals, desperate people, and those who loved them. Just as the recordings were unpolished, the songs themselves didn't seem quite finished; sometimes the same line turned up in two songs. But that only served to unify the album. Within the difficult times, however, there was hope, especially as the album went on. "Open All Night" was a Chuck Berry-style rocker, and the album closed with "Reason to Believe," a song whose hard-luck verses were belied by the chorus – even if the singer couldn't understand what it was, "people find some reason to believe." Still, Nebraska was one of the most challenging albums ever released by a major star on a major record label.(5/5)

Tracklist:
01 Nebraska
02 Atlantic City
03 Mansion On The Hill
04 Johnny 99
05 Highway Patrolman
06 State Trooper
07 Used Cars
08 Open All Night
09 My Father's House
10 Reason To Believe

Exact Audio Copy V1.0 beta 1 from 15. November 2010

EAC extraction logfile from 4. March 2011, 22:30

Bruce Springsteen / Nebraska

Used drive : HL-DT-STDVDRAM GT30N Adapter: 2 ID: 0

Read mode : Secure
Utilize accurate stream : Yes
Defeat audio cache : Yes
Make use of C2 pointers : No

Read offset correction : 103
Overread into Lead-In and Lead-Out : No
Fill up missing offset samples with silence : Yes
Delete leading and trailing silent blocks : No
Null samples used in CRC calculations : Yes
Used interface : Native Win32 interface for Win NT & 2000

Used output format : Internal WAV Routines
Sample format : 44.100 Hz; 16 Bit; Stereo


TOC of the extracted CD

Track | Start | Length | Start sector | End sector
––––––––––––––––––––––––––––-
1 | 0:00.00 | 4:32.02 | 0 | 20401
2 | 4:32.02 | 4:00.53 | 20402 | 38454
3 | 8:32.55 | 4:08.05 | 38455 | 57059
4 | 12:40.60 | 3:43.37 | 57060 | 73821
5 | 16:24.22 | 5:40.60 | 73822 | 99381
6 | 22:05.07 | 3:17.05 | 99382 | 114161
7 | 25:22.12 | 3:10.55 | 114162 | 128466
8 | 28:32.67 | 2:58.25 | 128467 | 141841
9 | 31:31.17 | 5:07.68 | 141842 | 164934
10 | 36:39.10 | 4:08.32 | 164935 | 183566


Range status and errors

Selected range

Filename D:\mR\Bruce Springsteen - Nebraska.wav

Peak level 62.0 %
Extraction speed 0.4 X
Range quality 100.0 %
Test CRC 82C500AF
Copy CRC 82C500AF
Copy OK

No errors occurred


AccurateRip summary

Track 1 accurately ripped (confidence 2) [4A947C91]
Track 2 accurately ripped (confidence 2) [F02FA195]
Track 3 accurately ripped (confidence 2) [A51FA019]
Track 4 accurately ripped (confidence 2) [155C9CD0]
Track 5 accurately ripped (confidence 2) [64D62F00]
Track 6 accurately ripped (confidence 2) [8E59A242]
Track 7 accurately ripped (confidence 2) [FF3CCB26]
Track 8 accurately ripped (confidence 2) [41EA88C9]
Track 9 accurately ripped (confidence 2) [9A353DD0]
Track 10 accurately ripped (confidence 2) [A771C0F2]

All tracks accurately ripped

End of status report

==== Log checksum CA50E8E88F23BF92200E211690416BE7C13DAB45F7DF19AA1F9B3B1F0ED5ECEA ====



************ download ************
Filefactory


password (if needed): avax