Tags
Language
Tags

Bruce Springsteen - Western Stars: Songs From The Film (2019)

Posted By: delpotro
Bruce Springsteen - Western Stars: Songs From The Film (2019)

Bruce Springsteen - Western Stars: Songs From The Film (2019)
EAC Rip | FLAC (tracks+log+.cue) - 397 Mb | MP3 CBR 320 kbps - 173 Mb | Scans included | 00:57:40
Folk Rock | Label: Columbia Records

Columbia Records will release ‘Western Stars – Songs From The Film’ on October 25th, featuring each of the live performances captured in Bruce Springsteen’s directorial debut ‘Western Stars.’ The soundtrack includes every song from Springsteen’s most recent studio album of the same name, as well as a cover of Glen Campbell’s “Rhinestone Cowboy.”

‘Western Stars – Songs From The Film’ pulls the audio from the film co-directed by Bruce Springsteen and longtime collaborator Thom Zimny. Springsteen and Ron Aniello produced the soundtrack, and its audio was mixed by Bob Clearmountain and mastered by Bob Ludwig, the same legendary duo behind ‘Springsteen on Broadway.’ Pre-orders for the album begin Friday, September 27th here.

The ‘Western Stars’ film is a cinematic retelling of Springsteen’s first studio album in five years, as he plays the album backed by a band and full orchestra at Stone Hill Farm in Colts Neck, NJ. The film premiered at the 2019 Toronto International Film Festival and is written and performed by Bruce Springsteen, with special guest Patti Scialfa. Zimny, Jon Landau, Barbara Carr, and George Travis produced the film, with Springsteen serving as executive producer. The original score is by Springsteen.

The ‘Western Stars’ album has become a global success by nearly every measure, reaching #1 on charts in every continent on earth and hailed by critics as some of the finest music of his career. The album also placed Springsteen alongside David Bowie and the Rolling Stones one of the Top 5 acts with the most #1 UK albums.
Tracklist:
1. Hitch Hikin' (Film Version) (03:45)
2. The Wayfarer (Film Version) (04:46)
3. Tucson Train (Film Version) (03:22)
4. Western Stars (Film Version) (04:40)
5. Sleepy Joe's Café (Film Version) (03:44)
6. Drive Fast (The Stuntman) [Film Version] (04:44)
7. Chasin' Wild Horses (Film Version) (05:48)
8. Sundown (Film Version) (03:15)
9. Somewhere North of Nashville (Film Version) (02:02)
10. Stones (Film Version) (05:37)
11. There Goes My Miracle (Film Version) (04:02)
12. Hello Sunshine (Film Version) (04:24)
13. Moonlight Motel (Film Version) (04:03)
14. Rhinestone Cowboy (Film Version) (03:18)

Exact Audio Copy V1.3 from 2. September 2016

EAC extraction logfile from 17. November 2019, 8:23

Bruce Springsteen / Western Stars - Songs From the Film

Used drive : PLEXTOR PX-891SAF Adapter: 1 ID: 0

Read mode : Secure
Utilize accurate stream : Yes
Defeat audio cache : Yes
Make use of C2 pointers : No

Read offset correction : 6
Overread into Lead-In and Lead-Out : No
Fill up missing offset samples with silence : Yes
Delete leading and trailing silent blocks : No
Null samples used in CRC calculations : Yes
Used interface : Native Win32 interface for Win NT & 2000
Gap handling : Appended to previous track

Used output format : User Defined Encoder
Selected bitrate : 1024 kBit/s
Quality : High
Add ID3 tag : No
Command line compressor : C:\Program Files (x86)\Exact Audio Copy\Flac\flac.exe
Additional command line options : -8 -V -T "ARTIST=%artist%" -T "TITLE=%title%" -T "ALBUM=%albumtitle%" -T "DATE=%year%" -T "TRACKNUMBER=%tracknr%" -T "GENRE=%genre%" -T "PERFORMER=%albuminterpret%" -T "COMPOSER=%composer%" %haslyrics%–tag-from-file=LYRICS="%lyricsfile%"%haslyrics% -T "ALBUMARTIST=%albumartist%" -T "DISCNUMBER=%cdnumber%" -T "TOTALDISCS=%totalcds%" -T "TOTALTRACKS=%numtracks%" -T "COMMENT=%comment%" %source% -o %dest%


TOC of the extracted CD

Track | Start | Length | Start sector | End sector
––––––––––––––––––––––––––––-
1 | 0:00.00 | 3:46.43 | 0 | 16992
2 | 3:46.43 | 4:46.64 | 16993 | 38506
3 | 8:33.32 | 3:22.49 | 38507 | 53705
4 | 11:56.06 | 4:40.66 | 53706 | 74771
5 | 16:36.72 | 3:44.22 | 74772 | 91593
6 | 20:21.19 | 4:44.20 | 91594 | 112913
7 | 25:05.39 | 5:48.33 | 112914 | 139046
8 | 30:53.72 | 3:15.35 | 139047 | 153706
9 | 34:09.32 | 2:02.54 | 153707 | 162910
10 | 36:12.11 | 5:37.62 | 162911 | 188247
11 | 41:49.73 | 4:02.18 | 188248 | 206415
12 | 45:52.16 | 4:24.41 | 206416 | 226256
13 | 50:16.57 | 4:03.10 | 226257 | 244491
14 | 54:19.67 | 3:20.25 | 244492 | 259516


Track 1

Filename D:\#cdr\#wav+flac\Bruce Springsteen - Western Stars - Songs From the Film\01. Bruce Springsteen - Hitch Hikin’.wav

Pre-gap length 0:00:02.00

Peak level 99.0 %
Extraction speed 5.1 X
Track quality 100.0 %
Test CRC 8E2CD607
Copy CRC 8E2CD607
Track not present in AccurateRip database
Copy OK

Track 2

Filename D:\#cdr\#wav+flac\Bruce Springsteen - Western Stars - Songs From the Film\02. Bruce Springsteen - The Wayfarer.wav

Pre-gap length 0:00:02.33

Peak level 100.0 %
Extraction speed 4.9 X
Track quality 99.9 %
Test CRC 38EBC5B2
Copy CRC 38EBC5B2
Track not present in AccurateRip database
Copy OK

Track 3

Filename D:\#cdr\#wav+flac\Bruce Springsteen - Western Stars - Songs From the Film\03. Bruce Springsteen - Tucson Train.wav

Pre-gap length 0:00:02.10

Peak level 99.7 %
Extraction speed 6.0 X
Track quality 100.0 %
Test CRC B85208D9
Copy CRC B85208D9
Track not present in AccurateRip database
Copy OK

Track 4

Filename D:\#cdr\#wav+flac\Bruce Springsteen - Western Stars - Songs From the Film\04. Bruce Springsteen - Western Stars.wav

Pre-gap length 0:00:01.53

Peak level 100.0 %
Extraction speed 5.7 X
Track quality 99.9 %
Test CRC 057CE9D7
Copy CRC 057CE9D7
Track not present in AccurateRip database
Copy OK

Track 5

Filename D:\#cdr\#wav+flac\Bruce Springsteen - Western Stars - Songs From the Film\05. Bruce Springsteen - Sleepy Joe’s Café.wav

Pre-gap length 0:00:01.62

Peak level 100.0 %
Extraction speed 7.0 X
Track quality 100.0 %
Test CRC CEAAB4A2
Copy CRC CEAAB4A2
Track not present in AccurateRip database
Copy OK

Track 6

Filename D:\#cdr\#wav+flac\Bruce Springsteen - Western Stars - Songs From the Film\06. Bruce Springsteen - Drive Fast (The Stuntman).wav

Pre-gap length 0:00:03.06

Peak level 99.8 %
Extraction speed 7.7 X
Track quality 100.0 %
Test CRC 53F90AE2
Copy CRC 53F90AE2
Track not present in AccurateRip database
Copy OK

Track 7

Filename D:\#cdr\#wav+flac\Bruce Springsteen - Western Stars - Songs From the Film\07. Bruce Springsteen - Chasin’ Wild Horses.wav

Pre-gap length 0:00:02.49

Peak level 100.0 %
Extraction speed 8.2 X
Track quality 100.0 %
Test CRC 9501E5F4
Copy CRC 9501E5F4
Track not present in AccurateRip database
Copy OK

Track 8

Filename D:\#cdr\#wav+flac\Bruce Springsteen - Western Stars - Songs From the Film\08. Bruce Springsteen - Sundown.wav

Pre-gap length 0:00:01.72

Peak level 99.7 %
Extraction speed 8.0 X
Track quality 100.0 %
Test CRC 6B986F47
Copy CRC 6B986F47
Track not present in AccurateRip database
Copy OK

Track 9

Filename D:\#cdr\#wav+flac\Bruce Springsteen - Western Stars - Songs From the Film\09. Bruce Springsteen - Somewhere North of Nashville.wav

Pre-gap length 0:00:02.92

Peak level 98.8 %
Extraction speed 7.5 X
Track quality 100.0 %
Test CRC 1D7F47D1
Copy CRC 1D7F47D1
Track not present in AccurateRip database
Copy OK

Track 10

Filename D:\#cdr\#wav+flac\Bruce Springsteen - Western Stars - Songs From the Film\10. Bruce Springsteen - Stones.wav

Pre-gap length 0:00:03.20

Peak level 100.0 %
Extraction speed 9.2 X
Track quality 100.0 %
Test CRC F2338907
Copy CRC F2338907
Track not present in AccurateRip database
Copy OK

Track 11

Filename D:\#cdr\#wav+flac\Bruce Springsteen - Western Stars - Songs From the Film\11. Bruce Springsteen - There Goes My Miracle.wav

Pre-gap length 0:00:02.77

Peak level 100.0 %
Extraction speed 9.2 X
Track quality 100.0 %
Test CRC 102D603E
Copy CRC 102D603E
Track not present in AccurateRip database
Copy OK

Track 12

Filename D:\#cdr\#wav+flac\Bruce Springsteen - Western Stars - Songs From the Film\12. Bruce Springsteen - Hello Sunshine.wav

Pre-gap length 0:00:02.42

Peak level 99.0 %
Extraction speed 9.4 X
Track quality 100.0 %
Test CRC CD958A04
Copy CRC CD958A04
Track not present in AccurateRip database
Copy OK

Track 13

Filename D:\#cdr\#wav+flac\Bruce Springsteen - Western Stars - Songs From the Film\13. Bruce Springsteen - Moonlight Motel.wav

Pre-gap length 0:00:02.52

Peak level 98.8 %
Extraction speed 9.6 X
Track quality 100.0 %
Test CRC 5D5A0682
Copy CRC 5D5A0682
Track not present in AccurateRip database
Copy OK

Track 14

Filename D:\#cdr\#wav+flac\Bruce Springsteen - Western Stars - Songs From the Film\14. Bruce Springsteen - Rhinestone Cowboy.wav

Pre-gap length 0:00:01.89

Peak level 100.0 %
Extraction speed 9.4 X
Track quality 100.0 %
Test CRC 22B6EB70
Copy CRC 22B6EB70
Track not present in AccurateRip database
Copy OK


None of the tracks are present in the AccurateRip database

No errors occurred

End of status report

–– CUETools DB Plugin V2.1.6

[CTDB TOCID: S.s47u7ZokK6mK10GsGzXEP4P0Q-] found
Submit result: S.s47u7ZokK6mK10GsGzXEP4P0Q- has been confirmed
Track | CTDB Status
1 | (64/64) Accurately ripped
2 | (64/64) Accurately ripped
3 | (64/64) Accurately ripped
4 | (64/64) Accurately ripped
5 | (64/64) Accurately ripped
6 | (64/64) Accurately ripped
7 | (64/64) Accurately ripped
8 | (64/64) Accurately ripped
9 | (64/64) Accurately ripped
10 | (64/64) Accurately ripped
11 | (64/64) Accurately ripped
12 | (64/64) Accurately ripped
13 | (64/64) Accurately ripped
14 | (64/64) Accurately ripped


==== Log checksum E09D350A50573A4AE61EA04761A977332744CA1DE66150B6D37DCEB4A5F1F70B ====

––––––––––––––––––––––––––––––

Exact Audio Copy V1.3 from 2. September 2016

EAC extraction logfile from 17. November 2019, 8:23

Bruce Springsteen / Western Stars - Songs From the Film

Used drive : PLEXTOR PX-891SAF Adapter: 1 ID: 0

Read mode : Secure
Utilize accurate stream : Yes
Defeat audio cache : Yes
Make use of C2 pointers : No

Read offset correction : 6
Overread into Lead-In and Lead-Out : No
Fill up missing offset samples with silence : Yes
Delete leading and trailing silent blocks : No
Null samples used in CRC calculations : Yes
Used interface : Native Win32 interface for Win NT & 2000
Gap handling : Appended to previous track

Used output format : User Defined Encoder
Selected bitrate : 1024 kBit/s
Quality : High
Add ID3 tag : No
Command line compressor : C:\Program Files (x86)\Exact Audio Copy\Flac\flac.exe
Additional command line options : -8 -V -T "ARTIST=%artist%" -T "TITLE=%title%" -T "ALBUM=%albumtitle%" -T "DATE=%year%" -T "TRACKNUMBER=%tracknr%" -T "GENRE=%genre%" -T "PERFORMER=%albuminterpret%" -T "COMPOSER=%composer%" %haslyrics%–tag-from-file=LYRICS="%lyricsfile%"%haslyrics% -T "ALBUMARTIST=%albumartist%" -T "DISCNUMBER=%cdnumber%" -T "TOTALDISCS=%totalcds%" -T "TOTALTRACKS=%numtracks%" -T "COMMENT=%comment%" %source% -o %dest%


TOC of the extracted CD

Track | Start | Length | Start sector | End sector
––––––––––––––––––––––––––––-
1 | 0:00.00 | 3:46.43 | 0 | 16992
2 | 3:46.43 | 4:46.64 | 16993 | 38506
3 | 8:33.32 | 3:22.49 | 38507 | 53705
4 | 11:56.06 | 4:40.66 | 53706 | 74771
5 | 16:36.72 | 3:44.22 | 74772 | 91593
6 | 20:21.19 | 4:44.20 | 91594 | 112913
7 | 25:05.39 | 5:48.33 | 112914 | 139046
8 | 30:53.72 | 3:15.35 | 139047 | 153706
9 | 34:09.32 | 2:02.54 | 153707 | 162910
10 | 36:12.11 | 5:37.62 | 162911 | 188247
11 | 41:49.73 | 4:02.18 | 188248 | 206415
12 | 45:52.16 | 4:24.41 | 206416 | 226256
13 | 50:16.57 | 4:03.10 | 226257 | 244491
14 | 54:19.67 | 3:20.25 | 244492 | 259516


Track 1

Filename D:\#cdr\#wav+flac\Bruce Springsteen - Western Stars - Songs From the Film\01. Bruce Springsteen - Hitch Hikin’.wav

Pre-gap length 0:00:02.00

Peak level 99.0 %
Extraction speed 5.1 X
Track quality 100.0 %
Test CRC 8E2CD607
Copy CRC 8E2CD607
Track not present in AccurateRip database
Copy OK

Track 2

Filename D:\#cdr\#wav+flac\Bruce Springsteen - Western Stars - Songs From the Film\02. Bruce Springsteen - The Wayfarer.wav

Pre-gap length 0:00:02.33

Peak level 100.0 %
Extraction speed 4.9 X
Track quality 99.9 %
Test CRC 38EBC5B2
Copy CRC 38EBC5B2
Track not present in AccurateRip database
Copy OK

Track 3

Filename D:\#cdr\#wav+flac\Bruce Springsteen - Western Stars - Songs From the Film\03. Bruce Springsteen - Tucson Train.wav

Pre-gap length 0:00:02.10

Peak level 99.7 %
Extraction speed 6.0 X
Track quality 100.0 %
Test CRC B85208D9
Copy CRC B85208D9
Track not present in AccurateRip database
Copy OK

Track 4

Filename D:\#cdr\#wav+flac\Bruce Springsteen - Western Stars - Songs From the Film\04. Bruce Springsteen - Western Stars.wav

Pre-gap length 0:00:01.53

Peak level 100.0 %
Extraction speed 5.7 X
Track quality 99.9 %
Test CRC 057CE9D7
Copy CRC 057CE9D7
Track not present in AccurateRip database
Copy OK

Track 5

Filename D:\#cdr\#wav+flac\Bruce Springsteen - Western Stars - Songs From the Film\05. Bruce Springsteen - Sleepy Joe’s Café.wav

Pre-gap length 0:00:01.62

Peak level 100.0 %
Extraction speed 7.0 X
Track quality 100.0 %
Test CRC CEAAB4A2
Copy CRC CEAAB4A2
Track not present in AccurateRip database
Copy OK

Track 6

Filename D:\#cdr\#wav+flac\Bruce Springsteen - Western Stars - Songs From the Film\06. Bruce Springsteen - Drive Fast (The Stuntman).wav

Pre-gap length 0:00:03.06

Peak level 99.8 %
Extraction speed 7.7 X
Track quality 100.0 %
Test CRC 53F90AE2
Copy CRC 53F90AE2
Track not present in AccurateRip database
Copy OK

Track 7

Filename D:\#cdr\#wav+flac\Bruce Springsteen - Western Stars - Songs From the Film\07. Bruce Springsteen - Chasin’ Wild Horses.wav

Pre-gap length 0:00:02.49

Peak level 100.0 %
Extraction speed 8.2 X
Track quality 100.0 %
Test CRC 9501E5F4
Copy CRC 9501E5F4
Track not present in AccurateRip database
Copy OK

Track 8

Filename D:\#cdr\#wav+flac\Bruce Springsteen - Western Stars - Songs From the Film\08. Bruce Springsteen - Sundown.wav

Pre-gap length 0:00:01.72

Peak level 99.7 %
Extraction speed 8.0 X
Track quality 100.0 %
Test CRC 6B986F47
Copy CRC 6B986F47
Track not present in AccurateRip database
Copy OK

Track 9

Filename D:\#cdr\#wav+flac\Bruce Springsteen - Western Stars - Songs From the Film\09. Bruce Springsteen - Somewhere North of Nashville.wav

Pre-gap length 0:00:02.92

Peak level 98.8 %
Extraction speed 7.5 X
Track quality 100.0 %
Test CRC 1D7F47D1
Copy CRC 1D7F47D1
Track not present in AccurateRip database
Copy OK

Track 10

Filename D:\#cdr\#wav+flac\Bruce Springsteen - Western Stars - Songs From the Film\10. Bruce Springsteen - Stones.wav

Pre-gap length 0:00:03.20

Peak level 100.0 %
Extraction speed 9.2 X
Track quality 100.0 %
Test CRC F2338907
Copy CRC F2338907
Track not present in AccurateRip database
Copy OK

Track 11

Filename D:\#cdr\#wav+flac\Bruce Springsteen - Western Stars - Songs From the Film\11. Bruce Springsteen - There Goes My Miracle.wav

Pre-gap length 0:00:02.77

Peak level 100.0 %
Extraction speed 9.2 X
Track quality 100.0 %
Test CRC 102D603E
Copy CRC 102D603E
Track not present in AccurateRip database
Copy OK

Track 12

Filename D:\#cdr\#wav+flac\Bruce Springsteen - Western Stars - Songs From the Film\12. Bruce Springsteen - Hello Sunshine.wav

Pre-gap length 0:00:02.42

Peak level 99.0 %
Extraction speed 9.4 X
Track quality 100.0 %
Test CRC CD958A04
Copy CRC CD958A04
Track not present in AccurateRip database
Copy OK

Track 13

Filename D:\#cdr\#wav+flac\Bruce Springsteen - Western Stars - Songs From the Film\13. Bruce Springsteen - Moonlight Motel.wav

Pre-gap length 0:00:02.52

Peak level 98.8 %
Extraction speed 9.6 X
Track quality 100.0 %
Test CRC 5D5A0682
Copy CRC 5D5A0682
Track not present in AccurateRip database
Copy OK

Track 14

Filename D:\#cdr\#wav+flac\Bruce Springsteen - Western Stars - Songs From the Film\14. Bruce Springsteen - Rhinestone Cowboy.wav

Pre-gap length 0:00:01.89

Peak level 100.0 %
Extraction speed 9.4 X
Track quality 100.0 %
Test CRC 22B6EB70
Copy CRC 22B6EB70
Track not present in AccurateRip database
Copy OK


None of the tracks are present in the AccurateRip database

No errors occurred

End of status report

–– CUETools DB Plugin V2.1.6

[CTDB TOCID: S.s47u7ZokK6mK10GsGzXEP4P0Q-] found
Submit result: S.s47u7ZokK6mK10GsGzXEP4P0Q- has been confirmed
Track | CTDB Status
1 | (64/64) Accurately ripped
2 | (64/64) Accurately ripped
3 | (64/64) Accurately ripped
4 | (64/64) Accurately ripped
5 | (64/64) Accurately ripped
6 | (64/64) Accurately ripped
7 | (64/64) Accurately ripped
8 | (64/64) Accurately ripped
9 | (64/64) Accurately ripped
10 | (64/64) Accurately ripped
11 | (64/64) Accurately ripped
12 | (64/64) Accurately ripped
13 | (64/64) Accurately ripped
14 | (64/64) Accurately ripped


==== Log checksum E09D350A50573A4AE61EA04761A977332744CA1DE66150B6D37DCEB4A5F1F70B ====

Thanks to the Original ripper !