Subcategories

Buffalo Springfield - Buffalo Springfield (1966)

Posted By: Thranduil
Buffalo Springfield - Buffalo Springfield (1966)

Buffalo Springfield - Buffalo Springfield (1966)
FLAC Lossless, Cue, EAC Log File | Playtime: 00:33:02 | 191 MB
Genre: Folk Rock | Label: Atco | Release Date: 1966

Although the Byrds receive more credit (and perhaps rightfully so), Buffalo Springfield, in some respects, were just as responsible for the country-rock and singer/songwriter explosion that continued through the full flight of the Eagles and later mutated into '90s neo-country. This 1966 debut reveals the precocious songwriting talents of both Neil Young and Stephen Stills; check out Stills's Beatlesque "Sit Down, I Think I Love You" and Young's weird (for '66!) but classic "Burned." Their next album, Again, is widely considered their best effort, but this is an excellent debut, made even stronger with the addition of their hit, the single-only "For What It's Worth." The CD offers both stereo and mono versions of each track. –Bill Holdship
Exact Audio Copy V0.99 prebeta 3 from 28. July 2007

EAC extraction logfile from 13. May 2009, 18:01

Buffalo Springfield / Buffalo Springfield

Used drive : HL-DT-STDVD-RAM GH22LP20 Adapter: 3 ID: 0

Read mode : Secure
Utilize accurate stream : Yes
Defeat audio cache : Yes
Make use of C2 pointers : No

Read offset correction : 102
Overread into Lead-In and Lead-Out : No
Fill up missing offset samples with silence : Yes
Delete leading and trailing silent blocks : No
Null samples used in CRC calculations : Yes
Used interface : Installed external ASPI interface
Gap handling : Appended to previous track

Used output format : User Defined Encoder
Selected bitrate : 192 kBit/s
Quality : High
Add ID3 tag : No
Command line compressor : C:\Program Files\exact audio copy\flac.exe
Additional command line options : -V -8 -T "artist=%a" -T "title=%t" -T "album=%g" -T "date=%y" -T "tracknumber=%n" -T "genre=%m" %s


TOC of the extracted CD

Track | Start | Length | Start sector | End sector
––––––––––––––––––––––––––––-
1 | 0:00.32 | 2:37.28 | 32 | 11834
2 | 2:37.60 | 2:23.27 | 11835 | 22586
3 | 5:01.12 | 2:34.18 | 22587 | 34154
4 | 7:35.30 | 3:28.10 | 34155 | 49764
5 | 11:03.40 | 2:51.55 | 49765 | 62644
6 | 13:55.20 | 2:29.00 | 62645 | 73819
7 | 16:24.20 | 2:43.12 | 73820 | 86056
8 | 19:07.32 | 2:18.25 | 86057 | 96431
9 | 21:25.57 | 3:06.25 | 96432 | 110406
10 | 24:32.07 | 2:45.50 | 110407 | 122831
11 | 27:17.57 | 3:09.00 | 122832 | 137006
12 | 30:26.57 | 2:36.15 | 137007 | 148721


Track 1

Filename W:\Torrents\Buffalo Springfield - 1966 - Buffalo Springfield - FLAC\01 - For What It's Worth.wav

Pre-gap length 0:00:02.32

Peak level 97.6 %
Track quality 99.9 %
Test CRC 9D51069A
Copy CRC 9D51069A
Cannot be verified as accurate (confidence 8) [A7DCFCE7], AccurateRip returned [C4DB24E6]
Copy OK

Track 2

Filename W:\Torrents\Buffalo Springfield - 1966 - Buffalo Springfield - FLAC\02 - Go And Say Goodbye.wav

Pre-gap length 0:00:02.50

Peak level 99.1 %
Track quality 100.0 %
Test CRC 2D716AF5
Copy CRC 2D716AF5
Cannot be verified as accurate (confidence 8) [E41AEE58], AccurateRip returned [B70F8BC7]
Copy OK

Track 3

Filename W:\Torrents\Buffalo Springfield - 1966 - Buffalo Springfield - FLAC\03 - Sit Down I Think I Love you.wav

Pre-gap length 0:00:02.49

Peak level 100.0 %
Track quality 100.0 %
Test CRC B240DA48
Copy CRC B240DA48
Cannot be verified as accurate (confidence 8) [E3C21A37], AccurateRip returned [C48C901F]
Copy OK

Track 4

Filename W:\Torrents\Buffalo Springfield - 1966 - Buffalo Springfield - FLAC\04 - Nowadays Clancy Can't Even Sing.wav

Pre-gap length 0:00:02.50

Peak level 100.0 %
Track quality 100.0 %
Test CRC E15A5FDB
Copy CRC E15A5FDB
Cannot be verified as accurate (confidence 8) [FEE42E3E], AccurateRip returned [8C7CD99E]
Copy OK

Track 5

Filename W:\Torrents\Buffalo Springfield - 1966 - Buffalo Springfield - FLAC\05 - Hot Dusty Roads.wav

Pre-gap length 0:00:02.37

Peak level 100.0 %
Track quality 100.0 %
Test CRC 7CEAD83A
Copy CRC 7CEAD83A
Cannot be verified as accurate (confidence 8) [7ACAA961], AccurateRip returned [23F9F770]
Copy OK

Track 6

Filename W:\Torrents\Buffalo Springfield - 1966 - Buffalo Springfield - FLAC\06 - Everybody's Wrong.wav

Pre-gap length 0:00:02.50

Peak level 94.1 %
Track quality 100.0 %
Test CRC E8BED0EC
Copy CRC E8BED0EC
Cannot be verified as accurate (confidence 8) [573FDA6B], AccurateRip returned [3B035603]
Copy OK

Track 7

Filename W:\Torrents\Buffalo Springfield - 1966 - Buffalo Springfield - FLAC\07 - Flying On The Ground Is Wrong.wav

Pre-gap length 0:00:02.50

Peak level 95.7 %
Track quality 100.0 %
Test CRC 1B1FE454
Copy CRC 1B1FE454
Cannot be verified as accurate (confidence 8) [A908D51F], AccurateRip returned [B60CBF64]
Copy OK

Track 8

Filename W:\Torrents\Buffalo Springfield - 1966 - Buffalo Springfield - FLAC\08 - Burned.wav

Pre-gap length 0:00:02.02

Peak level 82.5 %
Track quality 100.0 %
Test CRC 35C9E8E1
Copy CRC 35C9E8E1
Cannot be verified as accurate (confidence 8) [D79E29C7], AccurateRip returned [FF228E43]
Copy OK

Track 9

Filename W:\Torrents\Buffalo Springfield - 1966 - Buffalo Springfield - FLAC\09 - Do I Have To Come Right Out And Say It.wav

Pre-gap length 0:00:02.37

Peak level 98.4 %
Track quality 100.0 %
Test CRC A44CA502
Copy CRC A44CA502
Cannot be verified as accurate (confidence 8) [5E16962B], AccurateRip returned [91D576E3]
Copy OK

Track 10

Filename W:\Torrents\Buffalo Springfield - 1966 - Buffalo Springfield - FLAC\10 - Leave.wav

Pre-gap length 0:00:02.29

Peak level 90.5 %
Track quality 100.0 %
Test CRC 732E2B88
Copy CRC 732E2B88
Cannot be verified as accurate (confidence 8) [CC791C6C], AccurateRip returned [8AFB2236]
Copy OK

Track 11

Filename W:\Torrents\Buffalo Springfield - 1966 - Buffalo Springfield - FLAC\11 - Out Of My Mind.wav

Pre-gap length 0:00:02.07

Peak level 97.7 %
Track quality 100.0 %
Test CRC FE4D1EA9
Copy CRC FE4D1EA9
Cannot be verified as accurate (confidence 8) [73DAFFF2], AccurateRip returned [F29F9BAF]
Copy OK

Track 12

Filename W:\Torrents\Buffalo Springfield - 1966 - Buffalo Springfield - FLAC\12 - Pay The Price.wav

Pre-gap length 0:00:02.39

Peak level 97.0 %
Track quality 100.0 %
Test CRC 63D23BA9
Copy CRC 63D23BA9
Cannot be verified as accurate (confidence 8) [DF783EA4], AccurateRip returned [36765257]
Copy OK


No tracks could be verified as accurate
You may have a different pressing from the one(s) in the database

No errors occurred

End of status report


Tracklist
01. For What It's Worth
02. Go and Say Goodbye
03. Sit Down I Think I Love You
04. Nowadays Clancy Can't Even Sing
05. Hot Dusty Roads
06. Everybody's Wrong
07. Flying on the Ground Is Wrong
08. Burned
09. Do I Have to Come Right Out and Say It
10. Leave
11. Out of My Mind
12. Pay the Price