Subcategories

Buffalo Springfield - Buffalo Springfield Again (1967)

Posted By: Thranduil
Buffalo Springfield - Buffalo Springfield Again (1967)

Buffalo Springfield - Buffalo Springfield Again (1967)
FLAC Lossless, Cue, EAC Log File | Playtime: 00:34:06 | 204 MB
Genre: Folk Rock | Label: Atco | Release Date: 1967

Here's where Stephen Stills and Neil Young's on-and-off partnership fell apart for the first time. The liner notes to BS's debut album had announced, "Steve is the leader, but we all are" and described Neil Young as "hot and cold," which in retrospect seems like a warning. Young appears to have at least one foot out the door already, the ambitious "Broken Arrow" and "Expecting to Fly" clearly pointing toward a solo career. And for all the timeless excellence of Young's "Mr. Soul," it's Stills's "Bluebird" that defines Buffalo Springfield Again, much as his "For What It's Worth" defined its predecessor. In one song, the group demonstrates astonishing versatility (from rock to folk to bluegrass), without the saccharine touches that mar Stills's post-Springfield work. But for all their considerable recorded achievements, Buffalo Springfield always felt like a band that never reached its potential. –David Wolf
EAC extraction logfile from 6. February 2008, 11:43 for CD
Buffalo Springfield / Buffalo Springfield Again

Used drive : SONY CD-RW CRX230EE Adapter: 0 ID: 1
Read mode : Secure with NO C2, accurate stream, disable cache
Read offset correction : 6
Overread into Lead-In and Lead-Out : No

Used output format : C:\Utilities\flac\flac-1.1.4-win\bin\flac.exe (User Defined Encoder)
128 kBit/s
Additional command line options : -V -8 -T "artist=%a" -T "title=%t" -T "album=%g" -T "date=%y" -T "tracknumber=%n" -T "genre=%m" %s

Other options :
Fill up missing offset samples with silence : Yes
Delete leading and trailing silent blocks : No
Installed external ASPI interface


Track 1
Filename C:\What\A\Buffalo Springfield - Buffalo Springfield Again (1967) [FLAC]\01 - Mr. Soul.wav

Pre-gap length 0:00:02.42

Peak level 97.4 %
Track quality 100.0 %
Test CRC C0310580
Copy CRC C0310580
Copy OK

Track 2
Filename C:\What\A\Buffalo Springfield - Buffalo Springfield Again (1967) [FLAC]\02 - A Child's Claim to Fame.wav

Pre-gap length 0:00:03.09

Peak level 97.2 %
Track quality 100.0 %
Test CRC 12EDB3CF
Copy CRC 12EDB3CF
Copy OK

Track 3
Filename C:\What\A\Buffalo Springfield - Buffalo Springfield Again (1967) [FLAC]\03 - Everydays.wav

Pre-gap length 0:00:03.53

Peak level 90.6 %
Track quality 100.0 %
Test CRC C423D2A3
Copy CRC C423D2A3
Copy OK

Track 4
Filename C:\What\A\Buffalo Springfield - Buffalo Springfield Again (1967) [FLAC]\04 - Expecting to Fly.wav

Pre-gap length 0:00:02.97

Peak level 93.2 %
Track quality 100.0 %
Test CRC ECED3BF7
Copy CRC ECED3BF7
Copy OK

Track 5
Filename C:\What\A\Buffalo Springfield - Buffalo Springfield Again (1967) [FLAC]\05 - Bluebird.wav

Pre-gap length 0:00:02.00

Peak level 96.8 %
Track quality 100.0 %
Test CRC 427D8F10
Copy CRC 427D8F10
Copy OK

Track 6
Filename C:\What\A\Buffalo Springfield - Buffalo Springfield Again (1967) [FLAC]\06 - Hung Upside Down.wav

Pre-gap length 0:00:07.66

Peak level 93.9 %
Track quality 100.0 %
Test CRC 07B2D489
Copy CRC 07B2D489
Copy OK

Track 7
Filename C:\What\A\Buffalo Springfield - Buffalo Springfield Again (1967) [FLAC]\07 - Sad Memory.wav

Pre-gap length 0:00:03.80

Peak level 57.0 %
Track quality 100.0 %
Test CRC 684C9FCD
Copy CRC 684C9FCD
Copy OK

Track 8
Filename C:\What\A\Buffalo Springfield - Buffalo Springfield Again (1967) [FLAC]\08 - Good Time Boy.wav

Pre-gap length 0:00:03.26

Peak level 97.4 %
Track quality 99.9 %
Test CRC 25F206E0
Copy CRC 25F206E0
Copy OK

Track 9
Filename C:\What\A\Buffalo Springfield - Buffalo Springfield Again (1967) [FLAC]\09 - Rock & Roll Woman.wav

Pre-gap length 0:00:02.97

Peak level 96.9 %
Track quality 99.9 %
Test CRC 33383670
Copy CRC 33383670
Copy OK

Track 10
Filename C:\What\A\Buffalo Springfield - Buffalo Springfield Again (1967) [FLAC]\10 - Broken Arrow.wav

Pre-gap length 0:00:03.57

Peak level 96.7 %
Track quality 100.0 %
Test CRC 64E1033C
Copy CRC 64E1033C
Copy OK

No errors occured


End of status report


Tracklist
1. Mr. Soul (Young)
2. A Child's Claim to Fame (Furay)
3. Everydays (Stills)
4. Expecting to Fly (Young)
5. Bluebird (Stills) – 4:28
6. Hung Upside Down (Stills)
7. Sad Memory (Furay)
8. Good Time Boy (Furay)
9. Rock & Roll Woman (Stills/Crosby[uncredited])
10. Broken Arrow (Young)