Subcategories

Buffalo Springfield - Last Time Around (1968)

Posted By: Thranduil
Buffalo Springfield - Last Time Around (1968)

Buffalo Springfield - Last Time Around (1968)
FLAC Lossless, Cue, EAC Log File | Playtime: 00:34:17 | 204 MB
Genre: Folk Rock | Label: East/West Records | Release Date: 1968

One of America's seminal 1960s rock bands, Buffalo Springfield's brief career yielded just three studio albums before its various members splintered into a variety of successful solo career and new group endeavors (including Crosby, Stills, Nash & Young, Poco, and Loggins & Messina). In fact, one of its chief architects bolted before this, their last album, was even completed. Fortunately for both the band and their fans, Neil Young left behind a pair of pop gems–the band showcase "On the Way Home" and the country-tinged "I Am a Child." Stephen Stills largely picked up the slack in Young's absence, penning a slate of tunes as ambitious as they were eclectic (his "Questions" here eventually evolving into CSNY's "Carry On"), while Richie Furay weighs in with three tunes, including the clear Poco precursor "Kind Woman." A bit more pop-oriented than its predecessor, the often haunting Buffalo Springfield Again, but nearly as memorable. –Jerry McCulley
Exact Audio Copy V0.99 prebeta 5 from 4. May 2009

EAC extraction logfile from 17. June 2009, 13:24

Buffalo Springfield / Last Time Around

Used drive : TSSTcorpCDDVDW SH-S202J Adapter: 4 ID: 0

Read mode : Secure
Utilize accurate stream : Yes
Defeat audio cache : No
Make use of C2 pointers : No

Read offset correction : 6
Overread into Lead-In and Lead-Out : No
Fill up missing offset samples with silence : Yes
Delete leading and trailing silent blocks : No
Null samples used in CRC calculations : Yes
Used interface : Native Win32 interface for Win NT & 2000
Gap handling : Appended to previous track

Used output format : User Defined Encoder
Selected bitrate : 320 kBit/s
Quality : High
Add ID3 tag : No
Command line compressor : C:\Program Files (x86)\Exact Audio Copy\Flac\flac.exe
Additional command line options : -V -8 -T "artist=%a" -T "title=%t" -T "album=%g" -T "date=%y" -T "tracknumber=%n" -T "genre=%m" %s


TOC of the extracted CD

Track | Start | Length | Start sector | End sector
––––––––––––––––––––––––––––-
1 | 0:00.00 | 2:33.07 | 0 | 11481
2 | 2:33.07 | 2:09.38 | 11482 | 21194
3 | 4:42.45 | 2:27.32 | 21195 | 32251
4 | 7:10.02 | 2:57.15 | 32252 | 45541
5 | 10:07.17 | 2:41.70 | 45542 | 57686
6 | 12:49.12 | 3:44.53 | 57687 | 74539
7 | 16:33.65 | 3:50.05 | 74540 | 91794
8 | 20:23.70 | 2:58.50 | 91795 | 105194
9 | 23:22.45 | 2:28.12 | 105195 | 116306
10 | 25:50.57 | 2:08.15 | 116307 | 125921
11 | 27:58.72 | 2:05.35 | 125922 | 135331
12 | 30:04.32 | 4:13.13 | 135332 | 154319


Track 1

Filename C:\EACrips\Buffalo Springfield - 1968 - Last Time Around\01 - On The Way Home.wav

Pre-gap length 0:00:02.00

Peak level 96.4 %
Track quality 99.9 %
Test CRC C866668F
Copy CRC C866668F
Accurately ripped (confidence 2) [2D4970C0]
Copy OK

Track 2

Filename C:\EACrips\Buffalo Springfield - 1968 - Last Time Around\02 - It's So Hard To Wait.wav

Pre-gap length 0:00:05.02

Peak level 96.0 %
Track quality 99.9 %
Test CRC A3ECA988
Copy CRC A3ECA988
Accurately ripped (confidence 2) [B9C94873]
Copy OK

Track 3

Filename C:\EACrips\Buffalo Springfield - 1968 - Last Time Around\03 - Pretty Girl Why.wav

Pre-gap length 0:00:03.64

Peak level 98.1 %
Track quality 99.9 %
Test CRC D824C7D2
Copy CRC D824C7D2
Accurately ripped (confidence 2) [D669BBE0]
Copy OK

Track 4

Filename C:\EACrips\Buffalo Springfield - 1968 - Last Time Around\04 - Four Days Gone.wav

Pre-gap length 0:00:02.42

Peak level 97.9 %
Track quality 99.9 %
Test CRC 3E90959F
Copy CRC 3E90959F
Accurately ripped (confidence 2) [E70A36EE]
Copy OK

Track 5

Filename C:\EACrips\Buffalo Springfield - 1968 - Last Time Around\05 - Carefree Country Day.wav

Pre-gap length 0:00:02.82

Peak level 92.3 %
Track quality 99.9 %
Test CRC F32407E7
Copy CRC F32407E7
Accurately ripped (confidence 2) [0B306B75]
Copy OK

Track 6

Filename C:\EACrips\Buffalo Springfield - 1968 - Last Time Around\06 - Special Care.wav

Pre-gap length 0:00:03.73

Peak level 97.4 %
Track quality 99.9 %
Test CRC B3C4AF79
Copy CRC B3C4AF79
Accurately ripped (confidence 2) [0E34B336]
Copy OK

Track 7

Filename C:\EACrips\Buffalo Springfield - 1968 - Last Time Around\07 - The Hour Of Not Quite Rain.wav

Pre-gap length 0:00:12.26

Peak level 97.3 %
Track quality 100.0 %
Test CRC 431E5B27
Copy CRC 431E5B27
Accurately ripped (confidence 2) [8D3141AD]
Copy OK

Track 8

Filename C:\EACrips\Buffalo Springfield - 1968 - Last Time Around\08 - Questions.wav

Pre-gap length 0:00:05.13

Peak level 97.6 %
Track quality 99.9 %
Test CRC 8601F7E5
Copy CRC 8601F7E5
Accurately ripped (confidence 2) [E38F1776]
Copy OK

Track 9

Filename C:\EACrips\Buffalo Springfield - 1968 - Last Time Around\09 - I Am A Child.wav

Pre-gap length 0:00:04.00

Peak level 96.9 %
Track quality 99.9 %
Test CRC 50732D95
Copy CRC 50732D95
Accurately ripped (confidence 2) [A050C06E]
Copy OK

Track 10

Filename C:\EACrips\Buffalo Springfield - 1968 - Last Time Around\10 - Merry-Go-Round.wav

Pre-gap length 0:00:09.16

Peak level 97.2 %
Track quality 99.9 %
Test CRC AA96B551
Copy CRC AA96B551
Accurately ripped (confidence 2) [BBCD9C8F]
Copy OK

Track 11

Filename C:\EACrips\Buffalo Springfield - 1968 - Last Time Around\11 - Uno Mundo.wav

Pre-gap length 0:00:05.36

Peak level 98.0 %
Track quality 100.0 %
Test CRC 44B6ABF4
Copy CRC 44B6ABF4
Accurately ripped (confidence 2) [60DF2A30]
Copy OK

Track 12

Filename C:\EACrips\Buffalo Springfield - 1968 - Last Time Around\12 - Kind Woman.wav

Pre-gap length 0:00:04.33

Peak level 97.6 %
Track quality 99.9 %
Test CRC 033B3FA1
Copy CRC 033B3FA1
Accurately ripped (confidence 2) [6CA2B084]
Copy OK


All tracks accurately ripped

No errors occurred

End of status report


Tracklist
1. On the Way Home
2. It's So Hard to Wait
3. Pretty Girl Why
4. Four Days Gone
5. Carefree Country Day
6. Special Care
7. In the Hour of Not Quite Rain
8. Questions
9. I Am a Child
10. Merry-Go-Round
11. Uno Mundo
12. Kind Woman