Tags
Language
Tags

Gary Burton & Chick Corea - Crystal Silence, The ECM Recordings 1972-79 (2009) {4CD Box Set, ECM 2036~39}

Posted By: ruskaval
Gary Burton & Chick Corea - Crystal Silence, The ECM Recordings 1972-79 (2009) {4CD Box Set, ECM 2036~39}

Gary Burton & Chick Corea - Crystal Silence, The ECM Recordings 1972-79 (2009) {4CD Box Set, ECM 2036~39}
EAC rip (secure mode) | FLAC (tracks)+CUE+LOG -> 844 Mb | MP3 @320 -> 428 Mb
Full Artwork @ 300 dpi (png) -> 57 Mb | 5% repair rar
© 1972-79, 2009 ECM Records | ECM 2036~39
Jazz / Post Bop / Piano / Vibraphone

Specially-priced 4-CD set reprising the history-making recordings Chick Corea and Gary Burton made for ECM in the 70s. The duo was a seldom-tested format in jazz when the musicians - at the instigation of producer Manfred Eicher - came together for Crystal Silence, but its luminous music proved a resounding success. Both Duet and the Zurich recordings won Grammy awards, and Corea/Burton have continued to make music together for 35 years! This box shows how the story began. Two live selections I'm Your Pal/Hullo, Bolinas and Love Castle appear on CD for the first time in this collection. The booklet includes liner notes by acclaimed Swiss journalist Peter Ruedi and writer Steve Lake, and many archival photos.
Chick Corea and Gary Burton's piano and vibes duet playing has been one of the most productive and longlasting partnerships in jazz. Early on, in 1973, it produced the emblematic 'Crystal Silence', one of ECM's signature albums.

The paired down setting - the absence of bass, drums or any other instrument - focuses the music on the interplay between these two masters, making good on Pat Metheny's observation that this is 'one of the best bands in the world.'

Brought together in this four CD set are three albums - 'Crystal Silence' (1973), 'Duet'(1979) the live album 'Zurich, October 28, 1979' (1980). The live album, available, if at all, only in truncated form for a number of years, has been restored to its original length, making the collection a definitive reprise of the great duo's recorded work with ECM.

The main composer is Chick Corea, whose Bartok-tinged and often latin-enlivened pieces sparkle. All other tracks, with the exception of "Feelings and Things" (Michael Gibbs), are composed by bassist Steve Swallow, a long time member of the Gary Burton group.

Absorbing jazz of the highest quality, alternately encompassing deep tranquility and uninhibited exuberance.
Gary Burton & Chick Corea - Crystal Silence, The ECM Recordings 1972-79 (2009) {4CD Box Set, ECM 2036~39}


Personnel
Chick Corea: piano
Gary Burton: vibraphone

tracklist:

CD1 - Crystal Silence

1. Senor Mouse
2. Arise, Her Eyes
3. I'm Your Pal
4. Desert Air
5. Crystal Silence
6. Falling Grace
7. Feelings And Things
8. Children's Song
9. What Game Shall We Play Today

CD2 - Duet
1. Duet Suite
2. Children's Song: No.15
3. Children's Song: No.2
4. Children's Song: No.5
5. Children's Song: No.6
6. Radio
7. Song To Gayle
8. Never
9. La Fiesta

CD3 - In Concert (1)
1. Senor Mouse
2. Bud Powell
3. Crystal Silence
4. Tweak

CD4 - In Concert (2)
1. I'm Your Pal / Hullo, Bolinas
2. Love Castle
3. Falling Grace
4. Mirror, Mirror
5. Song To Gayle
6. Endless Trouble, Endless Pleasure

Exact Audio Copy V0.99 prebeta 5 from 4. May 2009

EAC extraction logfile from 26. April 2010, 16:56

Gary Burton & Chick Corea / Crystal Silence - The ECM Recordings 1972-1979 [CD1]

Used drive : Optiarc DVD RW AD-7170S Adapter: 4 ID: 0

Read mode : Secure
Utilize accurate stream : Yes
Defeat audio cache : Yes
Make use of C2 pointers : No

Read offset correction : 48
Overread into Lead-In and Lead-Out : No
Fill up missing offset samples with silence : Yes
Delete leading and trailing silent blocks : No
Null samples used in CRC calculations : Yes
Used interface : Native Win32 interface for Win NT & 2000
Gap handling : Appended to previous track

Used output format : User Defined Encoder
Selected bitrate : 128 kBit/s
Quality : High
Add ID3 tag : No
Command line compressor : C:\Program Files (x86)\FLAC\flac.exe
Additional command line options : -8 -V -T "ARTIST=%a" -T "TITLE=%t" -T "ALBUM=%g" -T "DATE=%y" -T "TRACKNUMBER=%n" -T "TOTALTRACKS=%x" -T "GENRE=%m" -T "ALBUM ARTIST=%v" -T "ALBUMARTIST=%v" -T "COMMENT=EAC V0.99 prebeta 5, Secure Mode, Test & Copy, Accurat


TOC of the extracted CD

Track | Start | Length | Start sector | End sector
––––––––––––––––––––––––––––-
1 | 0:00.32 | 6:21.40 | 32 | 28646
2 | 6:21.72 | 5:08.63 | 28647 | 51809
3 | 11:30.60 | 4:02.47 | 51810 | 70006
4 | 15:33.32 | 6:26.53 | 70007 | 99009
5 | 22:00.10 | 9:04.70 | 99010 | 139879
6 | 31:05.05 | 2:42.67 | 139880 | 152096
7 | 33:47.72 | 4:46.08 | 152097 | 173554
8 | 38:34.05 | 2:12.15 | 173555 | 183469
9 | 40:46.20 | 3:42.42 | 183470 | 200161


Track 1

Filename C:\EACrips\01 - Senor Mouse.wav

Pre-gap length 0:00:02.42

Peak level 68.9 %
Track quality 99.9 %
Test CRC 438D44D4
Copy CRC 438D44D4
Accurately ripped (confidence 4) [6CCBD1E4]
Copy OK

Track 2

Filename C:\EACrips\02 - Arise, Her Eyes.wav

Pre-gap length 0:00:03.82

Peak level 60.6 %
Track quality 99.9 %
Test CRC AF621C95
Copy CRC AF621C95
Accurately ripped (confidence 3) [DB5F7908]
Copy OK

Track 3

Filename C:\EACrips\03 - I'm Your Pal.wav

Pre-gap length 0:00:04.00

Peak level 71.8 %
Track quality 100.0 %
Test CRC A089245C
Copy CRC A089245C
Accurately ripped (confidence 3) [729A91A6]
Copy OK

Track 4

Filename C:\EACrips\04 - Desert Air.wav

Pre-gap length 0:00:03.82

Peak level 75.6 %
Track quality 100.0 %
Test CRC 7EEEF248
Copy CRC 7EEEF248
Accurately ripped (confidence 3) [F4B1970E]
Copy OK

Track 5

Filename C:\EACrips\05 - Crystal Silence.wav

Pre-gap length 0:00:04.00

Peak level 67.7 %
Track quality 100.0 %
Test CRC D061688C
Copy CRC D061688C
Accurately ripped (confidence 3) [313CEE38]
Copy OK

Track 6

Filename C:\EACrips\06 - Falling Grace.wav

Pre-gap length 0:00:03.84

Peak level 67.3 %
Track quality 100.0 %
Test CRC F1E1EEC5
Copy CRC F1E1EEC5
Accurately ripped (confidence 3) [A0656085]
Copy OK

Track 7

Filename C:\EACrips\07 - Feelings and Things.wav

Pre-gap length 0:00:04.00

Peak level 55.3 %
Track quality 100.0 %
Test CRC AD9FC383
Copy CRC AD9FC383
Accurately ripped (confidence 3) [2AA21132]
Copy OK

Track 8

Filename C:\EACrips\08 - Children's Song.wav

Pre-gap length 0:00:04.04

Peak level 41.5 %
Track quality 100.0 %
Test CRC 60909444
Copy CRC 60909444
Accurately ripped (confidence 4) [A61E7559]
Copy OK

Track 9

Filename C:\EACrips\09 - What Game Shall We Play Today.wav

Pre-gap length 0:00:04.30

Peak level 65.8 %
Track quality 100.0 %
Test CRC 61099212
Copy CRC 61099212
Accurately ripped (confidence 3) [8C3D8844]
Copy OK


All tracks accurately ripped

No errors occurred

End of status report

Exact Audio Copy V0.99 prebeta 5 from 4. May 2009

EAC extraction logfile from 26. April 2010, 17:26

Gary Burton & Chick Corea / Crystal Silence - The ECM Recordings 1972-1979 [CD2]

Used drive : Optiarc DVD RW AD-7170S Adapter: 4 ID: 0

Read mode : Secure
Utilize accurate stream : Yes
Defeat audio cache : Yes
Make use of C2 pointers : No

Read offset correction : 48
Overread into Lead-In and Lead-Out : No
Fill up missing offset samples with silence : Yes
Delete leading and trailing silent blocks : No
Null samples used in CRC calculations : Yes
Used interface : Native Win32 interface for Win NT & 2000
Gap handling : Appended to previous track

Used output format : User Defined Encoder
Selected bitrate : 128 kBit/s
Quality : High
Add ID3 tag : No
Command line compressor : C:\Program Files (x86)\FLAC\flac.exe
Additional command line options : -8 -V -T "ARTIST=%a" -T "TITLE=%t" -T "ALBUM=%g" -T "DATE=%y" -T "TRACKNUMBER=%n" -T "TOTALTRACKS=%x" -T "GENRE=%m" -T "ALBUM ARTIST=%v" -T "ALBUMARTIST=%v" -T "COMMENT=EAC V0.99 prebeta 5, Secure Mode, Test & Copy, Accurat


TOC of the extracted CD

Track | Start | Length | Start sector | End sector
––––––––––––––––––––––––––––-
1 | 0:00.00 | 15:46.39 | 0 | 70988
2 | 15:46.39 | 1:15.26 | 70989 | 76639
3 | 17:01.65 | 0:57.03 | 76640 | 80917
4 | 17:58.68 | 1:13.42 | 80918 | 86434
5 | 19:12.35 | 2:13.73 | 86435 | 96482
6 | 21:26.33 | 5:15.34 | 96483 | 120141
7 | 26:41.67 | 7:13.34 | 120142 | 152650
8 | 33:55.26 | 7:36.20 | 152651 | 186870
9 | 41:31.46 | 10:18.12 | 186871 | 233232


Track 1

Filename C:\EACrips\01 - Duet Suite.wav

Pre-gap length 0:00:02.00

Peak level 94.3 %
Track quality 100.0 %
Test CRC 7D5F9825
Copy CRC 7D5F9825
Accurately ripped (confidence 3) [35BBA994]
Copy OK

Track 2

Filename C:\EACrips\02 - Children's Song 15.wav

Pre-gap length 0:00:03.62

Peak level 35.7 %
Track quality 100.0 %
Test CRC 8F00AE57
Copy CRC 8F00AE57
Accurately ripped (confidence 3) [6948E4E3]
Copy OK

Track 3

Filename C:\EACrips\03 - Children's Song 2.wav

Pre-gap length 0:00:01.12

Peak level 61.5 %
Track quality 100.0 %
Test CRC 99735520
Copy CRC 99735520
Accurately ripped (confidence 3) [310A78CA]
Copy OK

Track 4

Filename C:\EACrips\04 - Children's Song 5.wav

Pre-gap length 0:00:02.21

Peak level 60.0 %
Track quality 100.0 %
Test CRC C0340296
Copy CRC C0340296
Accurately ripped (confidence 3) [3DB30C3B]
Copy OK

Track 5

Filename C:\EACrips\05 - Children's Song 6.wav

Pre-gap length 0:00:02.26

Peak level 77.8 %
Track quality 100.0 %
Test CRC D0121436
Copy CRC D0121436
Accurately ripped (confidence 3) [BBD0817B]
Copy OK

Track 6

Filename C:\EACrips\06 - Radio.wav

Pre-gap length 0:00:03.33

Peak level 75.9 %
Track quality 99.9 %
Test CRC 4E2A1E92
Copy CRC 4E2A1E92
Accurately ripped (confidence 3) [DAD8F5F2]
Copy OK

Track 7

Filename C:\EACrips\07 - Song to Gayle.wav

Pre-gap length 0:00:04.68

Peak level 78.2 %
Track quality 100.0 %
Test CRC D67A91D7
Copy CRC D67A91D7
Accurately ripped (confidence 3) [1EC9523D]
Copy OK

Track 8

Filename C:\EACrips\08 - Never.wav

Pre-gap length 0:00:03.62

Peak level 77.8 %
Track quality 99.9 %
Test CRC 069A0509
Copy CRC 069A0509
Accurately ripped (confidence 3) [3A06CD6D]
Copy OK

Track 9

Filename C:\EACrips\09 - La Fiesta.wav

Pre-gap length 0:00:02.40

Peak level 94.3 %
Track quality 100.0 %
Test CRC 71832D33
Copy CRC 71832D33
Accurately ripped (confidence 3) [65F8DBF1]
Copy OK


All tracks accurately ripped

No errors occurred

End of status report

Exact Audio Copy V0.99 prebeta 5 from 4. May 2009

EAC extraction logfile from 26. April 2010, 17:47

Gary Burton & Chick Corea / Crystal Silence - The ECM Recordings 1972-1979 [CD3]

Used drive : Optiarc DVD RW AD-7170S Adapter: 4 ID: 0

Read mode : Secure
Utilize accurate stream : Yes
Defeat audio cache : Yes
Make use of C2 pointers : No

Read offset correction : 48
Overread into Lead-In and Lead-Out : No
Fill up missing offset samples with silence : Yes
Delete leading and trailing silent blocks : No
Null samples used in CRC calculations : Yes
Used interface : Native Win32 interface for Win NT & 2000
Gap handling : Appended to previous track

Used output format : User Defined Encoder
Selected bitrate : 128 kBit/s
Quality : High
Add ID3 tag : No
Command line compressor : C:\Program Files (x86)\FLAC\flac.exe
Additional command line options : -8 -V -T "ARTIST=%a" -T "TITLE=%t" -T "ALBUM=%g" -T "DATE=%y" -T "TRACKNUMBER=%n" -T "TOTALTRACKS=%x" -T "GENRE=%m" -T "ALBUM ARTIST=%v" -T "ALBUMARTIST=%v" -T "COMMENT=EAC V0.99 prebeta 5, Secure Mode, Test & Copy, Accurat


TOC of the extracted CD

Track | Start | Length | Start sector | End sector
––––––––––––––––––––––––––––-
1 | 0:00.00 | 10:21.25 | 0 | 46599
2 | 10:21.25 | 8:41.65 | 46600 | 85739
3 | 19:03.15 | 12:09.73 | 85740 | 140487
4 | 31:13.13 | 6:09.70 | 140488 | 168232


Track 1

Filename C:\EACrips\01 - Senor Mouse.wav

Pre-gap length 0:00:02.00

Peak level 78.5 %
Track quality 100.0 %
Test CRC 957681F3
Copy CRC 957681F3
Accurately ripped (confidence 3) [09D5C53F]
Copy OK

Track 2

Filename C:\EACrips\02 - Bud Powell.wav

Peak level 80.4 %
Track quality 100.0 %
Test CRC CBC2FC93
Copy CRC CBC2FC93
Accurately ripped (confidence 3) [54CF2342]
Copy OK

Track 3

Filename C:\EACrips\03 - Crystal SIlence.wav

Pre-gap length 0:00:01.04

Peak level 79.5 %
Track quality 100.0 %
Test CRC 6F28A4A2
Copy CRC 6F28A4A2
Accurately ripped (confidence 3) [64A71264]
Copy OK

Track 4

Filename C:\EACrips\04 - Tweak.wav

Peak level 83.7 %
Track quality 99.9 %
Test CRC AD22203E
Copy CRC AD22203E
Accurately ripped (confidence 3) [22D41F29]
Copy OK


All tracks accurately ripped

No errors occurred

End of status report

Exact Audio Copy V0.99 prebeta 5 from 4. May 2009

EAC extraction logfile from 26. April 2010, 18:05

Gary Burton & Chick Corea / Crystal Silence - The ECM Recordings 1972-1979 [CD4]

Used drive : Optiarc DVD RW AD-7170S Adapter: 4 ID: 0

Read mode : Secure
Utilize accurate stream : Yes
Defeat audio cache : Yes
Make use of C2 pointers : No

Read offset correction : 48
Overread into Lead-In and Lead-Out : No
Fill up missing offset samples with silence : Yes
Delete leading and trailing silent blocks : No
Null samples used in CRC calculations : Yes
Used interface : Native Win32 interface for Win NT & 2000
Gap handling : Appended to previous track

Used output format : User Defined Encoder
Selected bitrate : 128 kBit/s
Quality : High
Add ID3 tag : No
Command line compressor : C:\Program Files (x86)\FLAC\flac.exe
Additional command line options : -8 -V -T "ARTIST=%a" -T "TITLE=%t" -T "ALBUM=%g" -T "DATE=%y" -T "TRACKNUMBER=%n" -T "TOTALTRACKS=%x" -T "GENRE=%m" -T "ALBUM ARTIST=%v" -T "ALBUMARTIST=%v" -T "COMMENT=EAC V0.99 prebeta 5, Secure Mode, Test & Copy, Accurat


TOC of the extracted CD

Track | Start | Length | Start sector | End sector
––––––––––––––––––––––––––––-
1 | 0:00.00 | 7:19.14 | 0 | 32938
2 | 7:19.14 | 14:51.57 | 32939 | 99820
3 | 22:10.71 | 5:22.45 | 99821 | 124015
4 | 27:33.41 | 5:47.02 | 124016 | 150042
5 | 33:20.43 | 7:16.44 | 150043 | 182786
6 | 40:37.12 | 5:17.62 | 182787 | 206623


Track 1

Filename C:\EACrips\01 - I'm Your Pal - Hullo, Bolinas.wav

Pre-gap length 0:00:02.00

Peak level 69.6 %
Track quality 100.0 %
Test CRC 45D79754
Copy CRC 45D79754
Accurately ripped (confidence 3) [1E57A3C5]
Copy OK

Track 2

Filename C:\EACrips\02 - Love Castle.wav

Peak level 85.9 %
Track quality 100.0 %
Test CRC 147759BB
Copy CRC 147759BB
Accurately ripped (confidence 3) [F175EA05]
Copy OK

Track 3

Filename C:\EACrips\03 - Falling Grace.wav

Pre-gap length 0:00:01.10

Peak level 87.8 %
Track quality 100.0 %
Test CRC 1DE43C31
Copy CRC 1DE43C31
Accurately ripped (confidence 3) [6F8FE3DB]
Copy OK

Track 4

Filename C:\EACrips\04 - Mirror, Mirror.wav

Peak level 83.0 %
Track quality 99.9 %
Test CRC 1AEBF465
Copy CRC 1AEBF465
Accurately ripped (confidence 3) [BA482A6B]
Copy OK

Track 5

Filename C:\EACrips\05 - Song To Gayle.wav

Peak level 84.4 %
Track quality 100.0 %
Test CRC 3058B63F
Copy CRC 3058B63F
Accurately ripped (confidence 3) [5B0893FD]
Copy OK

Track 6

Filename C:\EACrips\06 - Endless Trouble, Endless Pleasure.wav

Peak level 72.8 %
Track quality 100.0 %
Test CRC 9E7BC298
Copy CRC 9E7BC298
Accurately ripped (confidence 3) [1EF03CAD]
Copy OK


All tracks accurately ripped

No errors occurred

End of status report


Gary Burton & Chick Corea - Crystal Silence, The ECM Recordings 1972-79 (2009) {4CD Box Set, ECM 2036~39}

Gary Burton & Chick Corea - Crystal Silence, The ECM Recordings 1972-79 (2009) {4CD Box Set, ECM 2036~39}

Gary Burton & Chick Corea - Crystal Silence, The ECM Recordings 1972-79 (2009) {4CD Box Set, ECM 2036~39}



===