Tags
Language
Tags
November 2022
Su Mo Tu We Th Fr Sa
30 31 1 2 3 4 5
6 7 8 9 10 11 12
13 14 15 16 17 18 19
20 21 22 23 24 25 26
27 28 29 30 1 2 3

The Cannonball Adderley Sextet - In New York (1962) {2008 Riverside} [Keepnews Collection Complete Series] (Item #18of27)

Posted By: ruskaval
The Cannonball Adderley Sextet - In New York (1962) {2008 Riverside} [Keepnews Collection Complete Series] (Item #18of27)

The Cannonball Adderley Sextet - In New York (1962) {2008 Riverside} [Keepnews Collection Complete Series] (Item #18of27)
EAC rip (secure mode) | FLAC (tracks)+CUE+LOG -> 295 Mb | MP3 @320 -> 106 Mb
Full Artwork @ 600 dpi (png) -> 258 Mb | 5% repair rar | 24-bit remastering
© 1962, 2008 Concord / Riverside | 0888072305038
Jazz / Hard Bop / Soul Jazz / Saxophone

Orrin Keepnews' commentary (from his new liner notes): “Just a few weeks after Yusef [Lateef] was added, a booking at the Village Vanguard was used to bring about the recording that is reissued here. Considering how long the four original band members had been working together, it is quite amazing how quickly and how well the two newcomers fit in. The only real difference to be noted between this and previous Adderley band albums might be the absence of any newly written material by either of the Adderley brothers. But two of the half-dozen selections are by Lateef and one by Zawinul. The final number, one of Sam Jones’s rare writer credits, was for quite awhile the band’s standard way of closing each set in a club, but the decision here was to give it a rare full-length performance.”
The Cannonball Adderley Sextet - In New York (1962) {2008 Riverside} [Keepnews Collection Complete Series] (Item #18of27)

This is a series of reissues that can be described as largely centered on my incredibly long (even to me) career as a jazz producer, contributing to the careers of some of the most significant jazz performers of our day. The series follows a specific set of ground rules. In each case the original product is preserved-cover art, the notes, and the entire initial recorded content, in the exact original sequence-and it is now presented with the sonic benefits of 24-bit remastering from the original master tapes. Alternate takes or originally unissued numbers, when available, appear as bonus tracks. In some instances I've added to the total lineup a never-used version that may have been recorded forty or more years ago. When that occasionally allows you to hear for the first time a "new" performance by a long-departed artist, be aware that I join you in considering this a truly wonderful addition. Finally, I have written a complete set of new commentaries, digging back into my memories of those often very good old days to tell a few more stories about this remarkable music and its people. On the whole, I am unreasonably and unshakably proud of the results.
The Cannonball Adderley Sextet - In New York (1962) {2008 Riverside} [Keepnews Collection Complete Series] (Item #18of27)


Personnel:
Julian "Cannonball" Adderley - alto saxophone
Nat Adderley - cornet
Yusef Lateef - tenor saxophone, flute, oboe
Joe Zawinul - piano
Sam Jones - bass
Louis Hayes - drums

tracklist:
01 - Introduction by Cannonball
02 - Gemini
03 - Planet Earth
04 - Dizzy's Business
05 - Syn-Anthesia
06 - Scotch and Water
07 - Cannon's Theme

Exact Audio Copy V1.0 beta 4 from 7. December 2014

EAC extraction logfile from 23. April 2015, 21:11

The Cannonball Adderley Sextet / In New York

Used drive : TSSTcorpCDDVDW SE-208DB Adapter: 1 ID: 1

Read mode : Secure
Utilize accurate stream : Yes
Defeat audio cache : Yes
Make use of C2 pointers : No

Read offset correction : 6
Overread into Lead-In and Lead-Out : No
Fill up missing offset samples with silence : Yes
Delete leading and trailing silent blocks : No
Null samples used in CRC calculations : Yes
Used interface : Native Win32 interface for Win NT & 2000
Gap handling : Appended to previous track

Used output format : User Defined Encoder
Selected bitrate : 1024 kBit/s
Quality : High
Add ID3 tag : No
Command line compressor : C:\Program Files (x86)\FLAC Frontend\tools\flac.exe
Additional command line options : -8 -V -T "ARTIST=%artist%" -T "TITLE=%title%" -T "ALBUM=%albumtitle%" -T "DATE=%year%" -T "TRACKNUMBER=%tracknr%" -T "TOTALTRACKS=%numtracks%" -T "GENRE=%genre%" -T "ALBUMARTIST=%albumartist%" -T "ALBUM ARTIST=%albumartist%" -T "COMMENT=EAC Secure Mode, Test & Copy, AccurateRip, FLAC -8" %source%


TOC of the extracted CD

Track | Start | Length | Start sector | End sector
––––––––––––––––––––––––––––-
1 | 0:00.00 | 2:01.14 | 0 | 9088
2 | 2:01.14 | 11:40.63 | 9089 | 61651
3 | 13:42.02 | 7:59.54 | 61652 | 97630
4 | 21:41.56 | 6:59.67 | 97631 | 129122
5 | 28:41.48 | 7:03.34 | 129123 | 160881
6 | 35:45.07 | 5:55.72 | 160882 | 187578
7 | 41:41.04 | 3:17.05 | 187579 | 202358


Track 1

Filename D:\_EAC\The Cannonball Adderley Sextet - In New York (1962) [FLAC] {2008 Riverside Keepnews Collection}\01 - Introduction by Cannonball.wav

Pre-gap length 0:00:02.00

Peak level 72.2 %
Extraction speed 0.7 X
Track quality 99.9 %
Test CRC EF0DA533
Copy CRC EF0DA533
Accurately ripped (confidence 11) [3DF5DFFB] (AR v2)
Copy OK

Track 2

Filename D:\_EAC\The Cannonball Adderley Sextet - In New York (1962) [FLAC] {2008 Riverside Keepnews Collection}\02 - Gemini.wav

Peak level 99.3 %
Extraction speed 1.2 X
Track quality 99.9 %
Test CRC FD774AC1
Copy CRC FD774AC1
Accurately ripped (confidence 12) [1C187A43] (AR v2)
Copy OK

Track 3

Filename D:\_EAC\The Cannonball Adderley Sextet - In New York (1962) [FLAC] {2008 Riverside Keepnews Collection}\03 - Planet Earth.wav

Peak level 98.4 %
Extraction speed 1.3 X
Track quality 99.9 %
Test CRC 1FFBE9E7
Copy CRC 1FFBE9E7
Accurately ripped (confidence 12) [DFF7F89F] (AR v2)
Copy OK

Track 4

Filename D:\_EAC\The Cannonball Adderley Sextet - In New York (1962) [FLAC] {2008 Riverside Keepnews Collection}\04 - Dizzy's Business.wav

Peak level 97.7 %
Extraction speed 1.6 X
Track quality 100.0 %
Test CRC 6B701FEF
Copy CRC 6B701FEF
Accurately ripped (confidence 12) [4BBAFB15] (AR v2)
Copy OK

Track 5

Filename D:\_EAC\The Cannonball Adderley Sextet - In New York (1962) [FLAC] {2008 Riverside Keepnews Collection}\05 - Syn-Anthesia.wav

Peak level 96.3 %
Extraction speed 1.7 X
Track quality 100.0 %
Test CRC 21BBD0D1
Copy CRC 21BBD0D1
Accurately ripped (confidence 12) [090B3962] (AR v2)
Copy OK

Track 6

Filename D:\_EAC\The Cannonball Adderley Sextet - In New York (1962) [FLAC] {2008 Riverside Keepnews Collection}\06 - Scotch and Water.wav

Peak level 97.2 %
Extraction speed 1.7 X
Track quality 100.0 %
Test CRC C6DF519D
Copy CRC C6DF519D
Accurately ripped (confidence 12) [417EF44C] (AR v2)
Copy OK

Track 7

Filename D:\_EAC\The Cannonball Adderley Sextet - In New York (1962) [FLAC] {2008 Riverside Keepnews Collection}\07 - Cannon's Theme.wav

Peak level 97.6 %
Extraction speed 1.5 X
Track quality 100.0 %
Test CRC 39622441
Copy CRC 39622441
Accurately ripped (confidence 12) [A5841B32] (AR v2)
Copy OK


All tracks accurately ripped

No errors occurred

End of status report

==== Log checksum 822D1033592D73077FFCFAE03B88AD273BD739E25147924C939A042A042EB8B3 ====


The Cannonball Adderley Sextet - In New York (1962) {2008 Riverside} [Keepnews Collection Complete Series] (Item #18of27)

The Cannonball Adderley Sextet - In New York (1962) {2008 Riverside} [Keepnews Collection Complete Series] (Item #18of27)


see more Keepnews Collection Complete Series…

NEXT -> more Keepnews Collection Complete Series on the way…


===