Tags
Language
Tags

Cannonball Adderley - Love, Sex And The Zodiac (1974) {Fantasy--BGP Records CDBGPM235 rel 2011}

Posted By: ruskaval
Cannonball Adderley - Love, Sex And The Zodiac (1974) {Fantasy--BGP Records CDBGPM235 rel 2011}

Cannonball Adderley - Love, Sex And The Zodiac (1974) {Fantasy–BGP Records CDBGPM235 rel 2011}
EAC rip (secure mode) | FLAC (tracks)+CUE+LOG -> 217 Mb | MP3 @320 -> 92 Mb
Full Artwork @ 300 dpi (jpg) -> 16 Mb | 5% repair rar
© 1974, 2011 BGP Records | CDBGPM 235
Jazz / Soul Jazz / Hard Bop / Jazz Funk / Saxophone

Jazz saxophone great Cannonball Adderley is not usually thought of as a novelty artist, or even one who made embarrassing sellout moves to the pop market, regardless of his success with soul-jazz and his hit 1967 single "Mercy Mercy Mercy." This 1974 album, however, can scarcely be thought of as anything but an embarrassing novelty, and one that will have little appeal to fans of the records for which Adderley is most famous. The real artist on this album is not so much Adderley as Rick Holmes (jazz DJ on Los Angeles radio station KBCA), who wrote and narrated the voice-overs to which Adderley and other musicians supplied a musical backdrop.

In common with numerous other records around the Age of Aquarius, it has one track for each astrological sign. In smooth hip period DJ patter, Holmes declaims homilies as to how those born under each sign integrate both sex and love as part of their being. A cast of musicians, including Cannonball, his brother Nat Adderley on cornet, and George Duke on electric piano, backs Holmes' unctuous musings with sketchy fusion instrumentals, co-produced by David Axelrod and Cannonball. The end result is too frivolous to find favor with those who take astrology seriously, yet too serious-minded to be nearly as funny as intentional parodies of self-helpish narratives (like National Lampoon's "Deteriorata"). Maybe it was hoped that some swinging bachelors would use it as seduction music, but if so, their targets were more apt to sink into derisive giggles than submit to conquest. Good for a laugh or two for those with an appetite for tacky music in the incredibly strange music genre, it bears little relation to either the straight-ahead jazz or more pop-oriented jazz for which Cannonball Adderley is most esteemed.
Cannonball Adderley - Love, Sex And The Zodiac (1974) {Fantasy--BGP Records CDBGPM235 rel 2011}


Musicians
Saxophone Cannonball Adderley
Narration Rick Holmes
Piano Jimmy Jones
Electric Piano Hal Galper
Drums Roy McCurdy
Cornet Nat Adderley
Clavinet, Electric Piano, Synthesizer George Duke
Bass Walter Booker

Tracks:

01 Introduction 01:00
02 Aries: Damn Right 03:22
03 Taurus: Wampus Cat 02:18
04 Gemini: Ecstasy 04:10
05 Cancer: All Sides 03:58
06 Leo: Rosebud 04:00
07 Virgo: For Pam 03:12
08 Libra: Patricia 03:04
09 Scorpio: Back "A" Town 01:35
10 Sagittarius: West Texas 02:29
11 Capricorn: The Gentle 02:58
12 Aquarius: Humanity Plus 02:55
13 Pisces: Allison's Trip 03:51

Exact Audio Copy V1.0 beta 3 from 29. August 2011

EAC extraction logfile from 26. May 2014, 18:08

Cannonball Adderley / Love, Sex & The Zodiac

Used drive : SONY DVD RW DRU-810A Adapter: 1 ID: 0

Read mode : Secure
Utilize accurate stream : Yes
Defeat audio cache : Yes
Make use of C2 pointers : No

Read offset correction : 618
Overread into Lead-In and Lead-Out : No
Fill up missing offset samples with silence : Yes
Delete leading and trailing silent blocks : No
Null samples used in CRC calculations : Yes
Used interface : Native Win32 interface for Win NT & 2000
Gap handling : Appended to previous track

Used output format : User Defined Encoder
Selected bitrate : 128 kBit/s
Quality : High
Add ID3 tag : No
Command line compressor : C:\Program Files (x86)\Exact Audio Copy\Flac\flac.exe
Additional command line options : -8 -V -T "ARTIST=%artist%" -T "TITLE=%title%" -T "ALBUM=%albumtitle%" -T "DATE=%year%" -T "TRACKNUMBER=%tracknr%" -T "TOTALTRACKS=%numtracks%" -T "GENRE=%genre%" -T "ALBUMARTIST=%albumartist%" -T "ALBUM ARTIST=%albumartist%" -T "COMMENT=EAC Secure Mode, Test & Copy, AccurateRip, FLAC -8" %source%


TOC of the extracted CD

Track | Start | Length | Start sector | End sector
––––––––––––––––––––––––––––-
1 | 0:00.00 | 0:59.52 | 0 | 4476
2 | 0:59.52 | 3:22.16 | 4477 | 19642
3 | 4:21.68 | 2:17.62 | 19643 | 29979
4 | 6:39.55 | 4:10.03 | 29980 | 48732
5 | 10:49.58 | 3:57.47 | 48733 | 66554
6 | 14:47.30 | 4:00.15 | 66555 | 84569
7 | 18:47.45 | 3:11.56 | 84570 | 98950
8 | 21:59.26 | 3:03.48 | 98951 | 112723
9 | 25:02.74 | 1:35.05 | 112724 | 119853
10 | 26:38.04 | 2:28.67 | 119854 | 131020
11 | 29:06.71 | 2:57.40 | 131021 | 144335
12 | 32:04.36 | 2:55.25 | 144336 | 157485
13 | 34:59.61 | 3:51.51 | 157486 | 174861


Track 1

Filename F:\New Rips\Cannonball Adderley - Love Sex and The Zodiac (1974) [FLAC]\01 - Introduction.wav

Pre-gap length 0:00:02.00

Peak level 96.6 %
Extraction speed 2.9 X
Track quality 100.0 %
Test CRC 0E577771
Copy CRC 0E577771
Accurately ripped (confidence 6) [284A6489] (AR v2)
Copy OK

Track 2

Filename F:\New Rips\Cannonball Adderley - Love Sex and The Zodiac (1974) [FLAC]\02 - Aries Damn Right.wav

Pre-gap length 0:00:01.73

Peak level 96.6 %
Extraction speed 4.2 X
Track quality 100.0 %
Test CRC FF6433AD
Copy CRC FF6433AD
Accurately ripped (confidence 6) [DF62CB90] (AR v2)
Copy OK

Track 3

Filename F:\New Rips\Cannonball Adderley - Love Sex and The Zodiac (1974) [FLAC]\03 - Taurus Wampus Cat.wav

Pre-gap length 0:00:01.73

Peak level 96.6 %
Extraction speed 4.3 X
Track quality 100.0 %
Test CRC F261C8ED
Copy CRC F261C8ED
Accurately ripped (confidence 6) [72B2EB9A] (AR v2)
Copy OK

Track 4

Filename F:\New Rips\Cannonball Adderley - Love Sex and The Zodiac (1974) [FLAC]\04 - Gemini Ecstacy.wav

Pre-gap length 0:00:01.73

Peak level 96.6 %
Extraction speed 5.1 X
Track quality 100.0 %
Test CRC 185B6CB1
Copy CRC 185B6CB1
Accurately ripped (confidence 6) [052ABE34] (AR v2)
Copy OK

Track 5

Filename F:\New Rips\Cannonball Adderley - Love Sex and The Zodiac (1974) [FLAC]\05 - Cancer All Sides.wav

Pre-gap length 0:00:01.73

Peak level 96.6 %
Extraction speed 5.5 X
Track quality 100.0 %
Test CRC 0EC485C0
Copy CRC 0EC485C0
Accurately ripped (confidence 6) [11EA64D8] (AR v2)
Copy OK

Track 6

Filename F:\New Rips\Cannonball Adderley - Love Sex and The Zodiac (1974) [FLAC]\06 - Leo Rosebud.wav

Pre-gap length 0:00:01.73

Peak level 96.6 %
Extraction speed 5.8 X
Track quality 100.0 %
Test CRC 5A68C7B5
Copy CRC 5A68C7B5
Accurately ripped (confidence 6) [D5FD3C6D] (AR v2)
Copy OK

Track 7

Filename F:\New Rips\Cannonball Adderley - Love Sex and The Zodiac (1974) [FLAC]\07 - Virgo For Pam.wav

Pre-gap length 0:00:01.73

Peak level 96.6 %
Extraction speed 5.4 X
Track quality 100.0 %
Test CRC 56A9B98E
Copy CRC 56A9B98E
Accurately ripped (confidence 6) [B2E52DA9] (AR v2)
Copy OK

Track 8

Filename F:\New Rips\Cannonball Adderley - Love Sex and The Zodiac (1974) [FLAC]\08 - Libra Patricia.wav

Pre-gap length 0:00:01.73

Peak level 96.6 %
Extraction speed 6.1 X
Track quality 100.0 %
Test CRC 4D5AE098
Copy CRC 4D5AE098
Accurately ripped (confidence 6) [BC813375] (AR v2)
Copy OK

Track 9

Filename F:\New Rips\Cannonball Adderley - Love Sex and The Zodiac (1974) [FLAC]\09 - Scorpio Back A Town.wav

Pre-gap length 0:00:01.73

Peak level 96.6 %
Extraction speed 5.4 X
Track quality 100.0 %
Test CRC 6F66D46E
Copy CRC 6F66D46E
Accurately ripped (confidence 6) [C94DA00F] (AR v2)
Copy OK

Track 10

Filename F:\New Rips\Cannonball Adderley - Love Sex and The Zodiac (1974) [FLAC]\10 - Sagittarius West Texas.wav

Pre-gap length 0:00:01.73

Peak level 96.6 %
Extraction speed 6.2 X
Track quality 100.0 %
Test CRC 5033E42B
Copy CRC 5033E42B
Accurately ripped (confidence 6) [2631A2AA] (AR v2)
Copy OK

Track 11

Filename F:\New Rips\Cannonball Adderley - Love Sex and The Zodiac (1974) [FLAC]\11 - Capricorn The Gentle.wav

Pre-gap length 0:00:01.73

Peak level 96.6 %
Extraction speed 6.6 X
Track quality 100.0 %
Test CRC 1EAB0733
Copy CRC 1EAB0733
Accurately ripped (confidence 6) [D2A442B1] (AR v2)
Copy OK

Track 12

Filename F:\New Rips\Cannonball Adderley - Love Sex and The Zodiac (1974) [FLAC]\12 - Aquarius Humanity Plus.wav

Pre-gap length 0:00:01.73

Peak level 96.6 %
Extraction speed 6.7 X
Track quality 100.0 %
Test CRC 40F876B1
Copy CRC 40F876B1
Accurately ripped (confidence 6) [5838ECE3] (AR v2)
Copy OK

Track 13

Filename F:\New Rips\Cannonball Adderley - Love Sex and The Zodiac (1974) [FLAC]\13 - Pisces Allison's Trip.wav

Pre-gap length 0:00:01.73

Peak level 96.6 %
Extraction speed 7.3 X
Track quality 100.0 %
Test CRC 6F69588C
Copy CRC 6F69588C
Accurately ripped (confidence 6) [649490FD] (AR v2)
Copy OK


All tracks accurately ripped

No errors occurred

End of status report

–– CUETools DB Plugin V2.1.3

[CTDB TOCID: 0BTdMDwdYil1HsXe1kYtBWtxU9c-] found, Submit result: 0BTdMDwdYil1HsXe1kYtBWtxU9c- has been confirmed
[07816c37] (6/6) Accurately ripped


==== Log checksum 5B4F5322AE4C2936BC431B3BFADA991DA531154F4D68430ECAFC7785AA716B61 ====


Cannonball Adderley - Love, Sex And The Zodiac (1974) {Fantasy--BGP Records CDBGPM235 rel 2011}

Cannonball Adderley - Love, Sex And The Zodiac (1974) {Fantasy--BGP Records CDBGPM235 rel 2011}



===