Subcategories

Carole King - Live At Montreux 1973 (2019)

Posted By: delpotro
Carole King - Live At Montreux 1973 (2019)

Carole King - Live At Montreux 1973 (2019)
EAC Rip | FLAC (tracks+log+.cue) - 365 Mb | MP3 CBR 320 kbps - 143 Mb | 01:00:30
Pop Rock, Female Vocal | Label: Eagle Rock Entertainment

Released here for the first time, this 1973 Montreux show (her first ever performance outside of the U.S.) captures the early stages of a truly remarkable career. Following the release of her fifth album - Fantasy, Carole performs with heartfelt energy, playing classic hits such as "It's Too Late", "I Feel The Earth Move", "You've Got A Friend" plus standout tracks from Fantasy - "Believe in Humanity" and "Corazon" - and many others as she is backed by an ensemble of musicians.
Tracklist:
1. I Feel The Earth Move (03:11)
2. Smackwater Jack (03:26)
3. Home Again (02:39)
4. Beautiful (02:38)
5. Up On The Roof (03:32)
6. It's Too Late (05:10)
7. Fantasy Beginning (01:03)
8. You've Been Around Too Long (03:12)
9. Being At War With Each Other (03:51)
10. That's How Things Go Down (04:41)
11. Haywood (04:44)
12. A Quiet Place To Live (01:18)
13. You Light Up My Life (03:23)
14. Corazón (03:56)
15. Believe In Humanity (03:08)
16. Fantasy End (01:25)
17. You've Got A Friend (05:12)
18. (You Make Me Feel Like A) Natural Woman (04:02)

Exact Audio Copy V1.3 from 2. September 2016

EAC extraction logfile from 1. July 2019, 23:20

Carole King / Live At Montreux 1973

Used drive : PLEXTOR PX-891SAF Adapter: 1 ID: 0

Read mode : Secure
Utilize accurate stream : Yes
Defeat audio cache : Yes
Make use of C2 pointers : No

Read offset correction : 6
Overread into Lead-In and Lead-Out : No
Fill up missing offset samples with silence : Yes
Delete leading and trailing silent blocks : No
Null samples used in CRC calculations : Yes
Used interface : Native Win32 interface for Win NT & 2000
Gap handling : Appended to previous track

Used output format : User Defined Encoder
Selected bitrate : 1024 kBit/s
Quality : High
Add ID3 tag : No
Command line compressor : C:\Program Files (x86)\Exact Audio Copy\Flac\flac.exe
Additional command line options : -8 -V -T "ARTIST=%artist%" -T "TITLE=%title%" -T "ALBUM=%albumtitle%" -T "DATE=%year%" -T "TRACKNUMBER=%tracknr%" -T "GENRE=%genre%" -T "PERFORMER=%albuminterpret%" -T "COMPOSER=%composer%" %haslyrics%–tag-from-file=LYRICS="%lyricsfile%"%haslyrics% -T "ALBUMARTIST=%albumartist%" -T "DISCNUMBER=%cdnumber%" -T "TOTALDISCS=%totalcds%" -T "TOTALTRACKS=%numtracks%" -T "COMMENT=%comment%" %source% -o %dest%


TOC of the extracted CD

Track | Start | Length | Start sector | End sector
––––––––––––––––––––––––––––-
1 | 0:00.00 | 3:10.59 | 0 | 14308
2 | 3:10.59 | 3:25.45 | 14309 | 29728
3 | 6:36.29 | 2:38.61 | 29729 | 41639
4 | 9:15.15 | 2:38.17 | 41640 | 53506
5 | 11:53.32 | 3:32.21 | 53507 | 69427
6 | 15:25.53 | 5:09.48 | 69428 | 92650
7 | 20:35.26 | 1:03.04 | 92651 | 97379
8 | 21:38.30 | 3:11.57 | 97380 | 111761
9 | 24:50.12 | 3:51.21 | 111762 | 129107
10 | 28:41.33 | 4:41.04 | 129108 | 150186
11 | 33:22.37 | 4:43.54 | 150187 | 171465
12 | 38:06.16 | 1:17.41 | 171466 | 177281
13 | 39:23.57 | 3:23.15 | 177282 | 192521
14 | 42:46.72 | 3:55.62 | 192522 | 210208
15 | 46:42.59 | 3:08.12 | 210209 | 224320
16 | 49:50.71 | 1:25.01 | 224321 | 230696
17 | 51:15.72 | 5:12.08 | 230697 | 254104
18 | 56:28.05 | 4:02.15 | 254105 | 272269


Track 1

Filename D:\#New wav + flac\Carole King - Live At Montreux 1973\01. Carole King - I Feel The Earth Move.wav

Pre-gap length 0:00:02.00

Peak level 89.1 %
Extraction speed 4.8 X
Track quality 100.0 %
Test CRC ED1B94B1
Copy CRC ED1B94B1
Track not present in AccurateRip database
Copy OK

Track 2

Filename D:\#New wav + flac\Carole King - Live At Montreux 1973\02. Carole King - Smackwater Jack.wav

Peak level 89.0 %
Extraction speed 5.3 X
Track quality 100.0 %
Test CRC AAA9922A
Copy CRC AAA9922A
Track not present in AccurateRip database
Copy OK

Track 3

Filename D:\#New wav + flac\Carole King - Live At Montreux 1973\03. Carole King - Home Again.wav

Peak level 89.0 %
Extraction speed 5.4 X
Track quality 100.0 %
Test CRC E37438DF
Copy CRC E37438DF
Track not present in AccurateRip database
Copy OK

Track 4

Filename D:\#New wav + flac\Carole King - Live At Montreux 1973\04. Carole King - Beautiful.wav

Peak level 88.1 %
Extraction speed 5.6 X
Track quality 100.0 %
Test CRC 5A49EA00
Copy CRC 5A49EA00
Track not present in AccurateRip database
Copy OK

Track 5

Filename D:\#New wav + flac\Carole King - Live At Montreux 1973\05. Carole King - Up On The Roof.wav

Peak level 88.7 %
Extraction speed 6.3 X
Track quality 100.0 %
Test CRC CC74CC45
Copy CRC CC74CC45
Track not present in AccurateRip database
Copy OK

Track 6

Filename D:\#New wav + flac\Carole King - Live At Montreux 1973\06. Carole King - It's Too Late.wav

Peak level 88.1 %
Extraction speed 6.9 X
Track quality 100.0 %
Test CRC C8BD291E
Copy CRC C8BD291E
Track not present in AccurateRip database
Copy OK

Track 7

Filename D:\#New wav + flac\Carole King - Live At Montreux 1973\07. Carole King - Fantasy Beginning.wav

Peak level 87.9 %
Extraction speed 3.1 X
Track quality 99.8 %
Test CRC 7BF6922B
Copy CRC 7BF6922B
Track not present in AccurateRip database
Copy OK

Track 8

Filename D:\#New wav + flac\Carole King - Live At Montreux 1973\08. Carole King - You've Been Around Too Long.wav

Peak level 88.4 %
Extraction speed 7.0 X
Track quality 100.0 %
Test CRC 7D7DEA00
Copy CRC 7D7DEA00
Track not present in AccurateRip database
Copy OK

Track 9

Filename D:\#New wav + flac\Carole King - Live At Montreux 1973\09. Carole King - Being At War With Each Other.wav

Peak level 88.3 %
Extraction speed 7.5 X
Track quality 100.0 %
Test CRC B2680625
Copy CRC B2680625
Track not present in AccurateRip database
Copy OK

Track 10

Filename D:\#New wav + flac\Carole King - Live At Montreux 1973\10. Carole King - That's How Things Go Down.wav

Peak level 88.1 %
Extraction speed 7.9 X
Track quality 100.0 %
Test CRC EE01E39E
Copy CRC EE01E39E
Track not present in AccurateRip database
Copy OK

Track 11

Filename D:\#New wav + flac\Carole King - Live At Montreux 1973\11. Carole King - Haywood.wav

Peak level 88.4 %
Extraction speed 8.3 X
Track quality 100.0 %
Test CRC E944D800
Copy CRC E944D800
Track not present in AccurateRip database
Copy OK

Track 12

Filename D:\#New wav + flac\Carole King - Live At Montreux 1973\12. Carole King - A Quiet Place To Live.wav

Peak level 88.1 %
Extraction speed 6.5 X
Track quality 100.0 %
Test CRC 5F620976
Copy CRC 5F620976
Track not present in AccurateRip database
Copy OK

Track 13

Filename D:\#New wav + flac\Carole King - Live At Montreux 1973\13. Carole King - You Light Up My Life.wav

Peak level 88.1 %
Extraction speed 6.7 X
Track quality 99.9 %
Test CRC 7B0AEFC3
Copy CRC 7B0AEFC3
Track not present in AccurateRip database
Copy OK

Track 14

Filename D:\#New wav + flac\Carole King - Live At Montreux 1973\14. Carole King - Corazón.wav

Peak level 88.4 %
Extraction speed 8.7 X
Track quality 100.0 %
Test CRC A66EE400
Copy CRC A66EE400
Track not present in AccurateRip database
Copy OK

Track 15

Filename D:\#New wav + flac\Carole King - Live At Montreux 1973\15. Carole King - Believe In Humanity.wav

Peak level 88.4 %
Extraction speed 8.6 X
Track quality 100.0 %
Test CRC EC49291A
Copy CRC EC49291A
Track not present in AccurateRip database
Copy OK

Track 16

Filename D:\#New wav + flac\Carole King - Live At Montreux 1973\16. Carole King - Fantasy End.wav

Peak level 88.2 %
Extraction speed 4.9 X
Track quality 99.8 %
Test CRC 342D85C4
Copy CRC 342D85C4
Track not present in AccurateRip database
Copy OK

Track 17

Filename D:\#New wav + flac\Carole King - Live At Montreux 1973\17. Carole King - You've Got A Friend.wav

Peak level 89.1 %
Extraction speed 9.7 X
Track quality 100.0 %
Test CRC A0A0A201
Copy CRC A0A0A201
Track not present in AccurateRip database
Copy OK

Track 18

Filename D:\#New wav + flac\Carole King - Live At Montreux 1973\18. Carole King - You Make Me Feel Like A Natural Woman.wav

Peak level 89.0 %
Extraction speed 9.7 X
Track quality 100.0 %
Test CRC 5A247C30
Copy CRC 5A247C30
Track not present in AccurateRip database
Copy OK


None of the tracks are present in the AccurateRip database

No errors occurred

End of status report

–– CUETools DB Plugin V2.1.6

[CTDB TOCID: lr2aCBGmjYXpQHm9iqJFA_DeYFU-] found
Submit result: lr2aCBGmjYXpQHm9iqJFA_DeYFU- has been confirmed
Track | CTDB Status
1 | (10/10) Accurately ripped
2 | (10/10) Accurately ripped
3 | (10/10) Accurately ripped
4 | (10/10) Accurately ripped
5 | (10/10) Accurately ripped
6 | (10/10) Accurately ripped
7 | (10/10) Accurately ripped
8 | (10/10) Accurately ripped
9 | (10/10) Accurately ripped
10 | (10/10) Accurately ripped
11 | (10/10) Accurately ripped
12 | (10/10) Accurately ripped
13 | (10/10) Accurately ripped
14 | (10/10) Accurately ripped
15 | (10/10) Accurately ripped
16 | (10/10) Accurately ripped
17 | (10/10) Accurately ripped
18 | (10/10) Accurately ripped


==== Log checksum CFBDAC0B36D8A370133722D5C7B26CD29BA67E8A06D9CC1A57BBC7C446A26458 ====

––––––––––––––––––––––––––––––

Exact Audio Copy V1.3 from 2. September 2016

EAC extraction logfile from 1. July 2019, 23:20

Carole King / Live At Montreux 1973

Used drive : PLEXTOR PX-891SAF Adapter: 1 ID: 0

Read mode : Secure
Utilize accurate stream : Yes
Defeat audio cache : Yes
Make use of C2 pointers : No

Read offset correction : 6
Overread into Lead-In and Lead-Out : No
Fill up missing offset samples with silence : Yes
Delete leading and trailing silent blocks : No
Null samples used in CRC calculations : Yes
Used interface : Native Win32 interface for Win NT & 2000
Gap handling : Appended to previous track

Used output format : User Defined Encoder
Selected bitrate : 1024 kBit/s
Quality : High
Add ID3 tag : No
Command line compressor : C:\Program Files (x86)\Exact Audio Copy\Flac\flac.exe
Additional command line options : -8 -V -T "ARTIST=%artist%" -T "TITLE=%title%" -T "ALBUM=%albumtitle%" -T "DATE=%year%" -T "TRACKNUMBER=%tracknr%" -T "GENRE=%genre%" -T "PERFORMER=%albuminterpret%" -T "COMPOSER=%composer%" %haslyrics%–tag-from-file=LYRICS="%lyricsfile%"%haslyrics% -T "ALBUMARTIST=%albumartist%" -T "DISCNUMBER=%cdnumber%" -T "TOTALDISCS=%totalcds%" -T "TOTALTRACKS=%numtracks%" -T "COMMENT=%comment%" %source% -o %dest%


TOC of the extracted CD

Track | Start | Length | Start sector | End sector
––––––––––––––––––––––––––––-
1 | 0:00.00 | 3:10.59 | 0 | 14308
2 | 3:10.59 | 3:25.45 | 14309 | 29728
3 | 6:36.29 | 2:38.61 | 29729 | 41639
4 | 9:15.15 | 2:38.17 | 41640 | 53506
5 | 11:53.32 | 3:32.21 | 53507 | 69427
6 | 15:25.53 | 5:09.48 | 69428 | 92650
7 | 20:35.26 | 1:03.04 | 92651 | 97379
8 | 21:38.30 | 3:11.57 | 97380 | 111761
9 | 24:50.12 | 3:51.21 | 111762 | 129107
10 | 28:41.33 | 4:41.04 | 129108 | 150186
11 | 33:22.37 | 4:43.54 | 150187 | 171465
12 | 38:06.16 | 1:17.41 | 171466 | 177281
13 | 39:23.57 | 3:23.15 | 177282 | 192521
14 | 42:46.72 | 3:55.62 | 192522 | 210208
15 | 46:42.59 | 3:08.12 | 210209 | 224320
16 | 49:50.71 | 1:25.01 | 224321 | 230696
17 | 51:15.72 | 5:12.08 | 230697 | 254104
18 | 56:28.05 | 4:02.15 | 254105 | 272269


Track 1

Filename D:\#New wav + flac\Carole King - Live At Montreux 1973\01. Carole King - I Feel The Earth Move.wav

Pre-gap length 0:00:02.00

Peak level 89.1 %
Extraction speed 4.8 X
Track quality 100.0 %
Test CRC ED1B94B1
Copy CRC ED1B94B1
Track not present in AccurateRip database
Copy OK

Track 2

Filename D:\#New wav + flac\Carole King - Live At Montreux 1973\02. Carole King - Smackwater Jack.wav

Peak level 89.0 %
Extraction speed 5.3 X
Track quality 100.0 %
Test CRC AAA9922A
Copy CRC AAA9922A
Track not present in AccurateRip database
Copy OK

Track 3

Filename D:\#New wav + flac\Carole King - Live At Montreux 1973\03. Carole King - Home Again.wav

Peak level 89.0 %
Extraction speed 5.4 X
Track quality 100.0 %
Test CRC E37438DF
Copy CRC E37438DF
Track not present in AccurateRip database
Copy OK

Track 4

Filename D:\#New wav + flac\Carole King - Live At Montreux 1973\04. Carole King - Beautiful.wav

Peak level 88.1 %
Extraction speed 5.6 X
Track quality 100.0 %
Test CRC 5A49EA00
Copy CRC 5A49EA00
Track not present in AccurateRip database
Copy OK

Track 5

Filename D:\#New wav + flac\Carole King - Live At Montreux 1973\05. Carole King - Up On The Roof.wav

Peak level 88.7 %
Extraction speed 6.3 X
Track quality 100.0 %
Test CRC CC74CC45
Copy CRC CC74CC45
Track not present in AccurateRip database
Copy OK

Track 6

Filename D:\#New wav + flac\Carole King - Live At Montreux 1973\06. Carole King - It's Too Late.wav

Peak level 88.1 %
Extraction speed 6.9 X
Track quality 100.0 %
Test CRC C8BD291E
Copy CRC C8BD291E
Track not present in AccurateRip database
Copy OK

Track 7

Filename D:\#New wav + flac\Carole King - Live At Montreux 1973\07. Carole King - Fantasy Beginning.wav

Peak level 87.9 %
Extraction speed 3.1 X
Track quality 99.8 %
Test CRC 7BF6922B
Copy CRC 7BF6922B
Track not present in AccurateRip database
Copy OK

Track 8

Filename D:\#New wav + flac\Carole King - Live At Montreux 1973\08. Carole King - You've Been Around Too Long.wav

Peak level 88.4 %
Extraction speed 7.0 X
Track quality 100.0 %
Test CRC 7D7DEA00
Copy CRC 7D7DEA00
Track not present in AccurateRip database
Copy OK

Track 9

Filename D:\#New wav + flac\Carole King - Live At Montreux 1973\09. Carole King - Being At War With Each Other.wav

Peak level 88.3 %
Extraction speed 7.5 X
Track quality 100.0 %
Test CRC B2680625
Copy CRC B2680625
Track not present in AccurateRip database
Copy OK

Track 10

Filename D:\#New wav + flac\Carole King - Live At Montreux 1973\10. Carole King - That's How Things Go Down.wav

Peak level 88.1 %
Extraction speed 7.9 X
Track quality 100.0 %
Test CRC EE01E39E
Copy CRC EE01E39E
Track not present in AccurateRip database
Copy OK

Track 11

Filename D:\#New wav + flac\Carole King - Live At Montreux 1973\11. Carole King - Haywood.wav

Peak level 88.4 %
Extraction speed 8.3 X
Track quality 100.0 %
Test CRC E944D800
Copy CRC E944D800
Track not present in AccurateRip database
Copy OK

Track 12

Filename D:\#New wav + flac\Carole King - Live At Montreux 1973\12. Carole King - A Quiet Place To Live.wav

Peak level 88.1 %
Extraction speed 6.5 X
Track quality 100.0 %
Test CRC 5F620976
Copy CRC 5F620976
Track not present in AccurateRip database
Copy OK

Track 13

Filename D:\#New wav + flac\Carole King - Live At Montreux 1973\13. Carole King - You Light Up My Life.wav

Peak level 88.1 %
Extraction speed 6.7 X
Track quality 99.9 %
Test CRC 7B0AEFC3
Copy CRC 7B0AEFC3
Track not present in AccurateRip database
Copy OK

Track 14

Filename D:\#New wav + flac\Carole King - Live At Montreux 1973\14. Carole King - Corazón.wav

Peak level 88.4 %
Extraction speed 8.7 X
Track quality 100.0 %
Test CRC A66EE400
Copy CRC A66EE400
Track not present in AccurateRip database
Copy OK

Track 15

Filename D:\#New wav + flac\Carole King - Live At Montreux 1973\15. Carole King - Believe In Humanity.wav

Peak level 88.4 %
Extraction speed 8.6 X
Track quality 100.0 %
Test CRC EC49291A
Copy CRC EC49291A
Track not present in AccurateRip database
Copy OK

Track 16

Filename D:\#New wav + flac\Carole King - Live At Montreux 1973\16. Carole King - Fantasy End.wav

Peak level 88.2 %
Extraction speed 4.9 X
Track quality 99.8 %
Test CRC 342D85C4
Copy CRC 342D85C4
Track not present in AccurateRip database
Copy OK

Track 17

Filename D:\#New wav + flac\Carole King - Live At Montreux 1973\17. Carole King - You've Got A Friend.wav

Peak level 89.1 %
Extraction speed 9.7 X
Track quality 100.0 %
Test CRC A0A0A201
Copy CRC A0A0A201
Track not present in AccurateRip database
Copy OK

Track 18

Filename D:\#New wav + flac\Carole King - Live At Montreux 1973\18. Carole King - You Make Me Feel Like A Natural Woman.wav

Peak level 89.0 %
Extraction speed 9.7 X
Track quality 100.0 %
Test CRC 5A247C30
Copy CRC 5A247C30
Track not present in AccurateRip database
Copy OK


None of the tracks are present in the AccurateRip database

No errors occurred

End of status report

–– CUETools DB Plugin V2.1.6

[CTDB TOCID: lr2aCBGmjYXpQHm9iqJFA_DeYFU-] found
Submit result: lr2aCBGmjYXpQHm9iqJFA_DeYFU- has been confirmed
Track | CTDB Status
1 | (10/10) Accurately ripped
2 | (10/10) Accurately ripped
3 | (10/10) Accurately ripped
4 | (10/10) Accurately ripped
5 | (10/10) Accurately ripped
6 | (10/10) Accurately ripped
7 | (10/10) Accurately ripped
8 | (10/10) Accurately ripped
9 | (10/10) Accurately ripped
10 | (10/10) Accurately ripped
11 | (10/10) Accurately ripped
12 | (10/10) Accurately ripped
13 | (10/10) Accurately ripped
14 | (10/10) Accurately ripped
15 | (10/10) Accurately ripped
16 | (10/10) Accurately ripped
17 | (10/10) Accurately ripped
18 | (10/10) Accurately ripped


==== Log checksum CFBDAC0B36D8A370133722D5C7B26CD29BA67E8A06D9CC1A57BBC7C446A26458 ====

Thanks to the Original ripper !