Subcategories

Compact Disc Club - Radio Italia (2011)

Posted By: Speedyclick
Compact Disc Club - Radio Italia (2011)

Compact Disc Club - Radio Italia (2011)
4CD EAC Rips | FLAC (image & cue & log) & mp3 @ 320 kbps | tracks: 71 | ~ 1,92 Gb & 664 Mb | 4:34:25
Label: CDC | 5% recovery record | Full 600dpi scans | Genre: Italian pop, ballads, musica leggera

The latest release of Compact Disc Club comes from the musical heaven of Europe, Italy. An amazing selection of 71 love ballads from the past, the present and the "future" of the Italian repertoire. Songs that became "Radio Hits" worldwide, or incorporate the potential to become soon. A rich collection with a 50 years time span from Patty Pravo and Gino Paoli to Mango and Giusi Ferreri that will satisfy all italian music fans. "Latin lovers", this collection is for you. Enjoy.

TRACKLIST

CD1 (~ 497 & 161 Mb | 1:09:16)
01. Mango - Come Monna Lisa
02. Gigi D'Alessi - Amore Mio
03. Nina Zilli Feat. Giuliano Palma - 50Mila
04. Giusi Ferreri - Non Ti Scordar Mai Di Me
05. Mietta & Amedeo Minghi - Vattene Amore
06. Angela Amico - La Vita Com' E
07. Paolo Meneguzzi - Musica
08. Luca Dirisio - Magica
09. Aleandro Baldi & Francesca Alotta - Non Amarmi
10. Fabio Volo - Io E Te
11. Augusta - Anche Un Uomo
12. Le Vibrazioni - Dimmi
13. Gemelli Diversi - Un Attimo Ancora
14. Luca Carboni - Sara Un Uomo
15. Luca Barbarossa - Angelo Custode
16. I Dik Dik - Io Mi Fermo Qui
17. Gigliola Cinquetti - Alle Porte Del Sole
18. Gianni Morandi - Il Giocatollo

CD2 (~ 478 & 158 Mb | 1:07:20)
01. Eros Ramazzotti - Un Attimo Di Pace
02. Gigi D'Alessio - Non Mollare Mai
03. Maria Nazionale - Ragione E Sentimento
04. Irene Fargo - Come Una Turandot
05. Andrea Bocelli & Giorgia - Vivo Per Lei
06. Ornella Vanoni - Ricorda
07. Mina - Il Cielo In Una Stanza
08. Fabio Concato - M’ Innamoro Davvero
09. Loredana Berte - Sei Bellissima
10. Lucio Dalla - Balla Balla Ballerino
11. Lunapop - Un Giorno Migliore
12. Pupo - Su Di Noi
13. Le Masque - Le Donne
14. Matia Bazar - Per Un'Ora D'Amore
15. Alunni Del Sole - Liu
16. Fausto Leali & Anna Oxa - Avrei Voluto
17. Lucio Battisti - Non E Francesca

CD3 (~ 527 & 169 Mb | 1:12:05)
01. Biagio Antonacci - Quanto Tempo E Ancora
02. Noemi - All’Infinito
03. Giusy Ferreri - Novembre
04. Gigi D'Alessio - La Donna Que Vorrei
05. Silvia Salemi - Odiami Perche
06. Ron (Con Tosca) - Vorrei Incontrarti Fra Cent’Anni
07. Franco Califano - Tutto Il Resto E Noia
08. Marco Masini - Disperato
09. Fausto Leali - Tu Non Mi Lasciare Mai (If You Don'T Know Me By Now)
10. Claudio Baglioni - E Tu
11. Lucio Dalla - Anna E Marco
12. Franco Battiato - I Treni Di Tozeur
13. Mango - Bella D'Estate
14. Luigi Vanna & Gina Bueno - Parole Parole
15. Paola E Chiara - Festival
16. Le Masque - Marcel
17. Marina Rei - Primavera (You To Me Are Everything)
18. Matia Bazar - Stasera… Che Sera!

CD4 (~ 448 & 154 Mb | 1:05:44)
01. Gianluca Grignani - La Mia Storia Tra Le Dita
02. Augusta - Uomini Adosso
03. Mango - Ti Amo Cosi
04. Fabio Concato - Fiore Di Maggio
05. Fausto Leali & Anna Oxa - Ti Lascero
06. Ornella Vanoni - Quanto Tempo E Ancora
07. Gigi D'Alessio & Anna Tatangelo - Un Nuovo Bacio
08. Ricchi E Poveri - Come Vorrei
09. Mina - Insieme
10. Franco Califano - Me 'Nnammoro De Te
11. Lucio Battisti - Anna
12. Gigliola Cinquetti - Rose Nel Buio
13. Gino Paoli - Sapore Di Sale
14. Gianni Morandi - Occhi Di Ragazza
15. Little Tony - Un Uomo Piangi Solo Per Amare
16. Mal Dei Primitives - Betty Blue
17. Patty Pravo - Ragazzo Triste
18. Dalida - Ciao Amore Ciao

Exact Audio Copy V1.0 beta 1 from 15. November 2010

EAC extraction logfile from 11. August 2011, 6:21

Various / CDC-Radio Italia CD1

Used drive : HL-DT-STDVDRAM GH10N Adapter: 3 ID: 0

Read mode : Secure
Utilize accurate stream : Yes
Defeat audio cache : Yes
Make use of C2 pointers : No

Read offset correction : 667
Overread into Lead-In and Lead-Out : No
Fill up missing offset samples with silence : Yes
Delete leading and trailing silent blocks : No
Null samples used in CRC calculations : Yes
Used interface : Native Win32 interface for Win NT & 2000

Used output format : User Defined Encoder
Selected bitrate : 1024 kBit/s
Quality : High
Add ID3 tag : No
Command line compressor : C:\Program Files\FLAC\flac.exe
Additional command line options : -V -5 -T "artist=%a" -T "title=%t" -T "album=%g" -T "date=%y" -T "tracknumber=%n" -T "genre=%m" -5 %s


TOC of the extracted CD

Track | Start | Length | Start sector | End sector
––––––––––––––––––––––––––––-
1 | 0:00.00 | 4:36.05 | 0 | 20704
2 | 4:36.05 | 4:00.49 | 20705 | 38753
3 | 8:36.54 | 2:51.57 | 38754 | 51635
4 | 11:28.36 | 3:25.12 | 51636 | 67022
5 | 14:53.48 | 3:56.56 | 67023 | 84778
6 | 18:50.29 | 4:02.24 | 84779 | 102952
7 | 22:52.53 | 3:41.28 | 102953 | 119555
8 | 26:34.06 | 3:51.29 | 119556 | 136909
9 | 30:25.35 | 4:49.53 | 136910 | 158637
10 | 35:15.13 | 3:47.10 | 158638 | 175672
11 | 39:02.23 | 4:39.47 | 175673 | 196644
12 | 43:41.70 | 2:54.36 | 196645 | 209730
13 | 46:36.31 | 3:49.22 | 209731 | 226927
14 | 50:25.53 | 5:03.65 | 226928 | 249717
15 | 55:29.43 | 5:16.04 | 249718 | 273421
16 | 60:45.47 | 2:19.15 | 273422 | 283861
17 | 63:04.62 | 3:38.35 | 283862 | 300246
18 | 66:43.22 | 2:33.18 | 300247 | 311739


Range status and errors

Selected range

Filename U:\EAC Rips\CDC-Radio Italia\CDC-RadioItaliaCD1\Various - CDC-Radio Italia CD1.wav

Peak level 100.0 %
Extraction speed 0.2 X
Range quality 100.0 %
Test CRC BDAF764B
Copy CRC BDAF764B
Copy OK

No errors occurred


AccurateRip summary

Track 1 not present in database
Track 2 not present in database
Track 3 not present in database
Track 4 not present in database
Track 5 not present in database
Track 6 not present in database
Track 7 not present in database
Track 8 not present in database
Track 9 not present in database
Track 10 not present in database
Track 11 not present in database
Track 12 not present in database
Track 13 not present in database
Track 14 not present in database
Track 15 not present in database
Track 16 not present in database
Track 17 not present in database
Track 18 not present in database

None of the tracks are present in the AccurateRip database

End of status report

==== Log checksum E47EE9DF686917073AD1C6C5AE62D23507A6523663438DDCEE8277BC88F808C0 ====

Exact Audio Copy V1.0 beta 1 from 15. November 2010

EAC extraction logfile from 11. August 2011, 7:53

Various / CDC-Radio Italia CD2

Used drive : HL-DT-STDVDRAM GH10N Adapter: 3 ID: 0

Read mode : Secure
Utilize accurate stream : Yes
Defeat audio cache : Yes
Make use of C2 pointers : No

Read offset correction : 667
Overread into Lead-In and Lead-Out : No
Fill up missing offset samples with silence : Yes
Delete leading and trailing silent blocks : No
Null samples used in CRC calculations : Yes
Used interface : Native Win32 interface for Win NT & 2000

Used output format : User Defined Encoder
Selected bitrate : 1024 kBit/s
Quality : High
Add ID3 tag : No
Command line compressor : C:\Program Files\FLAC\flac.exe
Additional command line options : -V -5 -T "artist=%a" -T "title=%t" -T "album=%g" -T "date=%y" -T "tracknumber=%n" -T "genre=%m" -5 %s


TOC of the extracted CD

Track | Start | Length | Start sector | End sector
––––––––––––––––––––––––––––-
1 | 0:00.00 | 4:27.36 | 0 | 20060
2 | 4:27.36 | 4:03.58 | 20061 | 38343
3 | 8:31.19 | 4:04.37 | 38344 | 56680
4 | 12:35.56 | 3:52.27 | 56681 | 74107
5 | 16:28.08 | 4:21.49 | 74108 | 93731
6 | 20:49.57 | 2:19.02 | 93732 | 104158
7 | 23:08.59 | 2:53.34 | 104159 | 117167
8 | 26:02.18 | 4:33.10 | 117168 | 137652
9 | 30:35.28 | 4:48.08 | 137653 | 159260
10 | 35:23.36 | 5:37.44 | 159261 | 184579
11 | 41:01.05 | 4:06.73 | 184580 | 203102
12 | 45:08.03 | 3:13.66 | 203103 | 217643
13 | 48:21.69 | 4:35.59 | 217644 | 238327
14 | 52:57.53 | 3:51.72 | 238328 | 255724
15 | 56:49.50 | 3:51.16 | 255725 | 273065
16 | 60:40.66 | 3:00.38 | 273066 | 286603
17 | 63:41.29 | 3:38.61 | 286604 | 303014


Range status and errors

Selected range

Filename U:\EAC Rips\CDC-Radio Italia\CDC-RadioItaliaCD2\Various - CDC-Radio Italia CD2.wav

Peak level 100.0 %
Extraction speed 0.3 X
Range quality 100.0 %
Test CRC AFD9ABD7
Copy CRC AFD9ABD7
Copy OK

No errors occurred


AccurateRip summary

Track 1 not present in database
Track 2 not present in database
Track 3 not present in database
Track 4 not present in database
Track 5 not present in database
Track 6 not present in database
Track 7 not present in database
Track 8 not present in database
Track 9 not present in database
Track 10 not present in database
Track 11 not present in database
Track 12 not present in database
Track 13 not present in database
Track 14 not present in database
Track 15 not present in database
Track 16 not present in database
Track 17 not present in database

None of the tracks are present in the AccurateRip database

End of status report

==== Log checksum 52A58FE1996364DDA485E5BC3561484E48217A38E14350B1D665C056F61070E9 ====

Exact Audio Copy V1.0 beta 1 from 15. November 2010

EAC extraction logfile from 11. August 2011, 8:33

Various / CDC-Radio Italia CD3

Used drive : HL-DT-STDVDRAM GH10N Adapter: 3 ID: 0

Read mode : Secure
Utilize accurate stream : Yes
Defeat audio cache : Yes
Make use of C2 pointers : No

Read offset correction : 667
Overread into Lead-In and Lead-Out : No
Fill up missing offset samples with silence : Yes
Delete leading and trailing silent blocks : No
Null samples used in CRC calculations : Yes
Used interface : Native Win32 interface for Win NT & 2000

Used output format : User Defined Encoder
Selected bitrate : 1024 kBit/s
Quality : High
Add ID3 tag : No
Command line compressor : C:\Program Files\FLAC\flac.exe
Additional command line options : -V -5 -T "artist=%a" -T "title=%t" -T "album=%g" -T "date=%y" -T "tracknumber=%n" -T "genre=%m" -5 %s


TOC of the extracted CD

Track | Start | Length | Start sector | End sector
––––––––––––––––––––––––––––-
1 | 0:00.00 | 3:43.46 | 0 | 16770
2 | 3:43.46 | 3:35.30 | 16771 | 32925
3 | 7:19.01 | 3:05.65 | 32926 | 46865
4 | 10:24.66 | 4:12.10 | 46866 | 65775
5 | 14:37.01 | 3:51.57 | 65776 | 83157
6 | 18:28.58 | 3:49.41 | 83158 | 100373
7 | 22:18.24 | 4:28.31 | 100374 | 120504
8 | 26:46.55 | 4:12.23 | 120505 | 139427
9 | 30:59.03 | 4:12.23 | 139428 | 158350
10 | 35:11.26 | 4:38.56 | 158351 | 179256
11 | 39:50.07 | 3:37.72 | 179257 | 195603
12 | 43:28.04 | 3:05.48 | 195604 | 209526
13 | 46:33.52 | 4:55.20 | 209527 | 231671
14 | 51:28.72 | 4:18.53 | 231672 | 251074
15 | 55:47.50 | 3:36.16 | 251075 | 267290
16 | 59:23.66 | 4:54.07 | 267291 | 289347
17 | 64:17.73 | 4:28.25 | 289348 | 309472
18 | 68:46.23 | 3:19.16 | 309473 | 324413


Range status and errors

Selected range

Filename U:\EAC Rips\CDC-Radio Italia\CDC-RadioItaliaCD3\Various - CDC-Radio Italia CD3.wav

Peak level 100.0 %
Extraction speed 0.2 X
Range quality 100.0 %
Test CRC 4400B8AB
Copy CRC 4400B8AB
Copy OK

No errors occurred


AccurateRip summary

Track 1 not present in database
Track 2 not present in database
Track 3 not present in database
Track 4 not present in database
Track 5 not present in database
Track 6 not present in database
Track 7 not present in database
Track 8 not present in database
Track 9 not present in database
Track 10 not present in database
Track 11 not present in database
Track 12 not present in database
Track 13 not present in database
Track 14 not present in database
Track 15 not present in database
Track 16 not present in database
Track 17 not present in database
Track 18 not present in database

None of the tracks are present in the AccurateRip database

End of status report

==== Log checksum E9EDD98932A6A9A408CDB32F143FC97C5049D974158A1B4DCC6B2034751A23A4 ====

Exact Audio Copy V1.0 beta 1 from 15. November 2010

EAC extraction logfile from 11. August 2011, 15:28

Various / CDC-RadioItalia CD4

Used drive : HL-DT-STDVDRAM GH10N Adapter: 3 ID: 0

Read mode : Secure
Utilize accurate stream : Yes
Defeat audio cache : Yes
Make use of C2 pointers : No

Read offset correction : 667
Overread into Lead-In and Lead-Out : No
Fill up missing offset samples with silence : Yes
Delete leading and trailing silent blocks : No
Null samples used in CRC calculations : Yes
Used interface : Native Win32 interface for Win NT & 2000

Used output format : User Defined Encoder
Selected bitrate : 1024 kBit/s
Quality : High
Add ID3 tag : No
Command line compressor : C:\Program Files\FLAC\flac.exe
Additional command line options : -V -5 -T "artist=%a" -T "title=%t" -T "album=%g" -T "date=%y" -T "tracknumber=%n" -T "genre=%m" -5 %s


TOC of the extracted CD

Track | Start | Length | Start sector | End sector
––––––––––––––––––––––––––––-
1 | 0:00.00 | 5:04.35 | 0 | 22834
2 | 5:04.35 | 3:09.27 | 22835 | 37036
3 | 8:13.62 | 4:04.21 | 37037 | 55357
4 | 12:18.08 | 3:49.58 | 55358 | 72590
5 | 16:07.66 | 3:59.66 | 72591 | 90581
6 | 20:07.57 | 4:20.60 | 90582 | 110141
7 | 24:28.42 | 4:07.26 | 110142 | 128692
8 | 28:35.68 | 2:54.60 | 128693 | 141802
9 | 31:30.53 | 4:04.52 | 141803 | 160154
10 | 35:35.30 | 3:38.27 | 160155 | 176531
11 | 39:13.57 | 4:45.33 | 176532 | 197939
12 | 43:59.15 | 3:06.41 | 197940 | 211930
13 | 47:05.56 | 3:27.62 | 211931 | 227517
14 | 50:33.43 | 2:49.04 | 227518 | 240196
15 | 53:22.47 | 3:07.73 | 240197 | 254294
16 | 56:30.45 | 3:09.61 | 254295 | 268530
17 | 59:40.31 | 2:56.48 | 268531 | 281778
18 | 62:37.04 | 3:07.68 | 281779 | 295871


Range status and errors

Selected range

Filename U:\EAC Rips\CDC-Radio Italia\CDC-RadioItaliaCD4\Various - CDC-RadioItalia CD4.wav

Peak level 100.0 %
Extraction speed 0.1 X
Range quality 99.9 %
Test CRC A6EEFF5B
Copy CRC A6EEFF5B
Copy OK

No errors occurred


AccurateRip summary

Track 1 not present in database
Track 2 not present in database
Track 3 not present in database
Track 4 not present in database
Track 5 not present in database
Track 6 not present in database
Track 7 not present in database
Track 8 not present in database
Track 9 not present in database
Track 10 not present in database
Track 11 not present in database
Track 12 not present in database
Track 13 not present in database
Track 14 not present in database
Track 15 not present in database
Track 16 not present in database
Track 17 not present in database
Track 18 not present in database

None of the tracks are present in the AccurateRip database

End of status report

==== Log checksum 1A0CD37BDA513B0CFE3BF0801D5C9ABB9E958D6CD85EAEA619F06A62457DF4E1 ====