Subcategories
Tags
Language
Tags

Chad & Jeremy - Sing For You (1965) {Ember--Air Mail Japan, AIRAC-1315, Paper Sleeve rel 2007}

Posted By: ruskaval
Chad & Jeremy - Sing For You (1965) {Ember--Air Mail Japan, AIRAC-1315, Paper Sleeve rel 2007}

Chad & Jeremy - Sing For You (1965) {Ember–Air Mail Japan, AIRAC-1315, Paper Sleeve rel 2007}
EAC rip (secure mode) | FLAC (tracks)+CUE+LOG -> 237 Mb | MP3 @320 -> 108 Mb
Full Artwork @ 600 dpi (jpg) -> 55 Mb | 5% repair rar
© 1965, 2007 Ember Records / Air Mail Recordings Japan | AIRAC-1315
Rock / Pop / Psychedelic / Baroque Pop / British Invasion

Generally relegated to footnote status, folk/rock duo (heavier on the folk) Chad & Jeremy nonetheless managed a certain level of influence among a group of navel-gazing sensitive types who couldn’t totally commit to either the Beatles or Stones camps. And yet they still managed to make something of a splash riding the crest of a wave that was the British Invasion. At a time when it seemed every artist was copping the sound of the Beatles and/or Stones, Chad & Jeremy remained (relatively) committed to their folk origins. The trouble with this was their particular brand of folk was slowly falling out of favor following the arrival of Bob Dylan.

As if an attempt to split the difference, they embraced an approximation of the British Invasion sound while still attempting to adhere to their folk roots. But it didn’t quite suit the soft folk within which they best operated, and their attempts at continued relevance beyond a few early singles (“Yesterday’s Gone” and the song for which they are perhaps best known, “A Summer Song”) sound forced. They only truly succeeded when sticking closest to their roots; any venture into mainstream pop tended to fall short, sounding like a feeble attempt to tap into a commercial market quickly losing interest in them

Yet throughout, they prove to be fine interpreters of contemporary folk and standards of the genre. They take on Ewan MacColl’s perennial folk classic “Dirty Old Town”, giving it a decidedly country bent. “No Tears for Johnny”, while sounding feather-light, possesses a lyrical profundity and anti-war stance that far surpasses anything Simon & Garfunkel and their ilk ever attempted. It is within these unexpected moments that the music of Chad & Jeremy rises above much of the filler that weighed down their studio albums and prevented them from finding the favor they perhaps deserved. And while they would eventually surrender to the times with their generally well-regarded psychedelic albums Of Cabbages & Kings and The Ark, these early recordings show the pair trying desperately to get their music heard

Unfortunately the music of Chad & Jeremy has been unfairly overlooked by all but the most ardent fans of ‘60s pop music. The duo stands as a fine reminder that the pop landscape wasn’t all Beatles, Stones, Dylan, and Motown.
Chad & Jeremy - Sing For You (1965) {Ember--Air Mail Japan, AIRAC-1315, Paper Sleeve rel 2007}


Personnel:

Jeremy Clyde - Vocals, Guitar
Chad Stewart - Vocals, Guitar, Keyboards
Russ Savakus - Bass
Charles McCracken - Cello
Lucien Schmit - Cello
Gary Chester - Drums
Al Caiola - Guitar
Willard Syuker - Guitar
George Devens - Percussion
Al De Risi - Trumpet
Irvin Markowitz - Trumpet
Harold Coletta - Viola
Harry Zaratzian - Viola
David Nadien - Violin
George Ockner - Violin
Harry Katzman - Violin
Leo Kruczek - Violin
Max Pollikoff - Violin
Paul Gershman - Violin
Paul Winter - Violin

Track Listing:

01. Yesterday's Gone (David Stuart, Wendy Kidd) - 2:31
02. If She Was Mine (Bobby Goldsboro, Buddy Buie) - 2:02
03. Willow Weep For Me (Ann Ronell) - 2:35
04. No Tears For Johnny (Tom Springfield) - 2:17
05. The Truth Often Hurts The Heart (Clive Metcalfe, Keith Noble) - 2:51
06. If I Loved You (Oscar Hammerstein II, Richard Rodgers) - 2:18
07. September In The Rain (Harry Warren) - 2:31
08. Like I Love You Today (Chad Stuart) - 2:41
09. Donna Donna (Aaron Zeitlin, Sholom Secunda) - 3:00
10. A Summer Song (Chad Stuart, Clive Metcalfe, Keith Noble) - 2:39
11. Dirty Old Town (Ewan MacColl) - 3:08
12. From A Window (John Lennon, Paul McCartney) - 2:16
13. If I Had My Way (Traditional) - 2:22
14. The Morning (Traditional) - 2:22
15. Ain't That Just Like Me (Traditional) - 0:50
16. If I Had A Hammer (Lee Hays, Pete Seeger) - 2:13
17. Yesterday's Gone (David Stuart, Wendy Kidd) - 2:20
18. Stanley And Dora (Traditional) - 1:38
19. A Summer Song (Chad Stuart, Clive Metcalfe, Keith Noble) - 2:41

Exact Audio Copy V1.3 from 2. September 2016

EAC extraction logfile from 20. April 2021, 11:44

Chad & Jeremy / Sing For You

Used drive : ATAPI iHAS122 F Adapter: 1 ID: 0

Read mode : Secure
Utilize accurate stream : Yes
Defeat audio cache : Yes
Make use of C2 pointers : No

Read offset correction : 6
Overread into Lead-In and Lead-Out : No
Fill up missing offset samples with silence : Yes
Delete leading and trailing silent blocks : No
Null samples used in CRC calculations : Yes
Used interface : Native Win32 interface for Win NT & 2000
Gap handling : Appended to previous track

Used output format : User Defined Encoder
Selected bitrate : 1024 kBit/s
Quality : High
Add ID3 tag : No
Command line compressor : C:\Program Files (x86)\Exact Audio Copy_v1.3\Flac\flac.exe
Additional command line options : -8 -V -T "ARTIST=%artist%" -T "TITLE=%title%" -T "ALBUM=%albumtitle%" -T "DATE=%year%" -T "TRACKNUMBER=%tracknr%" -T "TOTALTRACKS=%numtracks%" -T "GENRE=%genre%" -T "ALBUMARTIST=%albumartist%" -T "ALBUM ARTIST=%albumartist%" -T "COMMENT=EAC Secure Mode, Test & Copy, AccurateRip, FLAC -8" %source%


TOC of the extracted CD

Track | Start | Length | Start sector | End sector
––––––––––––––––––––––––––––-
1 | 0:00.00 | 2:31.18 | 0 | 11342
2 | 2:31.18 | 2:01.67 | 11343 | 20484
3 | 4:33.10 | 2:34.62 | 20485 | 32096
4 | 7:07.72 | 2:16.64 | 32097 | 42360
5 | 9:24.61 | 2:50.70 | 42361 | 55180
6 | 12:15.56 | 2:18.13 | 55181 | 65543
7 | 14:33.69 | 2:31.10 | 65544 | 76878
8 | 17:05.04 | 2:40.52 | 76879 | 88930
9 | 19:45.56 | 3:00.17 | 88931 | 102447
10 | 22:45.73 | 2:39.17 | 102448 | 114389
11 | 25:25.15 | 3:07.41 | 114390 | 128455
12 | 28:32.56 | 2:15.73 | 128456 | 138653
13 | 30:48.54 | 2:22.07 | 138654 | 149310
14 | 33:10.61 | 2:21.56 | 149311 | 159941
15 | 35:32.42 | 0:49.55 | 159942 | 163671
16 | 36:22.22 | 2:13.06 | 163672 | 173652
17 | 38:35.28 | 2:20.01 | 173653 | 184153
18 | 40:55.29 | 1:38.00 | 184154 | 191503
19 | 42:33.29 | 2:40.63 | 191504 | 203566


Track 1

Filename F:\_EAC\Chad & Jeremy - Sing For You (1965) [FLAC] (Japan 2007)\01 - Yesterday's Gone.wav

Pre-gap length 0:00:02.00

Peak level 92.7 %
Extraction speed 4.4 X
Track quality 100.0 %
Test CRC E3297332
Copy CRC E3297332
Track not present in AccurateRip database
Copy OK

Track 2

Filename F:\_EAC\Chad & Jeremy - Sing For You (1965) [FLAC] (Japan 2007)\02 - If She Was Mine.wav

Peak level 87.1 %
Extraction speed 4.4 X
Track quality 100.0 %
Test CRC 6968B5EC
Copy CRC 6968B5EC
Track not present in AccurateRip database
Copy OK

Track 3

Filename F:\_EAC\Chad & Jeremy - Sing For You (1965) [FLAC] (Japan 2007)\03 - Willow Weep For Me.wav

Peak level 88.5 %
Extraction speed 4.9 X
Track quality 100.0 %
Test CRC 44ABEE94
Copy CRC 44ABEE94
Track not present in AccurateRip database
Copy OK

Track 4

Filename F:\_EAC\Chad & Jeremy - Sing For You (1965) [FLAC] (Japan 2007)\04 - No Tears For Johnny.wav

Peak level 79.7 %
Extraction speed 5.0 X
Track quality 100.0 %
Test CRC B813B616
Copy CRC B813B616
Track not present in AccurateRip database
Copy OK

Track 5

Filename F:\_EAC\Chad & Jeremy - Sing For You (1965) [FLAC] (Japan 2007)\05 - The Truth Often Hurts The Heart.wav

Peak level 93.3 %
Extraction speed 5.4 X
Track quality 100.0 %
Test CRC 8D0AC6A0
Copy CRC 8D0AC6A0
Track not present in AccurateRip database
Copy OK

Track 6

Filename F:\_EAC\Chad & Jeremy - Sing For You (1965) [FLAC] (Japan 2007)\06 - If I Loved You.wav

Peak level 90.3 %
Extraction speed 5.4 X
Track quality 100.0 %
Test CRC F6960845
Copy CRC F6960845
Track not present in AccurateRip database
Copy OK

Track 7

Filename F:\_EAC\Chad & Jeremy - Sing For You (1965) [FLAC] (Japan 2007)\07 - September In The Rain.wav

Peak level 75.8 %
Extraction speed 5.7 X
Track quality 100.0 %
Test CRC 56198489
Copy CRC 56198489
Track not present in AccurateRip database
Copy OK

Track 8

Filename F:\_EAC\Chad & Jeremy - Sing For You (1965) [FLAC] (Japan 2007)\08 - Like I Love You Today.wav

Peak level 96.5 %
Extraction speed 4.6 X
Track quality 99.9 %
Test CRC F327ADD1
Copy CRC F327ADD1
Track not present in AccurateRip database
Copy OK

Track 9

Filename F:\_EAC\Chad & Jeremy - Sing For You (1965) [FLAC] (Japan 2007)\09 - Donna Donna.wav

Peak level 88.7 %
Extraction speed 5.0 X
Track quality 99.9 %
Test CRC 3B3FB4DA
Copy CRC 3B3FB4DA
Track not present in AccurateRip database
Copy OK

Track 10

Filename F:\_EAC\Chad & Jeremy - Sing For You (1965) [FLAC] (Japan 2007)\10 - A Summer Song.wav

Peak level 85.5 %
Extraction speed 6.4 X
Track quality 100.0 %
Test CRC FBCC96D4
Copy CRC FBCC96D4
Track not present in AccurateRip database
Copy OK

Track 11

Filename F:\_EAC\Chad & Jeremy - Sing For You (1965) [FLAC] (Japan 2007)\11 - Dirty Old Town.wav

Peak level 86.6 %
Extraction speed 5.4 X
Track quality 99.9 %
Test CRC FEBA4483
Copy CRC FEBA4483
Track not present in AccurateRip database
Copy OK

Track 12

Filename F:\_EAC\Chad & Jeremy - Sing For You (1965) [FLAC] (Japan 2007)\12 - From A Window.wav

Peak level 94.0 %
Extraction speed 6.6 X
Track quality 100.0 %
Test CRC 708B5CC5
Copy CRC 708B5CC5
Track not present in AccurateRip database
Copy OK

Track 13

Filename F:\_EAC\Chad & Jeremy - Sing For You (1965) [FLAC] (Japan 2007)\13 - If I Had My Way (Live).wav

Pre-gap length 0:00:07.12

Peak level 72.3 %
Extraction speed 5.0 X
Track quality 99.9 %
Test CRC 3C6020B2
Copy CRC 3C6020B2
Track not present in AccurateRip database
Copy OK

Track 14

Filename F:\_EAC\Chad & Jeremy - Sing For You (1965) [FLAC] (Japan 2007)\14 - The Morning (Live).wav

Peak level 82.7 %
Extraction speed 5.1 X
Track quality 99.9 %
Test CRC 9B8D5E1A
Copy CRC 9B8D5E1A
Track not present in AccurateRip database
Copy OK

Track 15

Filename F:\_EAC\Chad & Jeremy - Sing For You (1965) [FLAC] (Japan 2007)\15 - Ain't That Just Like Me (Live).wav

Peak level 76.3 %
Extraction speed 4.9 X
Track quality 100.0 %
Test CRC AAF13D17
Copy CRC AAF13D17
Track not present in AccurateRip database
Copy OK

Track 16

Filename F:\_EAC\Chad & Jeremy - Sing For You (1965) [FLAC] (Japan 2007)\16 - If I Had A Hammer (Live).wav

Peak level 78.2 %
Extraction speed 7.1 X
Track quality 100.0 %
Test CRC 8BB3F205
Copy CRC 8BB3F205
Track not present in AccurateRip database
Copy OK

Track 17

Filename F:\_EAC\Chad & Jeremy - Sing For You (1965) [FLAC] (Japan 2007)\17 - Yesterday's Gone (Live).wav

Peak level 76.9 %
Extraction speed 6.9 X
Track quality 100.0 %
Test CRC 1E0EB330
Copy CRC 1E0EB330
Track not present in AccurateRip database
Copy OK

Track 18

Filename F:\_EAC\Chad & Jeremy - Sing For You (1965) [FLAC] (Japan 2007)\18 - Stanley & Dora (Live).wav

Peak level 65.5 %
Extraction speed 7.9 X
Track quality 100.0 %
Test CRC 1C59B82A
Copy CRC 1C59B82A
Track not present in AccurateRip database
Copy OK

Track 19

Filename F:\_EAC\Chad & Jeremy - Sing For You (1965) [FLAC] (Japan 2007)\19 - A Summer Song (Alternate).wav

Peak level 64.0 %
Extraction speed 7.6 X
Track quality 100.0 %
Test CRC 4B920F6F
Copy CRC 4B920F6F
Track not present in AccurateRip database
Copy OK


None of the tracks are present in the AccurateRip database

No errors occurred

End of status report

–– CUETools DB Plugin V2.1.6

[CTDB TOCID: SRMILYwNSz49xat41vJ8H6YDTww-] disk not present in database
Submit result: SRMILYwNSz49xat41vJ8H6YDTww- has been uploaded


==== Log checksum 28EC700D477B25830CDA63B946A36398FBECAF8351D3B59B5FBEDD4368FC5FD9 ====


Chad & Jeremy - Sing For You (1965) {Ember--Air Mail Japan, AIRAC-1315, Paper Sleeve rel 2007}

Chad & Jeremy - Sing For You (1965) {Ember--Air Mail Japan, AIRAC-1315, Paper Sleeve rel 2007}


see more Chad & Jeremy …


===