Subcategories
Tags
Language
Tags

Charli XCX - Charli (Japanese Edition) (2019)

Posted By: delpotro
Charli XCX - Charli (Japanese Edition) (2019)

Charli XCX - Charli (Japanese Edition) (2019)
EAC Rip | FLAC (tracks+log+.cue) - 437 Mb | MP3 CBR 320 kbps - 157 Mb | Scans - 155 Mb | 01:01:22
Pop, Female Vocal | Label: Asylum Records, Atlantic Records, Warner Records Japan

Charli is the third studio album by English singer Charli XCX. It was released through Asylum and Atlantic Records UK on 13 September 2019. Charli XCX's initial third studio album was planned for release in 2017, but was scrapped in its entirety following online leaks. The album will be supported by a world tour, beginning in Atlanta on 20 September 2019. Charli was preceded by the singles "1999" with Troye Sivan, "Blame It on Your Love" featuring Lizzo, and "Gone" with Christine and the Queens. Charli was also promoted by the promotional singles "Cross You Out" featuring Sky Ferreira, "Warm" featuring Haim, "February 2017" featuring Clairo and Yaeji, and "2099" also featuring Sivan. Upon release, the album was met with critical acclaim, with praise centered on the album's innovative production and songwriting.

At Metacritic, which assigns a normalised rating out of 100 to reviews from mainstream critics, Charli received an average score of 81 based on 20 reviews, indicating universal acclaim. At AnyDecentMusic?, which uses a weighted formula to find an average rating out of 10, Charli received a score of 7.6 based on 22 reviews.

In a perfect 5-star review, Bethany Davison of The Skinny wrote "Charli is an expansive record, flooded with joy and heartache, consolidated in its array of features. Alongside indulgently unadorned ruminations on fear and love, the record is boundlessly liberating, decadently indulgent, and irresistibly danceable. Aitchison has delivered her greatest work yet". Valerie Magan of Clash awared the album 9/10, commenting "'Charli' is no doubt an album of too many features and too many parts, but it somehow all fits together in a way that allows her penchant for unconventional songwriting and her ear for an exciting melody to work in concert, creating a project better than most anything she’s done in the past". Hannah Mylrea of NME stated that Charli is "Bold, brash and brilliant, this is Charli XCX at her most genuine, and it's dazzling." Neil McCormick of The Telegraph commented that "The sexy android cover and star-studded collaborations (including alternative icons Lizzo, Haim and Christine and the Queens) on her third album, Charli, suggest an all-guns-blazing pitch for blockbuster status. But the contents are far weirder than that implies. […] Come the century's end, you can almost imagine future critics scratching their AI-augmented brains and still touting Charli XCX as the next big thing." The Line of Best Fit gave the album the "Album of the Week" designation, with Claire Biddles adding that "Charli is almost there. Ultimately she's too gloriously messy and multitudinous to produce such a thing. Although she could often benefit from an editor, her process and vision doesn't adhere to the music industry's prioritisation of the album format – which feels right for an artist whose music could be read as an attempt to dissolve time itself."
Tracklist:
01. Charli XCX - Next Level Charli (2:39)
02. Charli XCX & Christine and the Queens - Gone (4:06)
03. Charli XCX feat. Sky Ferreira - Cross You Out (3:28)
04. Charli XCX & Troye Sivan - 1999 (3:09)
05. Charli XCX feat. Kim Petras and Tommy Cash - Click (3:53)
06. Charli XCX feat. HAIM - Warm (3:45)
07. Charli XCX - Thoughts (3:11)
08. Charli XCX feat. Lizzo - Blame It On Your Love (3:12)
09. Charli XCX - White Mercedes (3:23)
10. Charli XCX - Silver Cross (3:28)
11. Charli XCX - I Don't Wanna Know (3:05)
12. Charli XCX - Official (3:05)
13. Charli XCX feat. Big Freedia, CupcakKe, Brooke Candy and Pabllo Vittar - Shake It (4:35)
14. Charli XCX feat. Clairo and Yaeji - February 2017 (2:33)
15. Charli XCX feat. Troye Sivan - 2099 (3:29)
16. Charli XCX with Christine and the Queens - Gone (Clarence Clarity Remix) (3:51)
17. Charli XCX feat. Lizzo - Blame It On Your Love (Kat Krazy Remix) (2:31)
18. Charli XCX feat. Troye Sivan - 1999 (Alphalove Remix) (3:58)

Exact Audio Copy V1.3 from 2. September 2016

EAC extraction logfile from 26. September 2019, 18:59

Charli XCX / Charli

Used drive : ASUS BW-16D1HT Adapter: 1 ID: 0

Read mode : Secure
Utilize accurate stream : Yes
Defeat audio cache : Yes
Make use of C2 pointers : No

Read offset correction : 6
Overread into Lead-In and Lead-Out : No
Fill up missing offset samples with silence : Yes
Delete leading and trailing silent blocks : No
Null samples used in CRC calculations : Yes
Used interface : Native Win32 interface for Win NT & 2000
Gap handling : Appended to previous track

Used output format : User Defined Encoder
Selected bitrate : 896 kBit/s
Quality : High
Add ID3 tag : No
Command line compressor : C:\Program Files (x86)\Exact Audio Copy\Flac\flac.exe
Additional command line options : -V -8 -T "Genre=%genre%" -T "Artist=%artist%" -T "Title=%title%" -T "Album=%albumtitle%" -T "Totaldiscs=%totalcds%" -T "Discnumber=%cdnumber%" -T "Date=%year%" -T "Tracknumber=%tracknr%" -T "Comment=%comment%" -T "Composer=%composer%" %source%


TOC of the extracted CD

Track | Start | Length | Start sector | End sector
––––––––––––––––––––––––––––-
1 | 0:00.00 | 2:38.47 | 0 | 11896
2 | 2:38.47 | 4:06.36 | 11897 | 30382
3 | 6:45.08 | 3:28.29 | 30383 | 46011
4 | 10:13.37 | 3:09.15 | 46012 | 60201
5 | 13:22.52 | 3:53.22 | 60202 | 77698
6 | 17:15.74 | 3:45.20 | 77699 | 94593
7 | 21:01.19 | 3:11.04 | 94594 | 108922
8 | 24:12.23 | 3:11.38 | 108923 | 123285
9 | 27:23.61 | 3:23.10 | 123286 | 138520
10 | 30:46.71 | 3:28.34 | 138521 | 154154
11 | 34:15.30 | 3:05.01 | 154155 | 168030
12 | 37:20.31 | 3:04.56 | 168031 | 181886
13 | 40:25.12 | 4:35.03 | 181887 | 202514
14 | 45:00.15 | 2:33.07 | 202515 | 213996
15 | 47:33.22 | 3:28.53 | 213997 | 229649
16 | 51:02.00 | 3:51.31 | 229650 | 247005
17 | 54:53.31 | 2:31.06 | 247006 | 258336
18 | 57:24.37 | 3:57.46 | 258337 | 276157


Track 1

Filename D:\CDrip\01. Next Level Charli.wav

Pre-gap length 0:00:02.00

Peak level 98.9 %
Extraction speed 4.6 X
Track quality 100.0 %
Test CRC 72988346
Copy CRC 72988346
Track not present in AccurateRip database
Copy OK

Track 2

Filename D:\CDrip\02. Gone.wav

Peak level 98.8 %
Extraction speed 5.3 X
Track quality 100.0 %
Test CRC D00DE0A6
Copy CRC D00DE0A6
Track not present in AccurateRip database
Copy OK

Track 3

Filename D:\CDrip\03. Cross You Out.wav

Peak level 98.9 %
Extraction speed 5.7 X
Track quality 100.0 %
Test CRC 59BF1B84
Copy CRC 59BF1B84
Track not present in AccurateRip database
Copy OK

Track 4

Filename D:\CDrip\04. 1999.wav

Peak level 98.9 %
Extraction speed 5.1 X
Track quality 99.9 %
Test CRC 531D8B17
Copy CRC 531D8B17
Track not present in AccurateRip database
Copy OK

Track 5

Filename D:\CDrip\05. Click.wav

Peak level 98.9 %
Extraction speed 6.4 X
Track quality 100.0 %
Test CRC AE30206B
Copy CRC AE30206B
Track not present in AccurateRip database
Copy OK

Track 6

Filename D:\CDrip\06. Warm.wav

Peak level 98.9 %
Extraction speed 6.8 X
Track quality 100.0 %
Test CRC 7F29AAFB
Copy CRC 7F29AAFB
Track not present in AccurateRip database
Copy OK

Track 7

Filename D:\CDrip\07. Thoughts.wav

Peak level 98.9 %
Extraction speed 6.9 X
Track quality 100.0 %
Test CRC ED0D5889
Copy CRC ED0D5889
Track not present in AccurateRip database
Copy OK

Track 8

Filename D:\CDrip\08. Blame It On Your Love.wav

Peak level 98.9 %
Extraction speed 7.2 X
Track quality 100.0 %
Test CRC 50C2951B
Copy CRC 50C2951B
Track not present in AccurateRip database
Copy OK

Track 9

Filename D:\CDrip\09. White Mercedes.wav

Peak level 98.8 %
Extraction speed 7.5 X
Track quality 100.0 %
Test CRC C79B9FFF
Copy CRC C79B9FFF
Track not present in AccurateRip database
Copy OK

Track 10

Filename D:\CDrip\10. Silver Cross.wav

Peak level 98.9 %
Extraction speed 6.8 X
Track quality 99.9 %
Test CRC AFF8B566
Copy CRC AFF8B566
Track not present in AccurateRip database
Copy OK

Track 11

Filename D:\CDrip\11. I Don't Wanna Know.wav

Peak level 98.9 %
Extraction speed 7.9 X
Track quality 100.0 %
Test CRC 2C257273
Copy CRC 2C257273
Track not present in AccurateRip database
Copy OK

Track 12

Filename D:\CDrip\12. Official.wav

Peak level 98.9 %
Extraction speed 8.1 X
Track quality 100.0 %
Test CRC 8AC45DB0
Copy CRC 8AC45DB0
Track not present in AccurateRip database
Copy OK

Track 13

Filename D:\CDrip\13. Shake It.wav

Peak level 98.9 %
Extraction speed 8.7 X
Track quality 100.0 %
Test CRC 803C0822
Copy CRC 803C0822
Track not present in AccurateRip database
Copy OK

Track 14

Filename D:\CDrip\14. February 2017.wav

Peak level 98.9 %
Extraction speed 8.3 X
Track quality 100.0 %
Test CRC 1ECEAAA3
Copy CRC 1ECEAAA3
Track not present in AccurateRip database
Copy OK

Track 15

Filename D:\CDrip\15. 2099.wav

Peak level 98.9 %
Extraction speed 8.9 X
Track quality 100.0 %
Test CRC 6E1E20FD
Copy CRC 6E1E20FD
Track not present in AccurateRip database
Copy OK

Track 16

Filename D:\CDrip\16. Gone (Clarence Clarity Remix).wav

Pre-gap length 0:00:01.37

Peak level 100.0 %
Extraction speed 8.2 X
Track quality 99.9 %
Test CRC 94091F36
Copy CRC 94091F36
Track not present in AccurateRip database
Copy OK

Track 17

Filename D:\CDrip\17. Blame It On Your Love (Kat Krazy Remix).wav

Peak level 99.9 %
Extraction speed 7.5 X
Track quality 99.9 %
Test CRC FD27BFFC
Copy CRC FD27BFFC
Track not present in AccurateRip database
Copy OK

Track 18

Filename D:\CDrip\18. 1999 (Alphalove Remix).wav

Peak level 97.0 %
Extraction speed 9.6 X
Track quality 100.0 %
Test CRC 69A6130E
Copy CRC 69A6130E
Track not present in AccurateRip database
Copy OK


None of the tracks are present in the AccurateRip database

No errors occurred

End of status report

–– CUETools DB Plugin V2.1.6

[CTDB TOCID: aV1lqsC4rPGJ0ZR4_AnQlGeZLm4-] found
Submit result: aV1lqsC4rPGJ0ZR4_AnQlGeZLm4- has been confirmed
Track | CTDB Status
1 | (4/4) Accurately ripped
2 | (4/4) Accurately ripped
3 | (4/4) Accurately ripped
4 | (4/4) Accurately ripped
5 | (4/4) Accurately ripped
6 | (4/4) Accurately ripped
7 | (4/4) Accurately ripped
8 | (4/4) Accurately ripped
9 | (4/4) Accurately ripped
10 | (4/4) Accurately ripped
11 | (4/4) Accurately ripped
12 | (4/4) Accurately ripped
13 | (4/4) Accurately ripped
14 | (4/4) Accurately ripped
15 | (4/4) Accurately ripped
16 | (4/4) Accurately ripped
17 | (4/4) Accurately ripped
18 | (4/4) Accurately ripped


==== Log checksum F0FAE0A4C56F842A2469EC42D3B172CC973AECEB0EB24E8128A1C34D33FF7B6F ====

Thanks to the Original ripper alxsha !