Subcategories

Charlie Parker - Big Band (1950-1953) {Verve Master Edition 24bit rel 1999}

Posted By: ruskaval
Charlie Parker - Big Band (1950-1953) {Verve Master Edition 24bit rel 1999}

Charlie Parker - Big Band (1950-1953) {Verve Master Edition 24bit rel 1999}
EAC rip (secure mode) | FLAC (tracks)+CUE+LOG -> 217 Mb | MP3 @320 -> 138 Mb
Full Artwork @ 600 dpi (jpg) -> 449 Mb | 5% repair rar
© 1950-53, 1999 Clef Records / Verve / PolyGram Records | 559 835-2
Jazz / Bop / Bebop / Big Band / Saxophone

A reissue of the original 1952 Clef recording session, this is one of the few instances in Charlie Parker's later career where he played with something other than a small bebop group. Under contract at the time to Clef's Norman Granz, Parker was encouraged by the label to make recordings that took him out of his familiar settings and put him in with string arrangements, Latin rhythms, and larger band formats. This recording is the result of one of these experiments. Though Joe Lipman's arrangements are stellar, the musicians assembled for the sessions are an odd mix of pop-oriented big-band players and improvisers.

The album also suffers from the pop orientation of the songs themselves: solos are kept short, and songs limited to a three-minute length that was both radio-friendly and compatible with the 78-rpm format. But when Parker does solo, it is just as magical as any of his earlier recordings. The songs also have a sweet smoothness to them that makes them eminently enjoyable. This record is not perfect, but it still musters up moments of brilliance. The reissue is even more fascinating than the original, containing 10 bonus tracks which are alternative takes of the top singles on the album.
Charlie Parker - Big Band (1950-1953) {Verve Master Edition 24bit rel 1999}


Personnel:
Charlie Parker – alto saxophone
Gil Evans, Joe Lipman – arranger, conductor
Ray Brown, Charles Mingus, Bob Haggart – double bass
Manny Thaler – bassoon
Maurice Brown – cello
Hal McKusick – clarinet
Buddy Rich, Max Roach, Don Lamond – drums
Stanley Webb – flute, oboe, baritone saxophone
Al Block – flute
Junior Collins, Joseph Singer – french horn
Oscar Peterson – piano
Flip Phillips – tenor saxophone
Will Bradley – trombone, trumpet
Freddie Green, Art Ryerson – guitar
Verlye Mills – harp
Tommy Mace – oboe
Tony Aless, Bernie Leighton, Lou Stein – piano
Nuncio "Toots" Mondello, Murray Williams – alto saxophone, woodwind
Harry Terrill – alto saxophone
Danny Bank – baritone saxophone
Art Drelinger, Hank Ross – tenor saxophone, woodwind
Bill Harris, Lou McGarity – trombone
Chris Griffin, Jimmy Maxwell, Bernie Pivin, Carl Poole, Al Porcino – trumpet
Isadore Zir – viola
Howard Kay, Harry Melnikoff, Samuel Rand, Sylvan Shulman, Zelly Smirnoff, Jack Zayde – violin
Dave Lambert – vocals

Norman Granz – producer

tracklist:
01 - Temptation
02 - Autumn In New York
03 - Lover
04 - Stella By Starlight
05 - Dancing In The Dark
06 - Night And Day
07 - I Can't Get Started
08 - What Is This Thing Called Love_
09 - Almost Like Being In Love
10 - Laura
11 - In The Still Of The Night
12 - Old Folks
13 - If I Love Again
14 - In The Still Of The Night - Alternative Take
15 - In The Still Of The Night - Alternative Take
16 - In The Still Of The Night - Alternative Take
17 - Old Folks - Alternative Take
18 - Old Folks - Alternative Take
19 - Old Folks - Alternative Take
20 - In The Still Of The Night - Incomplete Take
21 - In The Still Of The Night - Incomplete Take
22 - Old Folks - Incomplete Take
23 - Old Folks - Incomplete Take
24 - Old Folks - Incomplete Take

Exact Audio Copy V1.1 from 23. June 2015

EAC extraction logfile from 26. October 2017, 20:47

Charlie Parker / Big Band

Used drive : TSSTcorpCDDVDW SE-208DB Adapter: 1 ID: 1

Read mode : Secure
Utilize accurate stream : Yes
Defeat audio cache : Yes
Make use of C2 pointers : No

Read offset correction : 6
Overread into Lead-In and Lead-Out : No
Fill up missing offset samples with silence : Yes
Delete leading and trailing silent blocks : No
Null samples used in CRC calculations : Yes
Used interface : Native Win32 interface for Win NT & 2000
Gap handling : Appended to previous track

Used output format : User Defined Encoder
Selected bitrate : 1024 kBit/s
Quality : High
Add ID3 tag : No
Command line compressor : C:\Program Files (x86)\FLAC Frontend\tools\flac.exe
Additional command line options : -8 -V -T "ARTIST=%artist%" -T "TITLE=%title%" -T "ALBUM=%albumtitle%" -T "DATE=%year%" -T "TRACKNUMBER=%tracknr%" -T "TOTALTRACKS=%numtracks%" -T "GENRE=%genre%" -T "ALBUMARTIST=%albumartist%" -T "ALBUM ARTIST=%albumartist%" -T "COMMENT=EAC Secure Mode, Test & Copy, AccurateRip, FLAC -8" %source%


TOC of the extracted CD

Track | Start | Length | Start sector | End sector
––––––––––––––––––––––––––––-
1 | 0:00.33 | 3:33.40 | 33 | 16047
2 | 3:33.73 | 3:31.22 | 16048 | 31894
3 | 7:05.20 | 3:08.73 | 31895 | 46067
4 | 10:14.18 | 2:58.50 | 46068 | 59467
5 | 13:12.68 | 3:16.12 | 59468 | 74179
6 | 16:29.05 | 2:52.73 | 74180 | 87152
7 | 19:22.03 | 3:10.37 | 87153 | 101439
8 | 22:32.40 | 2:39.10 | 101440 | 113374
9 | 25:11.50 | 2:38.18 | 113375 | 125242
10 | 27:49.68 | 3:09.67 | 125243 | 139484
11 | 30:59.60 | 3:28.00 | 139485 | 155084
12 | 34:27.60 | 3:38.10 | 155085 | 171444
13 | 38:05.70 | 2:38.08 | 171445 | 183302
14 | 40:44.03 | 3:53.27 | 183303 | 200804
15 | 44:37.30 | 3:31.73 | 200805 | 216702
16 | 48:09.28 | 3:36.70 | 216703 | 232972
17 | 51:46.23 | 4:12.15 | 232973 | 251887
18 | 55:58.38 | 3:37.65 | 251888 | 268227
19 | 59:36.28 | 3:41.50 | 268228 | 284852
20 | 63:18.03 | 1:27.17 | 284853 | 291394
21 | 64:45.20 | 0:45.20 | 291395 | 294789
22 | 65:30.40 | 0:46.53 | 294790 | 298292
23 | 66:17.18 | 0:39.20 | 298293 | 301237
24 | 66:56.38 | 0:29.70 | 301238 | 303482


Track 1

Filename D:\_EAC\Charlie Parker - Big Band (1999) [FLAC]\01 - Temptation.wav

Pre-gap length 0:00:02.33

Peak level 78.9 %
Extraction speed 1.0 X
Track quality 100.0 %
Test CRC BD56A301
Copy CRC BD56A301
Track not present in AccurateRip database
Copy OK

Track 2

Filename D:\_EAC\Charlie Parker - Big Band (1999) [FLAC]\02 - Autumn In New York.wav

Pre-gap length 0:00:03.08

Peak level 100.0 %
Extraction speed 1.1 X
Track quality 100.0 %
Test CRC 2C573180
Copy CRC 2C573180
Track not present in AccurateRip database
Copy OK

Track 3

Filename D:\_EAC\Charlie Parker - Big Band (1999) [FLAC]\03 - Lover.wav

Pre-gap length 0:00:02.67

Peak level 75.4 %
Extraction speed 1.2 X
Track quality 100.0 %
Test CRC 9E7793D1
Copy CRC 9E7793D1
Track not present in AccurateRip database
Copy OK

Track 4

Filename D:\_EAC\Charlie Parker - Big Band (1999) [FLAC]\04 - Stella By Starlight.wav

Pre-gap length 0:00:02.68

Peak level 86.5 %
Extraction speed 1.2 X
Track quality 100.0 %
Test CRC 83CA39F2
Copy CRC 83CA39F2
Track not present in AccurateRip database
Copy OK

Track 5

Filename D:\_EAC\Charlie Parker - Big Band (1999) [FLAC]\05 - Dancing In The Dark.wav

Pre-gap length 0:00:03.08

Peak level 82.0 %
Extraction speed 1.2 X
Track quality 100.0 %
Test CRC 9FE5CAA7
Copy CRC 9FE5CAA7
Track not present in AccurateRip database
Copy OK

Track 6

Filename D:\_EAC\Charlie Parker - Big Band (1999) [FLAC]\06 - Night And Day.wav

Pre-gap length 0:00:06.02

Peak level 88.2 %
Extraction speed 1.0 X
Track quality 99.9 %
Test CRC 3CB1C452
Copy CRC 3CB1C452
Track not present in AccurateRip database
Copy OK

Track 7

Filename D:\_EAC\Charlie Parker - Big Band (1999) [FLAC]\07 - I Can't Get Started.wav

Pre-gap length 0:00:03.05

Peak level 91.7 %
Extraction speed 1.4 X
Track quality 100.0 %
Test CRC C55F34FF
Copy CRC C55F34FF
Track not present in AccurateRip database
Copy OK

Track 8

Filename D:\_EAC\Charlie Parker - Big Band (1999) [FLAC]\08 - What Is This Thing Called Love_.wav

Pre-gap length 0:00:02.65

Peak level 90.2 %
Extraction speed 1.3 X
Track quality 100.0 %
Test CRC 62CF767C
Copy CRC 62CF767C
Track not present in AccurateRip database
Copy OK

Track 9

Filename D:\_EAC\Charlie Parker - Big Band (1999) [FLAC]\09 - Almost Like Being In Love.wav

Pre-gap length 0:00:03.07

Peak level 88.8 %
Extraction speed 1.3 X
Track quality 100.0 %
Test CRC 03FF0820
Copy CRC 03FF0820
Track not present in AccurateRip database
Copy OK

Track 10

Filename D:\_EAC\Charlie Parker - Big Band (1999) [FLAC]\10 - Laura.wav

Pre-gap length 0:00:04.60

Peak level 97.2 %
Extraction speed 1.0 X
Track quality 99.9 %
Test CRC 32E4A8EC
Copy CRC 32E4A8EC
Track not present in AccurateRip database
Copy OK

Track 11

Filename D:\_EAC\Charlie Parker - Big Band (1999) [FLAC]\11 - In The Still Of The Night.wav

Pre-gap length 0:00:13.25

Peak level 99.9 %
Extraction speed 1.5 X
Track quality 100.0 %
Test CRC E7FA1851
Copy CRC E7FA1851
Track not present in AccurateRip database
Copy OK

Track 12

Filename D:\_EAC\Charlie Parker - Big Band (1999) [FLAC]\12 - Old Folks.wav

Pre-gap length 0:00:04.40

Peak level 99.9 %
Extraction speed 1.4 X
Track quality 99.9 %
Test CRC E9EF159B
Copy CRC E9EF159B
Track not present in AccurateRip database
Copy OK

Track 13

Filename D:\_EAC\Charlie Parker - Big Band (1999) [FLAC]\13 - If I Love Again.wav

Pre-gap length 0:00:03.05

Peak level 78.2 %
Extraction speed 1.2 X
Track quality 100.0 %
Test CRC 8BAD2397
Copy CRC 8BAD2397
Track not present in AccurateRip database
Copy OK

Track 14

Filename D:\_EAC\Charlie Parker - Big Band (1999) [FLAC]\14 - In The Still Of The Night - Alternative Take.wav

Pre-gap length 0:00:12.65

Peak level 83.4 %
Extraction speed 1.4 X
Track quality 99.9 %
Test CRC 509B7BC5
Copy CRC 509B7BC5
Track not present in AccurateRip database
Copy OK

Track 15

Filename D:\_EAC\Charlie Parker - Big Band (1999) [FLAC]\15 - In The Still Of The Night - Alternative Take.wav

Pre-gap length 0:00:06.62

Peak level 99.9 %
Extraction speed 1.5 X
Track quality 100.0 %
Test CRC F86BF452
Copy CRC F86BF452
Track not present in AccurateRip database
Copy OK

Track 16

Filename D:\_EAC\Charlie Parker - Big Band (1999) [FLAC]\16 - In The Still Of The Night - Alternative Take.wav

Pre-gap length 0:00:10.33

Peak level 86.3 %
Extraction speed 1.5 X
Track quality 100.0 %
Test CRC 53B2414A
Copy CRC 53B2414A
Track not present in AccurateRip database
Copy OK

Track 17

Filename D:\_EAC\Charlie Parker - Big Band (1999) [FLAC]\17 - Old Folks - Alternative Take.wav

Pre-gap length 0:00:10.48

Peak level 92.4 %
Extraction speed 1.7 X
Track quality 100.0 %
Test CRC 9DC5AE36
Copy CRC 9DC5AE36
Track not present in AccurateRip database
Copy OK

Track 18

Filename D:\_EAC\Charlie Parker - Big Band (1999) [FLAC]\18 - Old Folks - Alternative Take.wav

Pre-gap length 0:00:08.11

Peak level 90.8 %
Extraction speed 1.6 X
Track quality 100.0 %
Test CRC B01C9858
Copy CRC B01C9858
Track not present in AccurateRip database
Copy OK

Track 19

Filename D:\_EAC\Charlie Parker - Big Band (1999) [FLAC]\19 - Old Folks - Alternative Take.wav

Pre-gap length 0:00:09.53

Peak level 93.9 %
Extraction speed 1.6 X
Track quality 100.0 %
Test CRC 9CA47CDA
Copy CRC 9CA47CDA
Track not present in AccurateRip database
Copy OK

Track 20

Filename D:\_EAC\Charlie Parker - Big Band (1999) [FLAC]\20 - In The Still Of The Night - Incomplete Take.wav

Pre-gap length 0:00:08.50

Peak level 68.8 %
Extraction speed 1.4 X
Track quality 100.0 %
Test CRC B6751912
Copy CRC B6751912
Track not present in AccurateRip database
Copy OK

Track 21

Filename D:\_EAC\Charlie Parker - Big Band (1999) [FLAC]\21 - In The Still Of The Night - Incomplete Take.wav

Pre-gap length 0:00:01.60

Peak level 66.0 %
Extraction speed 1.1 X
Track quality 100.0 %
Test CRC D6163820
Copy CRC D6163820
Track not present in AccurateRip database
Copy OK

Track 22

Filename D:\_EAC\Charlie Parker - Big Band (1999) [FLAC]\22 - Old Folks - Incomplete Take.wav

Pre-gap length 0:00:02.10

Peak level 78.6 %
Extraction speed 1.1 X
Track quality 100.0 %
Test CRC D6AC3711
Copy CRC D6AC3711
Track not present in AccurateRip database
Copy OK

Track 23

Filename D:\_EAC\Charlie Parker - Big Band (1999) [FLAC]\23 - Old Folks - Incomplete Take.wav

Pre-gap length 0:00:02.50

Peak level 49.1 %
Extraction speed 1.0 X
Track quality 100.0 %
Test CRC 64AD9366
Copy CRC 64AD9366
Track not present in AccurateRip database
Copy OK

Track 24

Filename D:\_EAC\Charlie Parker - Big Band (1999) [FLAC]\24 - Old Folks - Incomplete Take.wav

Pre-gap length 0:00:01.05

Peak level 45.2 %
Extraction speed 0.9 X
Track quality 100.0 %
Test CRC 90474E7A
Copy CRC 90474E7A
Track not present in AccurateRip database
Copy OK


None of the tracks are present in the AccurateRip database

No errors occurred

End of status report

–– CUETools DB Plugin V2.1.6

[CTDB TOCID: k15PZJ37CQKLXHCR8veLJWDw..c-] found
Submit result: k15PZJ37CQKLXHCR8veLJWDw..c- has been uploaded
Track | CTDB Status
1 | (0/8) No match
2 | (0/8) No match
3 | (0/8) No match
4 | (0/8) No match
5 | (0/8) No match
6 | (0/8) No match
7 | (0/8) No match
8 | (0/8) No match
9 | (0/8) No match
10 | (0/8) No match
11 | (0/8) No match
12 | (0/8) No match
13 | (0/8) No match
14 | (0/8) No match
15 | (0/8) No match
16 | (0/8) No match
17 | (0/8) No match
18 | (0/8) No match
19 | (0/8) No match
20 | (0/8) No match
21 | (0/8) No match
22 | (0/8) No match
23 | (0/8) No match
24 | (0/8) No match


==== Log checksum ED71869645FEF5FB9873826270ACF918F722BA2C698CF16FFE61BF948F218800 ====


Charlie Parker - Big Band (1950-1953) {Verve Master Edition 24bit rel 1999}

Charlie Parker - Big Band (1950-1953) {Verve Master Edition 24bit rel 1999}


see more Charlie Parker…


===