Subcategories

Charlie Parker Records: The Complete Collection, Vol. 15 - Miles Davis + Lester Young (2012 CP Records 233193/15 rec 1946-47}

Posted By: ruskaval
Charlie Parker Records: The Complete Collection, Vol. 15 - Miles Davis + Lester Young (2012 CP Records 233193/15 rec 1946-47}

Charlie Parker Records: The Complete Collection, Vol. 15 - Miles Davis + Lester Young (2012 CP Records 233193/15 rec 1946-47}
EAC rip (secure mode) | FLAC (tracks)+CUE+LOG -> 256 Mb | MP3 @320 -> 163 Mb
Full Artwork @ 600 dpi (jpg) -> 60 Mb | 5% repair rar
© 1946-47, 2012 Charlie Parker Records / Membran Media / Documents | 233193 / 15
Jazz / Bop / Mainstream Jazz / Trumpet / Saxophone

Exhaustive 30 CD collection from the Jazz legend's short-lived label. Contains 44 original albums (421 tracks) plus booklet. Every record-collector has run across an album with the little sax-playing bird in it's label-logo, right next to the brand name Charlie Parker Records or CP Parker Records. Turning the sleeve over, especially if it was one of the non-Parker releases, and seeing a '60s release date under the header Stereo-pact! Was as exciting an experience as it was confusing. Was the claim Bird Lives meant more literally than previously thought?

What do the Rays Nance and Barretto have to do with Charlie Parker? Who is the Satan in High Heels? When did Barney Kessel and Harold Land tame El Tigre? And what is Stereo-pact!, after all? Rumors are far and wide, speculation and misinformation abounds, while fans and experts discuss the releases of this short-lived label from the '60s at record fairs and in internet forums. But even though a discography can be found online, never before has anyone made an attempt to present the complete output of this legendary label in one set.
Charlie Parker Records: The Complete Collection, Vol. 15 - Miles Davis + Lester Young (2012 CP Records 233193/15 rec 1946-47}

Charlie Parker Records: The Complete Collection, Vol. 15 - Miles Davis + Lester Young (2012 CP Records 233193/15 rec 1946-47}

Charlie Parker Records: The Complete Collection, Vol. 15 - Miles Davis + Lester Young (2012 CP Records 233193/15 rec 1946-47}


see more INFO

============


Charlie Parker Records: The Complete Collection, Vol. 15 - Miles Davis + Lester Young (2012 CP Records 233193/15 rec 1946-47}


TRACKLISTING and PERSONNEL

Miles Davis - Many Miles Of Davis


01 - Out Of Nowhere (E. Hayman – J. Green) (4:02)
02 - A Night In Tunisia (D. Gillespie – F. Paparelli) (2:54)
03 - Yardbird Suite (C. Parker) (2:45)
04 – Ornithology (Parker – Harris) (2:51)
05 - Moose The Mooch (C. Parker) (2:55)
06 - Embraceable You (Gershwin) (3:44)
07 - Bird Of Paradise (C. Parker) (3:04)
08 - My Old Flame (Johnston – Goslow) (3:07)
09 - Don’t Blame Me (Fields – McHugh) (2:40)
10 - Scrapple From The Apple (C. Parker) (2:48)

Produced by Aubrey Mayhew

Personnel: Miles Davis, trumpet – Charlie Parker, alto-sax – Lucky Thompson, tenor-sax – Dodo Marmarosa, piano – Duke Jordan, piano – Tommy Potter, bass – Max Roach, drums

Recorded 1946/1947


Lester Young – Pres’

01 - Blues (L. Young) (3:38)
02 - Destination Moon (Jaquet) (8:42)
03 - I Cover The Waterfront (Green – Heyman) (7:12)
04 - Lester Leaps In (L. Young) (3:17)
05 - Sunday (Miller – Kahn) (7:36)
06 - These Foolish Things (Marvell – Strachey) (4:07)

Exact Audio Copy V1.3 from 2. September 2016

EAC extraction logfile from 19. February 2020, 14:52

Various Artists / Charlie Parker Records: The Complete Collection, Vol. 15

Used drive : ATAPI iHAS122 F Adapter: 1 ID: 0

Read mode : Secure
Utilize accurate stream : Yes
Defeat audio cache : Yes
Make use of C2 pointers : No

Read offset correction : 6
Overread into Lead-In and Lead-Out : No
Fill up missing offset samples with silence : Yes
Delete leading and trailing silent blocks : No
Null samples used in CRC calculations : Yes
Used interface : Native Win32 interface for Win NT & 2000
Gap handling : Appended to previous track

Used output format : User Defined Encoder
Selected bitrate : 1024 kBit/s
Quality : High
Add ID3 tag : No
Command line compressor : C:\Program Files (x86)\Exact Audio Copy_v1.3\Flac\flac.exe
Additional command line options : -8 -V -T "ARTIST=%artist%" -T "TITLE=%title%" -T "ALBUM=%albumtitle%" -T "DATE=%year%" -T "TRACKNUMBER=%tracknr%" -T "TOTALTRACKS=%numtracks%" -T "GENRE=%genre%" -T "ALBUMARTIST=%albumartist%" -T "ALBUM ARTIST=%albumartist%" -T "COMMENT=EAC Secure Mode, Test & Copy, AccurateRip, FLAC -8" %source%


TOC of the extracted CD

Track | Start | Length | Start sector | End sector
––––––––––––––––––––––––––––-
1 | 0:00.00 | 4:08.13 | 0 | 18612
2 | 4:08.13 | 3:00.02 | 18613 | 32114
3 | 7:08.15 | 2:50.63 | 32115 | 44927
4 | 9:59.03 | 2:57.12 | 44928 | 58214
5 | 12:56.15 | 3:01.00 | 58215 | 71789
6 | 15:57.15 | 3:51.73 | 71790 | 89187
7 | 19:49.13 | 3:11.39 | 89188 | 103551
8 | 23:00.52 | 3:11.23 | 103552 | 117899
9 | 26:12.00 | 2:47.46 | 117900 | 130470
10 | 28:59.46 | 2:56.16 | 130471 | 143686
11 | 31:55.62 | 3:44.16 | 143687 | 160502
12 | 35:40.03 | 8:49.51 | 160503 | 200228
13 | 44:29.54 | 7:22.23 | 200229 | 233401
14 | 51:52.02 | 3:18.48 | 233402 | 248299
15 | 55:10.50 | 7:44.48 | 248300 | 283147
16 | 62:55.23 | 4:08.24 | 283148 | 301771


Track 1

Filename F:\_EAC\Charlie Parker Records - The Complete Collection, Vol 15 (2012) [FLAC]\01 - Miles Davis - Out Of Nowhere.wav

Pre-gap length 0:00:02.00

Peak level 88.8 %
Extraction speed 4.8 X
Track quality 100.0 %
Test CRC 7FD47810
Copy CRC 7FD47810
Accurately ripped (confidence 8) [99834B5D] (AR v2)
Copy OK

Track 2

Filename F:\_EAC\Charlie Parker Records - The Complete Collection, Vol 15 (2012) [FLAC]\02 - Miles Davis - A Night In Tunisia.wav

Peak level 99.1 %
Extraction speed 4.9 X
Track quality 100.0 %
Test CRC FB9529A5
Copy CRC FB9529A5
Accurately ripped (confidence 8) [4CF74C23] (AR v2)
Copy OK

Track 3

Filename F:\_EAC\Charlie Parker Records - The Complete Collection, Vol 15 (2012) [FLAC]\03 - Miles Davis - Yardbird Suite.wav

Peak level 99.9 %
Extraction speed 5.2 X
Track quality 100.0 %
Test CRC 97C29822
Copy CRC 97C29822
Accurately ripped (confidence 8) [D06A1596] (AR v2)
Copy OK

Track 4

Filename F:\_EAC\Charlie Parker Records - The Complete Collection, Vol 15 (2012) [FLAC]\04 - Miles Davis - Ornithology.wav

Peak level 99.3 %
Extraction speed 5.4 X
Track quality 100.0 %
Test CRC 10E38FBD
Copy CRC 10E38FBD
Accurately ripped (confidence 8) [5CE41DFB] (AR v2)
Copy OK

Track 5

Filename F:\_EAC\Charlie Parker Records - The Complete Collection, Vol 15 (2012) [FLAC]\05 - Miles Davis - Moose The Mooch.wav

Peak level 98.6 %
Extraction speed 5.7 X
Track quality 100.0 %
Test CRC 94F3C9C6
Copy CRC 94F3C9C6
Accurately ripped (confidence 8) [AC210D01] (AR v2)
Copy OK

Track 6

Filename F:\_EAC\Charlie Parker Records - The Complete Collection, Vol 15 (2012) [FLAC]\06 - Miles Davis - Embraceable You.wav

Peak level 88.3 %
Extraction speed 6.2 X
Track quality 100.0 %
Test CRC A8BEC123
Copy CRC A8BEC123
Accurately ripped (confidence 8) [89A4BBED] (AR v2)
Copy OK

Track 7

Filename F:\_EAC\Charlie Parker Records - The Complete Collection, Vol 15 (2012) [FLAC]\07 - Miles Davis - Bird Of Paradise.wav

Peak level 99.8 %
Extraction speed 6.4 X
Track quality 100.0 %
Test CRC 45FAC713
Copy CRC 45FAC713
Accurately ripped (confidence 8) [301D4BF6] (AR v2)
Copy OK

Track 8

Filename F:\_EAC\Charlie Parker Records - The Complete Collection, Vol 15 (2012) [FLAC]\08 - Miles Davis - My Old Flame.wav

Peak level 92.1 %
Extraction speed 6.6 X
Track quality 100.0 %
Test CRC 14431C70
Copy CRC 14431C70
Accurately ripped (confidence 8) [C7173ED9] (AR v2)
Copy OK

Track 9

Filename F:\_EAC\Charlie Parker Records - The Complete Collection, Vol 15 (2012) [FLAC]\09 - Miles Davis - Don't Blame Me.wav

Peak level 82.1 %
Extraction speed 5.1 X
Track quality 99.9 %
Test CRC A4391F38
Copy CRC A4391F38
Accurately ripped (confidence 8) [0216AFDC] (AR v2)
Copy OK

Track 10

Filename F:\_EAC\Charlie Parker Records - The Complete Collection, Vol 15 (2012) [FLAC]\10 - Miles Davis - Scrapple From The Apple.wav

Peak level 99.9 %
Extraction speed 6.7 X
Track quality 100.0 %
Test CRC 5144F723
Copy CRC 5144F723
Accurately ripped (confidence 8) [ACA7531C] (AR v2)
Copy OK

Track 11

Filename F:\_EAC\Charlie Parker Records - The Complete Collection, Vol 15 (2012) [FLAC]\11 - Lester Young - Blues.wav

Peak level 62.5 %
Extraction speed 7.4 X
Track quality 100.0 %
Test CRC BD52FE43
Copy CRC BD52FE43
Accurately ripped (confidence 8) [04287E40] (AR v2)
Copy OK

Track 12

Filename F:\_EAC\Charlie Parker Records - The Complete Collection, Vol 15 (2012) [FLAC]\12 - Lester Young - Destination Moon.wav

Peak level 60.7 %
Extraction speed 8.5 X
Track quality 100.0 %
Test CRC AAE55C0F
Copy CRC AAE55C0F
Accurately ripped (confidence 8) [6A4FD499] (AR v2)
Copy OK

Track 13

Filename F:\_EAC\Charlie Parker Records - The Complete Collection, Vol 15 (2012) [FLAC]\13 - Lester Young - I Cover The Waterfront.wav

Peak level 64.3 %
Extraction speed 8.9 X
Track quality 100.0 %
Test CRC 2ABDDFCC
Copy CRC 2ABDDFCC
Accurately ripped (confidence 8) [18876780] (AR v2)
Copy OK

Track 14

Filename F:\_EAC\Charlie Parker Records - The Complete Collection, Vol 15 (2012) [FLAC]\14 - Lester Young - Lester Leaps In.wav

Peak level 57.5 %
Extraction speed 8.5 X
Track quality 100.0 %
Test CRC 6C8B4F33
Copy CRC 6C8B4F33
Accurately ripped (confidence 8) [EC72B506] (AR v2)
Copy OK

Track 15

Filename F:\_EAC\Charlie Parker Records - The Complete Collection, Vol 15 (2012) [FLAC]\15 - Lester Young - Sunday.wav

Peak level 58.9 %
Extraction speed 9.5 X
Track quality 100.0 %
Test CRC 9511B2A3
Copy CRC 9511B2A3
Accurately ripped (confidence 8) [F9F7B103] (AR v2)
Copy OK

Track 16

Filename F:\_EAC\Charlie Parker Records - The Complete Collection, Vol 15 (2012) [FLAC]\16 - Lester Young - These Foolish Things.wav

Peak level 65.8 %
Extraction speed 7.6 X
Track quality 99.9 %
Test CRC 4B43EE03
Copy CRC 4B43EE03
Accurately ripped (confidence 8) [B065014A] (AR v2)
Copy OK


All tracks accurately ripped

No errors occurred

End of status report

–– CUETools DB Plugin V2.1.6

[CTDB TOCID: FCeqiPJ8_qJWgsQAvkm6FFiSUj4-] found
Submit result: FCeqiPJ8_qJWgsQAvkm6FFiSUj4- has been confirmed
Track | CTDB Status
1 | (7/7) Accurately ripped
2 | (7/7) Accurately ripped
3 | (7/7) Accurately ripped
4 | (7/7) Accurately ripped
5 | (7/7) Accurately ripped
6 | (7/7) Accurately ripped
7 | (7/7) Accurately ripped
8 | (7/7) Accurately ripped
9 | (7/7) Accurately ripped
10 | (7/7) Accurately ripped
11 | (7/7) Accurately ripped
12 | (7/7) Accurately ripped
13 | (7/7) Accurately ripped
14 | (7/7) Accurately ripped
15 | (7/7) Accurately ripped
16 | (7/7) Accurately ripped


==== Log checksum F86870E26BE01201E72ED8F79993C860E93FD27758C8B1269E0840C104CE16DC ====


Charlie Parker Records: The Complete Collection, Vol. 15 - Miles Davis + Lester Young (2012 CP Records 233193/15 rec 1946-47}

Charlie Parker Records: The Complete Collection, Vol. 15 - Miles Davis + Lester Young (2012 CP Records 233193/15 rec 1946-47}

Charlie Parker Records: The Complete Collection, Vol. 15 - Miles Davis + Lester Young (2012 CP Records 233193/15 rec 1946-47}


see more Charlie Parker Records, The Complete Collection…


===