Subcategories

Charlie Parker Records: The Complete Collection, Vol. 16 - Lester Young (2012 CP Records 233193/16 rec 1948-1950}

Posted By: ruskaval
Charlie Parker Records: The Complete Collection, Vol. 16 - Lester Young (2012 CP Records 233193/16 rec 1948-1950}

Charlie Parker Records: The Complete Collection, Vol. 16 - Lester Young (2012 CP Records 233193/16 rec 1948-1950}
EAC rip (secure mode) | FLAC (tracks)+CUE+LOG -> 222 Mb | MP3 @320 -> 142 Mb
Full Artwork @ 600 dpi (jpg) -> 60 Mb | 5% repair rar
© 1948-50, 2012 Charlie Parker Records / Membran Media / Documents | 233193 / 16
Jazz / Bop / Mainstream Jazz / Saxophone

Exhaustive 30 CD collection from the Jazz legend's short-lived label. Contains 44 original albums (421 tracks) plus booklet. Every record-collector has run across an album with the little sax-playing bird in it's label-logo, right next to the brand name Charlie Parker Records or CP Parker Records. Turning the sleeve over, especially if it was one of the non-Parker releases, and seeing a '60s release date under the header Stereo-pact! Was as exciting an experience as it was confusing. Was the claim Bird Lives meant more literally than previously thought?

What do the Rays Nance and Barretto have to do with Charlie Parker? Who is the Satan in High Heels? When did Barney Kessel and Harold Land tame El Tigre? And what is Stereo-pact!, after all? Rumors are far and wide, speculation and misinformation abounds, while fans and experts discuss the releases of this short-lived label from the '60s at record fairs and in internet forums. But even though a discography can be found online, never before has anyone made an attempt to present the complete output of this legendary label in one set.
Charlie Parker Records: The Complete Collection, Vol. 16 - Lester Young (2012 CP Records 233193/16 rec 1948-1950}

Charlie Parker Records: The Complete Collection, Vol. 16 - Lester Young (2012 CP Records 233193/16 rec 1948-1950}

Charlie Parker Records: The Complete Collection, Vol. 16 - Lester Young (2012 CP Records 233193/16 rec 1948-1950}


see more INFO

============


Charlie Parker Records: The Complete Collection, Vol. 16 - Lester Young (2012 CP Records 233193/16 rec 1948-1950}


TRACKLISTING and PERSONNEL

Lester Young - Just You Just Me


01 - Be Bop Boogie (L. Young)
02 - These Foolish Things (Marvell – Strachey)
03 - D B Blues (C. Beaks – L. Young)
04 - Just You Just Me (Klages – Greer)
05 - I Cover The Waterfront (Green – Heyman)
06 - How High The Moon (Hamilton – Lewis)
07 – Sunday (Miller – Kahn)

Recorded live at the Royal Roost in New York, 1948/1949
Lester Young, tenor-sax – Jesse Drakes, trumpet – Freddy Jefferson, piano – Ted Kelly, trombone
Ted Briscoe, bass – Roy Haynes, drums


Lester Young - Pres Is Blue

08 - Mean To Me (R. Turk – F. Ahlert)
09 - On The Sunny Side Of The Street (J. McHugh – D. Fields)
10 - Pennies From Heaven (J. Burke – A. Johnston)
11 - Stardust (M. Parish – H. Carmichael)
12 - Three Little Words (B. Kalmar – H. Ruby)

Recorded at the Savoy In New York City in 1950
Re-recorded at RCA Victor, New York City, April 10th, 1962
Lester Young, Tenor Sax - Jesse Drake, Trumpet - Kenny Drew, Piano - Aaron Bell, Bass - Joe Jones, Drums.


Exact Audio Copy V1.3 from 2. September 2016

EAC extraction logfile from 24. February 2020, 17:49

Lester Young / Charlie Parker Records: The Complete Collection, Vol. 16

Used drive : ATAPI iHAS122 F Adapter: 1 ID: 0

Read mode : Secure
Utilize accurate stream : Yes
Defeat audio cache : Yes
Make use of C2 pointers : No

Read offset correction : 6
Overread into Lead-In and Lead-Out : No
Fill up missing offset samples with silence : Yes
Delete leading and trailing silent blocks : No
Null samples used in CRC calculations : Yes
Used interface : Native Win32 interface for Win NT & 2000
Gap handling : Appended to previous track

Used output format : User Defined Encoder
Selected bitrate : 1024 kBit/s
Quality : High
Add ID3 tag : No
Command line compressor : C:\Program Files (x86)\Exact Audio Copy_v1.3\Flac\flac.exe
Additional command line options : -8 -V -T "ARTIST=%artist%" -T "TITLE=%title%" -T "ALBUM=%albumtitle%" -T "DATE=%year%" -T "TRACKNUMBER=%tracknr%" -T "TOTALTRACKS=%numtracks%" -T "GENRE=%genre%" -T "ALBUMARTIST=%albumartist%" -T "ALBUM ARTIST=%albumartist%" -T "COMMENT=EAC Secure Mode, Test & Copy, AccurateRip, FLAC -8" %source%


TOC of the extracted CD

Track | Start | Length | Start sector | End sector
––––––––––––––––––––––––––––-
1 | 0:00.00 | 3:13.01 | 0 | 14475
2 | 3:13.01 | 3:23.34 | 14476 | 29734
3 | 6:36.35 | 2:20.44 | 29735 | 40278
4 | 8:57.04 | 3:02.02 | 40279 | 53930
5 | 11:59.06 | 5:40.23 | 53931 | 79453
6 | 17:39.29 | 4:28.70 | 79454 | 99623
7 | 22:08.24 | 4:10.34 | 99624 | 118407
8 | 26:18.58 | 4:43.04 | 118408 | 139636
9 | 31:01.62 | 6:11.45 | 139637 | 167506
10 | 37:13.32 | 6:31.73 | 167507 | 196904
11 | 43:45.30 | 7:12.13 | 196905 | 229317
12 | 50:57.43 | 6:20.33 | 229318 | 257850


Track 1

Filename F:\_EAC\Charlie Parker Records - The Complete Collection, Vol 16 (2012) [FLAC]\01 - Be Bop Boogie.wav

Pre-gap length 0:00:02.00

Peak level 99.3 %
Extraction speed 4.6 X
Track quality 100.0 %
Test CRC FFB1B267
Copy CRC FFB1B267
Accurately ripped (confidence 8) [8A301F01] (AR v2)
Copy OK

Track 2

Filename F:\_EAC\Charlie Parker Records - The Complete Collection, Vol 16 (2012) [FLAC]\02 - These Foolish Things.wav

Peak level 99.8 %
Extraction speed 5.0 X
Track quality 100.0 %
Test CRC 9E87580A
Copy CRC 9E87580A
Accurately ripped (confidence 8) [5718AB44] (AR v2)
Copy OK

Track 3

Filename F:\_EAC\Charlie Parker Records - The Complete Collection, Vol 16 (2012) [FLAC]\03 - D B Blues.wav

Peak level 99.9 %
Extraction speed 4.9 X
Track quality 100.0 %
Test CRC AD65F123
Copy CRC AD65F123
Accurately ripped (confidence 8) [332D073C] (AR v2)
Copy OK

Track 4

Filename F:\_EAC\Charlie Parker Records - The Complete Collection, Vol 16 (2012) [FLAC]\04 - Just You Just Me.wav

Peak level 99.7 %
Extraction speed 5.5 X
Track quality 100.0 %
Test CRC 00C68638
Copy CRC 00C68638
Accurately ripped (confidence 8) [87E11F9C] (AR v2)
Copy OK

Track 5

Filename F:\_EAC\Charlie Parker Records - The Complete Collection, Vol 16 (2012) [FLAC]\05 - I Cover The Waterfront.wav

Peak level 97.9 %
Extraction speed 5.5 X
Track quality 99.9 %
Test CRC 85DBDD2F
Copy CRC 85DBDD2F
Accurately ripped (confidence 8) [B1987CCD] (AR v2)
Copy OK

Track 6

Filename F:\_EAC\Charlie Parker Records - The Complete Collection, Vol 16 (2012) [FLAC]\06 - How High The Moon.wav

Peak level 99.9 %
Extraction speed 5.6 X
Track quality 99.9 %
Test CRC A30D77BA
Copy CRC A30D77BA
Accurately ripped (confidence 8) [E217ACCD] (AR v2)
Copy OK

Track 7

Filename F:\_EAC\Charlie Parker Records - The Complete Collection, Vol 16 (2012) [FLAC]\07 - Sunday.wav

Peak level 99.4 %
Extraction speed 6.9 X
Track quality 100.0 %
Test CRC 31A0C087
Copy CRC 31A0C087
Accurately ripped (confidence 8) [2E4185B6] (AR v2)
Copy OK

Track 8

Filename F:\_EAC\Charlie Parker Records - The Complete Collection, Vol 16 (2012) [FLAC]\08 - Mean To Me.wav

Peak level 99.8 %
Extraction speed 7.3 X
Track quality 100.0 %
Test CRC B16849EB
Copy CRC B16849EB
Accurately ripped (confidence 8) [C77FF9F8] (AR v2)
Copy OK

Track 9

Filename F:\_EAC\Charlie Parker Records - The Complete Collection, Vol 16 (2012) [FLAC]\09 - On The Sunny Side Of The Street.wav

Peak level 99.8 %
Extraction speed 8.0 X
Track quality 100.0 %
Test CRC 8AA54E29
Copy CRC 8AA54E29
Accurately ripped (confidence 8) [2C2E448D] (AR v2)
Copy OK

Track 10

Filename F:\_EAC\Charlie Parker Records - The Complete Collection, Vol 16 (2012) [FLAC]\10 - Pennies From Heaven.wav

Peak level 99.7 %
Extraction speed 8.4 X
Track quality 100.0 %
Test CRC 9D9B0D6B
Copy CRC 9D9B0D6B
Accurately ripped (confidence 8) [16309CBC] (AR v2)
Copy OK

Track 11

Filename F:\_EAC\Charlie Parker Records - The Complete Collection, Vol 16 (2012) [FLAC]\11 - Stardust.wav

Peak level 96.1 %
Extraction speed 8.9 X
Track quality 100.0 %
Test CRC DF4441CC
Copy CRC DF4441CC
Accurately ripped (confidence 8) [FCBD29FA] (AR v2)
Copy OK

Track 12

Filename F:\_EAC\Charlie Parker Records - The Complete Collection, Vol 16 (2012) [FLAC]\12 - Three Little Words.wav

Peak level 99.6 %
Extraction speed 8.1 X
Track quality 99.9 %
Test CRC 6FA360B2
Copy CRC 6FA360B2
Accurately ripped (confidence 8) [29E9147E] (AR v2)
Copy OK


All tracks accurately ripped

No errors occurred

End of status report

–– CUETools DB Plugin V2.1.6

[CTDB TOCID: Yrq8F857es4766I3_JKwlvNH64o-] found
Submit result: Yrq8F857es4766I3_JKwlvNH64o- has been confirmed
Track | CTDB Status
1 | (7/7) Accurately ripped
2 | (7/7) Accurately ripped
3 | (7/7) Accurately ripped
4 | (7/7) Accurately ripped
5 | (7/7) Accurately ripped
6 | (7/7) Accurately ripped
7 | (7/7) Accurately ripped
8 | (7/7) Accurately ripped
9 | (7/7) Accurately ripped
10 | (7/7) Accurately ripped
11 | (7/7) Accurately ripped
12 | (7/7) Accurately ripped


==== Log checksum 92F694C9E8DE675D41A7F8B3C99A795B7F118F4E44926976CF049CC7A36E97CF ====


Charlie Parker Records: The Complete Collection, Vol. 16 - Lester Young (2012 CP Records 233193/16 rec 1948-1950}

Charlie Parker Records: The Complete Collection, Vol. 16 - Lester Young (2012 CP Records 233193/16 rec 1948-1950}

Charlie Parker Records: The Complete Collection, Vol. 16 - Lester Young (2012 CP Records 233193/16 rec 1948-1950}


see more Charlie Parker Records, The Complete Collection…


===